osu file format v5

[General]
AudioFilename: fort minor - remember_the_name.mp3
AudioLeadIn: 0
PreviewTime: -1
Countdown: 3
SampleSet: Normal
StackLeniency: 0.7
Mode: 0
LetterboxInBreaks: 1
EditorDistanceSpacing: 0.800000011920929

[Metadata]
Title:Remember The Name
Artist:Fort Minor
Creator:LFPB07
Version:Easy
Source:
Tags:

[Difficulty]
HPDrainRate:5
CircleSize:4
OverallDifficulty:5
SliderMultiplier:1.4
SliderTickRate:3

[Events]
//Background and Video events
0,0,"Fort_Minor_-_Red_to_Black.jpg"
//Break Periods
2,102086,109156
//Storyboard Layer 0 (Background)
//Storyboard Layer 1 (Failing)
//Storyboard Layer 2 (Passing)
//Storyboard Layer 3 (Foreground)
//Storyboard Sound Samples
//Background Colour Transformations
3,100,0,0,0

[TimingPoints]
20004,1411.76470588235,4,1,0,100,1,0

[HitObjects]
256,192,20004,12,0,21415
50,55,22827,5,0
49,168,24239,1,0
45,279,25651,1,0
152,280,27062,2,0,C|296:280,1,140
404,283,29886,5,0
402,170,31298,1,0
290,173,32709,2,0,C|138:173,1,140
411,87,35533,5,0
299,89,36945,1,0
187,88,38356,2,0,C|43:88,1,140
42,199,41180,5,0
153,202,42592,1,0
156,313,44003,1,0
44,315,45415,2,0,C|44:172,1,140
156,176,48239,2,0,C|156:340,1,140
268,314,51062,5,0
380,314,52474,1,0
331,223,53886,2,0,C|397:207|477:227|476:227|493:240,1,140
256,192,55298,12,0,56709
452,261,58121,5,0
454,149,59533,1,0
341,149,60945,1,0
229,152,62356,2,0,C|76:152,2,140
341,156,66592,2,0,C|484:156,1,140
455,240,69415,5,0
455,352,70827,1,0
342,353,72239,1,0
342,240,73651,1,0
230,242,75062,1,0
233,351,76474,2,0,C|305:336|392:365,1,140
256,192,77886,12,0,79298
365,64,80709,6,0,C|419:185|365:362,1,280
266,318,84945,1,0
154,327,86356,2,0,C|114:188|168:67,1,280,0|0
251,195,90592,5,0
139,195,92003,1,0
258,195,93415,1,0
360,192,94827,1,0
256,199,96239,1,0
256,309,97651,1,0
184,312,99062,2,0,C|360:312,1,140
256,192,100474,12,0,101886
256,192,110356,12,0,113180
44,56,114592,6,0,C|44:156|43:156,2,70
136,56,117415,2,0,C|136:128,2,70
248,48,120239,1,0
359,51,121651,1,0
470,49,123062,2,0,C|470:193,1,140
361,196,125886,5,0
309,174,126356,1,0
142,198,128709,5,0
193,176,129180,1,0
256,56,131533,5,0
256,112,132003,1,0
192,200,132945,2,0,C|264:185|351:214,1,140
256,192,134356,12,0,135768
110,277,137180,5,0
110,164,138592,1,0
221,162,140003,1,0
333,162,141415,2,0,C|483:162,2,140
220,164,145651,2,0,C|65:164,1,140
68,248,148474,5,0
68,360,149886,1,0
181,360,151298,1,0
182,257,152709,1,0
300,256,154121,1,0
302,367,155533,2,0,C|236:345|147:369,1,140
256,192,156945,12,0,158356
