osu file format v13

[General]
AudioFilename: You May Not Want To Hear This But 192.mp3
AudioLeadIn: 0
PreviewTime: 93789
Countdown: 0
SampleSet: None
StackLeniency: 0.7
Mode: 0
LetterboxInBreaks: 0
WidescreenStoryboard: 1

[Editor]
DistanceSpacing: 1.1
BeatDivisor: 4
GridSize: 4
TimelineZoom: 1

[Metadata]
Title:You May Not Want To Hear This But
TitleUnicode:You May Not Want To Hear This But
Artist:Foreground Eclipse
ArtistUnicode:Foreground Eclipse
Creator:GoldenWolf
Version:Normal
Source:Touhou
Tags:Seated With Liquor Merami Meramipop Teto Draw the Emotional C83 The Sealed-away Youkai Touhou 11 Subterranean Animism The Dark Blowhole Kurodani Yamame Xakyrie
BeatmapID:316593
BeatmapSetID:89429

[Difficulty]
HPDrainRate:3
CircleSize:3
OverallDifficulty:4
ApproachRate:5
SliderMultiplier:0.900000005960464
SliderTickRate:2

[Events]
//Background and Video events
0,0,"orz.png",0,0
//Break Periods
2,71371,78710
2,114093,122746
2,154303,161642
//Storyboard Layer 0 (Background)
//Storyboard Layer 1 (Fail)
//Storyboard Layer 2 (Pass)
//Storyboard Layer 3 (Foreground)
//Storyboard Sound Samples
//Background Colour Transformations
3,100,163,162,255

[TimingPoints]
3318,314.13612565445,4,3,2,70,1,0
5831,-100,4,3,2,100,0,0
5909,-100,4,3,2,70,0,0
6773,-100,4,3,1,70,0,0
6852,-100,4,3,2,70,0,0
9286,-100,4,3,1,70,0,0
9365,-100,4,3,2,70,0,0
10857,-100,4,3,2,100,0,0
10935,-100,4,3,2,70,0,0
11799,-100,4,3,1,70,0,0
11878,-100,4,3,2,70,0,0
14312,-100,4,3,1,70,0,0
14391,-100,4,3,2,70,0,0
15883,-100,4,3,2,100,0,0
15961,-100,4,3,2,70,0,0
16825,-100,4,3,1,70,0,0
16904,-100,4,3,2,70,0,0
19338,-100,4,3,1,70,0,0
19417,-100,4,3,2,70,0,0
20909,-100,4,3,2,100,0,0
20988,-100,4,3,2,70,0,0
21852,-100,4,3,1,70,0,0
21930,-100,4,3,2,70,0,0
24365,-100,4,3,1,70,0,0
24443,-100,4,3,2,70,0,0
25935,-100,4,3,2,100,0,0
26014,-100,4,3,2,70,0,0
28448,-100,4,3,1,50,0,0
33475,-100,4,3,1,100,0,0
33553,-100,4,3,1,50,0,0
38501,-100,4,3,1,100,0,0
38579,-100,4,3,1,50,0,0
43527,-100,4,3,1,100,0,0
43605,-100,4,3,1,50,0,0
51066,-100,4,3,1,100,0,0
51145,-100,4,3,1,60,0,0
53422,-100,4,3,5,100,0,0
53501,-100,4,3,1,60,0,0
56092,-100,4,3,1,100,0,0
56171,-100,4,3,1,60,0,0
58448,-100,4,2,2,60,0,0
58527,-100,4,3,1,60,0,0
61119,-100,4,3,1,100,0,0
61197,-100,4,3,1,60,0,0
63475,-100,4,3,5,100,0,0
63553,-100,4,3,1,60,0,0
65674,-100,4,3,1,100,0,0
65752,-100,4,3,1,60,0,0
66145,-100,4,3,1,100,0,0
66223,-100,4,3,1,60,0,0
71171,-100,4,3,1,100,0,0
71249,-100,4,3,1,60,0,0
91276,-100,4,3,1,100,0,0
92532,-100,4,3,1,60,0,0
93789,-100,4,3,1,100,0,1
93867,-100,4,3,1,60,0,1
98815,-100,4,3,1,100,0,1
98893,-100,4,3,1,60,0,1
103841,-100,4,3,1,100,0,1
103920,-100,4,3,1,60,0,1
108867,-100,4,3,1,100,0,1
108946,-100,4,3,1,60,0,1
113893,-100,4,3,1,100,0,0
113972,-100,4,3,1,60,0,0
123946,-100,4,3,1,100,0,0
124024,-100,4,3,1,60,0,0
133998,-100,4,3,1,100,0,0
134077,-100,4,3,1,60,0,0
144050,-100,4,3,1,100,0,0
144129,-100,4,3,1,60,0,0
149077,-100,4,3,1,100,0,0
149155,-100,4,3,1,60,0,0
154103,-100,4,3,1,100,0,0
154181,-100,4,3,1,60,0,0
164155,-100,4,3,1,100,0,0
164234,-100,4,3,1,60,0,0
169181,-100,4,3,1,100,0,0
169260,-100,4,3,1,60,0,0
174208,-100,4,3,1,100,0,1
174286,-100,4,3,1,60,0,1
179234,-100,4,3,1,100,0,1
179312,-100,4,3,1,60,0,1
184260,-100,4,3,1,100,0,1
184338,-100,4,3,1,60,0,1
189286,-100,4,3,1,100,0,1
189365,-100,4,3,1,60,0,1
193056,-100,4,3,1,70,0,1
194312,-100,4,3,1,65,0,0
198082,-100,4,3,1,100,0,0
198160,-100,4,3,1,65,0,0
203108,-100,4,3,1,100,0,0
203187,-100,4,3,1,65,0,0
212846,-100,4,3,1,100,0,0
212925,-100,4,3,1,65,0,0
213789,-100,4,3,1,100,0,0
214417,-100,4,3,1,100,0,1
214496,-100,4,3,1,60,0,1
219443,-100,4,3,1,100,0,1
219522,-100,4,3,1,60,0,1
224469,-100,4,3,1,100,0,1
224548,-100,4,3,1,60,0,1
229496,-100,4,3,1,100,0,1
229574,-100,4,3,1,60,0,1
234522,-100,4,3,1,100,0,0
234600,-100,4,3,1,5,0,0
237035,-100,4,3,1,80,0,0
237113,-100,4,3,1,5,0,0
239391,-100,4,3,1,80,0,0
240176,-100,4,3,1,100,0,0
240255,-100,4,3,1,5,0,0

[Colours]
Combo1 : 175,175,143
Combo2 : 154,186,163
Combo3 : 234,234,149
Combo4 : 15,120,240

[HitObjects]
236,52,3317,6,4,P|196:72|164:120,1,90.0000005960464,0|0,0:0|0:0,0:0:0:0:
220,192,3946,2,4,L|208:244,1,45.0000002980232
116,272,4417,2,4,B|96:232|96:232|92:184,2,90.0000005960464
196,328,5359,1,0,0:0:0:0:
312,232,5831,6,0,P|344:296|340:372,2,135.00000089407,2|0|2,0:0|0:0|0:0,0:0:0:0:
220,192,7087,1,4,0:0:0:0:
140,252,7401,2,0,L|100:276,2,45.0000002980232,0|0|8,0:0|0:0|0:0,0:0:0:0:
112,156,8030,2,0,L|68:148,2,45.0000002980232,0|0|4,0:0|0:0|0:0,0:0:0:0:
188,92,8658,2,0,P|195:48|183:1,2,90.0000005960464,0|8|2,0:0|0:0|0:0,0:0:0:0:
252,168,9600,6,0,P|296:176|344:164,1,90.0000005960464,4|0,0:0|0:0,0:0:0:0:
400,88,10228,1,8,0:0:0:0:
464,164,10543,1,8,0:0:0:0:
416,252,10857,6,0,P|408:316|440:384,2,135.00000089407,0|0|2,0:0|0:0|0:0,0:0:0:0:
328,208,12113,1,4,0:0:0:0:
304,304,12427,2,0,L|292:352,2,45.0000002980232,0|0|8,0:0|0:0|0:0,0:0:0:0:
208,276,13056,2,0,L|176:312,2,45.0000002980232,0|0|4,0:0|0:0|0:0,0:0:0:0:
156,192,13684,2,0,B|131:186|131:186|95:193|95:193|64:188,2,90.0000005960464,0|8|2,0:0|0:0|0:0,0:0:0:0:
252,172,14626,5,4,0:0:0:0:
292,80,14941,1,4,0:0:0:0:
204,36,15255,2,4,P|165:59|136:94,1,90.0000005960464
156,192,15883,6,0,B|176:232|176:232|176:280|176:280|200:320,2,135.00000089407,2|0|2,0:0|0:0|0:0,0:0:0:0:
60,212,17139,1,4,0:0:0:0:
32,308,17454,2,0,L|0:340,2,45.0000002980232,0|0|8,0:0|0:0|0:0,0:0:0:0:
128,336,18082,2,0,L|112:380,2,45.0000002980232,0|0|4,0:0|0:0|0:0,0:0:0:0:
224,308,18710,2,0,P|268:300|312:308,2,90.0000005960464,0|8|2,0:0|0:0|0:0,0:0:0:0:
144,248,19653,6,0,P|128:208|132:160,1,90.0000005960464,4|0,0:0|0:0,0:0:0:0:
192,84,20281,1,8,0:0:0:0:
288,64,20595,1,8,0:0:0:0:
384,84,20909,6,0,P|448:64|484:8,2,135.00000089407,2|0|2,0:0|0:0|0:0,0:0:0:0:
356,180,22166,1,4,0:0:0:0:
404,268,22480,2,0,L|448:252,2,45.0000002980232,0|0|8,0:0|0:0|0:0,0:0:0:0:
400,368,23108,2,0,L|444:372,2,45.0000002980232,0|0|4,0:0|0:0|0:0,0:0:0:0:
304,348,23736,2,0,P|260:340|216:348,2,90.0000005960464,0|8|2,0:0|0:0|0:0,0:0:0:0:
328,252,24679,5,4,0:0:0:0:
276,168,24993,1,4,0:0:0:0:
180,148,25307,2,4,P|136:152|96:176,1,90.0000005960464
76,272,25935,6,0,L|80:320,1,45.0000002980232,2|4,0:0|0:0,0:0:0:0:
172,280,26407,6,0,L|164:328,1,45.0000002980232,2|4,0:0|0:0,0:0:0:0:
260,292,26878,6,0,L|264:336,1,45.0000002980232,2|4,0:0|0:0,0:0:0:0:
356,300,27350,6,0,L|352:348,1,45.0000002980232,2|4,0:0|0:0,0:0:0:0:
448,320,27820,5,4,0:0:0:0:
476,224,28134,1,4,0:0:0:0:
456,128,28448,5,4,0:2:0:0:
368,80,28763,2,0,P|324:84|280:108,1,90.0000005960464,8|0,0:0|0:0,0:0:0:0:
248,196,29391,2,0,P|204:192|160:168,1,90.0000005960464,8|4,0:0|0:0,0:0:0:0:
68,144,30019,2,0,P|39:177|25:226,1,90.0000005960464,8|0,0:0|0:0,0:0:0:0:
108,268,30647,2,0,P|136:301|150:350,1,90.0000005960464,8|4,0:0|0:0,0:0:0:0:
248,340,31276,6,0,L|340:328,1,90.0000005960464,8|0,0:0|0:0,0:0:0:0:
376,236,31904,2,0,L|319:162,1,90.0000005960464,8|4,0:0|0:0,0:0:0:0:
224,176,32532,2,0,L|188:261,1,90.0000005960464,8|0,0:0|0:0,0:0:0:0:
100,216,33160,2,0,L|135:130,1,90.0000005960464,8|4,0:0|0:2,0:0:0:0:
200,60,33789,6,0,P|244:48|280:16,1,90.0000005960464,8|0,0:0|0:0,0:0:0:0:
280,120,34417,2,0,P|325:119|368:98,1,90.0000005960464,8|4,0:0|0:0,0:0:0:0:
344,200,35045,2,0,P|388:211|435:201,1,90.0000005960464,8|0,0:0|0:0,0:0:0:0:
388,292,35674,2,0,P|427:314|475:317,1,90.0000005960464,8|4,0:0|0:0,0:0:0:0:
300,328,36302,6,0,B|256:336|256:336|212:328,1,90.0000005960464,8|0,0:0|0:0,0:0:0:0:
164,240,36930,2,0,B|208:232|208:232|252:240,1,90.0000005960464,8|4,0:0|0:0,0:0:0:0:
344,200,37558,2,0,B|352:156|352:156|344:112,1,90.0000005960464,8|0,0:0|0:0,0:0:0:0:
252,72,38187,2,0,L|244:28,2,45.0000002980232,8|4|4,0:0|0:0|0:2,0:0:0:0:
180,140,38815,6,0,B|140:160|140:160|92:164,1,90.0000005960464,8|0,0:0|0:0,0:0:0:0:
24,232,39443,2,0,B|64:252|64:252|112:256,1,90.0000005960464,8|4,0:0|0:0,0:0:0:0:
204,228,40071,2,0,B|212:271|212:271|204:319,1,90.0000005960464,8|0,0:0|0:0,0:0:0:0:
304,312,40700,2,0,B|295:268|295:268|303:220,1,90.0000005960464,8|4,0:0|0:0,0:0:0:0:
392,268,41328,6,0,L|484:252,1,90.0000005960464,8|0,0:0|0:0,0:0:0:0:
420,176,41956,2,0,L|504:136,1,90.0000005960464,8|4,0:0|0:0,0:0:0:0:
428,72,42585,2,0,L|351:18,1,90.0000005960464,8|0,0:0|0:0,0:0:0:0:
342,116,43213,2,0,L|254:83,1,90.0000005960464,8|4,0:0|0:2,0:0:0:0:
248,184,43841,6,0,P|230:226|192:256,1,90.0000005960464,8|0,0:0|0:0,0:0:0:0:
101,239,44469,2,0,P|118:196|156:166,1,90.0000005960464,8|4,0:0|0:0,0:0:0:0:
212,92,45098,2,0,P|245:62|262:21,1,90.0000005960464,8|0,0:0|0:0,0:0:0:0:
167,6,45726,2,0,P|133:35|116:76,1,90.0000005960464,8|4,0:0|0:0,0:0:0:0:
152,168,46354,6,0,L|196:252,1,90.0000005960464,8|0,0:0|0:0,0:0:0:0:
288,280,46982,1,8,0:0:0:0:
372,228,47297,2,0,P|408:148|380:60,2,180.000001192093,4|4|4,0:0|0:0|0:0,0:0:0:0:
288,280,48867,2,4,P|244:280|200:264,1,90.0000005960464
128,196,49496,2,4,P|109:156|105:109,1,90.0000005960464
164,32,50124,1,4,0:0:0:0:
264,36,50438,6,0,L|308:44,2,45.0000002980232
216,124,51066,5,4,0:2:0:0:
240,220,51380,2,0,P|248:264|244:308,1,90.0000005960464,8|0,0:0|0:0,0:0:0:0:
148,280,52009,2,0,P|140:236|144:192,1,90.0000005960464,8|4,0:0|0:0,0:0:0:0:
216,124,52637,5,8,0:0:0:0:
312,144,52951,1,0,0:0:0:0:
372,224,53265,2,0,P|384:268|380:312,1,90.0000005960464,8|4,0:0|0:0,0:0:0:0:
292,356,53893,6,0,B|247:364|247:364|203:356,1,90.0000005960464,8|0,0:0|0:0,0:0:0:0:
160,268,54522,2,0,B|204:259|204:259|248:267,1,90.0000005960464,8|4,0:0|0:0,0:0:0:0:
340,232,55150,1,8,0:0:0:0:
388,144,55464,2,0,P|336:68|248:60,1,180.000001192093,4|4,0:0|0:2,0:0:0:0:
168,108,56407,6,0,L|72:120,1,90.0000005960464,8|0,0:0|0:0,0:0:0:0:
52,216,57035,2,0,L|148:204,1,90.0000005960464,8|4,0:0|0:0,0:0:0:0:
232,168,57663,2,0,L|328:180,1,90.0000005960464,8|0,0:0|0:0,0:0:0:0:
348,276,58291,2,0,L|252:264,1,90.0000005960464,8|4,0:0|0:0,0:0:0:0:
168,308,58920,6,0,B|124:316|124:316|80:308,1,90.0000005960464,8|0,0:0|0:0,0:0:0:0:
12,236,59548,2,0,B|4:192|4:192|12:148,1,90.0000005960464,8|4,0:0|0:0,0:0:0:0:
80,76,60176,1,8,0:0:0:0:
176,48,60490,2,0,B|220:32|260:60|260:60|300:88|348:76,1,180.000001192093,4|4,0:0|0:2,0:0:0:0:
436,120,61433,6,0,P|448:164|444:208,1,90.0000005960464,8|0,0:0|0:0,0:0:0:0:
360,264,62061,2,0,P|348:220|352:176,1,90.0000005960464,8|4,0:0|0:0,0:0:0:0:
348,76,62689,2,0,P|303:72|260:84,1,90.0000005960464,8|0,0:0|0:0,0:0:0:0:
204,168,63317,2,0,P|159:171|116:159,1,90.0000005960464,8|4,0:0|0:0,0:0:0:0:
92,64,63946,6,0,B|136:59|136:59|179:71,1,90.0000005960464,8|0,0:0|0:0,0:0:0:0:
204,168,64574,2,0,B|247:179|247:179|291:176,1,90.0000005960464,8|4,0:0|0:0,0:0:0:0:
388,148,65202,2,0,L|412:236,1,90.0000005960464,8|0,0:0|0:0,0:0:0:0:
456,256,65674,2,0,B|416:312|416:312|352:340,1,135.00000089407,4|4,0:0|0:2,0:0:0:0:
264,300,66459,6,0,P|220:292|176:296,1,90.0000005960464,8|0,0:0|0:0,0:0:0:0:
76,280,67087,2,0,P|68:236|72:192,1,90.0000005960464,8|4,0:0|0:0,0:0:0:0:
164,152,67715,2,0,P|172:108|168:64,1,90.0000005960464,8|0,0:0|0:0,0:0:0:0:
76,24,68344,2,0,P|68:68|72:112,1,90.0000005960464,8|4,0:0|0:0,0:0:0:0:
16,216,68972,6,0,B|40:256|40:256|88:288,1,90.0000005960464,8|0,0:0|0:0,0:0:0:0:
176,280,69600,2,0,B|215:256|215:256|248:207,1,90.0000005960464,8|4,0:0|0:0,0:0:0:0:
276,128,70228,1,8,0:0:0:0:
368,88,70543,2,0,B|407:128|407:128|417:192|417:192|460:232,1,180.000001192093,4|4,0:0|0:2,0:0:0:0:
304,148,79967,6,4,P|316:192|304:236,1,90.0000005960464
208,236,80595,2,4,P|196:192|208:148,1,90.0000005960464
264,68,81223,5,4,0:0:0:0:
364,80,81537,2,4,P|404:168|392:256,1,180.000001192093
224,348,82794,2,4,P|184:260|196:172,1,180.000001192093
240,92,83736,5,4,0:2:0:0:
324,148,84050,2,4,P|408:172|480:124,1,180.000001192093
308,24,85307,2,4,P|224:0|152:48,1,180.000001192093
116,140,86249,5,4,0:2:0:0:
164,228,86564,2,4,B|193:265|241:270|241:270|289:274|324:309,1,180.000001192093
480,188,87820,2,4,B|450:150|402:145|402:145|354:141|319:106,1,180.000001192093
256,36,88763,6,4,P|212:28|168:36,1,90.0000005960464,4|4,0:2|0:0,0:0:0:0:
124,124,89391,2,4,P|168:132|212:124,1,90.0000005960464
308,96,90019,2,4,P|352:87|396:95,1,90.0000005960464
440,184,90647,2,4,P|396:192|352:184,1,90.0000005960464
256,164,91276,5,4,0:2:0:0:
100,252,92846,2,4,P|160:320|244:344,1,180.000001192093,4|6,0:0|0:0,0:0:0:0:
324,304,93789,6,0,B|360:276|360:276|408:276|440:236,2,135.00000089407,4|4|2,0:2|0:0|0:0,0:0:0:0:
227,286,95045,2,0,B|181:280|181:280|147:246|100:251,2,135.00000089407,8|4|2,0:0|0:0|0:0,0:0:0:0:
308,228,96302,2,0,B|344:168|344:168|336:104,2,135.00000089407,8|4|2,0:0|0:0|0:0,0:0:0:0:
212,200,97558,2,0,B|188:192|188:192|160:164|160:164|136:156,1,90.0000005960464,8|4,0:0|0:0,0:0:0:0:
144,56,98187,1,8,0:0:0:0:
244,68,98501,1,8,0:0:0:0:
312,140,98815,6,0,P|334:202|306:264,2,135.00000089407,4|4|2,0:2|0:0|0:0,0:0:0:0:
220,180,100071,2,0,B|180:212|132:168|92:204,2,135.00000089407,8|4|2,0:0|0:0|0:0,0:0:0:0:
232,80,101328,2,0,P|189:62|145:65,2,90.0000005960464,4|4|2,0:0|0:0|0:0,0:0:0:0:
312,140,102270,2,0,P|328:228|284:304,2,180.000001192093,4|2|4,0:0|0:0|0:0,0:0:0:0:
232,80,103841,6,0,B|192:60|192:60|156:88|88:84,2,135.00000089407,4|4|2,0:2|0:0|0:0,0:0:0:0:
312,140,105098,2,0,B|352:120|352:120|388:148|456:144,2,135.00000089407,8|4|2,0:0|0:0|0:0,0:0:0:0:
228,192,106354,2,0,P|164:208|96:192,2,135.00000089407,8|4|2,0:0|0:0|0:0,0:0:0:0:
316,236,107611,2,0,B|360:248|360:248|404:240|404:240|448:252,2,135.00000089407,8|4|2,0:0|0:0|0:0,0:0:0:0:
228,192,108867,6,0,P|136:252|240:296,1,270.000001788139,4|8,0:2|0:0,0:0:0:0:
316,236,110124,2,0,B|316:192|336:148|336:148|304:116|292:64,1,180.000001192093,4|4,0:0|0:0,0:0:0:0:
200,40,111066,1,8,0:0:0:0:
108,76,111380,2,0,P|96:120|100:164,1,90.0000005960464,4|8,0:0|0:0,0:0:0:0:
192,132,112009,2,0,P|204:176|200:220,1,90.0000005960464,4|8,0:0|0:0,0:0:0:0:
108,256,112637,2,0,P|176:316|272:288,2,180.000001192093,4|4|4,0:0|0:0|0:2,0:0:0:0:
44,68,123946,5,4,0:2:0:0:
140,44,124260,2,0,P|184:56|216:88,1,90.0000005960464,8|0,0:0|0:0,0:0:0:0:
312,92,124888,2,0,P|300:136|268:168,1,90.0000005960464,8|4,0:0|0:0,0:0:0:0:
264,264,125516,2,0,P|220:252|188:220,1,90.0000005960464,8|0,0:0|0:0,0:0:0:0:
92,216,126144,2,0,P|104:172|136:140,1,90.0000005960464,8|4,0:0|0:0,0:0:0:0:
216,88,126773,6,0,B|255:65|255:65|286:27,1,90.0000005960464,8|0,0:0|0:0,0:0:0:0:
308,128,127401,2,0,B|353:123|353:123|397:103,1,90.0000005960464,8|4,0:0|0:0,0:0:0:0:
376,204,128030,2,0,B|418:219|418:219|467:219,1,90.0000005960464,8|0,0:0|0:0,0:0:0:0:
404,300,128658,2,0,B|436:332|436:332|480:352,1,90.0000005960464,8|4,0:0|0:0,0:0:0:0:
312,312,129286,6,0,B|272:334|272:334|241:372,1,90.0000005960464,8|0,0:0|0:0,0:0:0:0:
220,272,129914,2,0,B|174:276|174:276|130:296,1,90.0000005960464,8|4,0:0|0:0,0:0:0:0:
152,196,130543,2,0,B|109:180|109:180|60:180,1,90.0000005960464,8|0,0:0|0:0,0:0:0:0:
124,100,131171,2,0,B|91:67|91:67|47:47,1,90.0000005960464,8|4,0:0|0:0,0:0:0:0:
220,60,131799,6,0,B|236:44|236:44|264:52|304:32,2,90.0000005960464,8|2|8,0:0|0:0|0:0,0:0:0:0:
200,156,132742,2,0,B|192:176|192:176|200:200|200:200|192:220|192:220|200:244,1,90.0000005960464,4|8,0:0|0:0,0:0:0:0:
284,292,133370,2,0,L|312:328,2,45.0000002980232,4|4|8,0:0|0:0|0:0,0:0:0:0:
312,196,133998,1,4,0:2:0:0:
256,192,134077,12,0,138710,0:0:0:0:
328,232,139024,6,0,P|364:176|348:100,2,135.00000089407,4|0|2,0:2|0:0|0:0,0:0:0:0:
228,240,140281,1,4,0:0:0:0:
160,168,140595,2,0,L|132:130,2,45.0000002980232,0|0|8,0:0|0:0|0:0,0:0:0:0:
252,130,141224,2,0,L|256:85,2,45.0000002980232,0|0|4,0:0|0:0|0:0,0:0:0:0:
320,200,141852,2,0,B|348:192|348:192|380:192|380:192|416:184,2,90.0000005960464,0|8|2,0:0|0:0|0:0,0:0:0:0:
228,240,142794,5,4,0:0:0:0:
152,304,143108,1,4,0:0:0:0:
56,276,143422,2,4,P|48:232|64:176,1,90.0000005960464
140,132,144050,6,0,B|144:108|140:80|140:80|104:56|56:64,2,135.00000089407,4|0|2,0:2|0:0|0:0,0:0:0:0:
132,232,145307,1,4,0:0:0:0:
196,308,145621,2,0,L|232:344,2,45.0000002980232,0|0|8,0:0|0:0|0:0,0:0:0:0:
264,236,146249,2,0,L|311:253,2,45.0000002980232,0|4|4,0:0|0:2|0:0,0:0:0:0:
200,160,146878,2,0,P|164:136|116:132,2,90.0000005960464,0|8|2,0:0|0:0|0:0,0:0:0:0:
264,236,147820,6,0,P|308:232|345:207,1,90.0000005960464,4|0,0:0|0:0,0:0:0:0:
384,116,148448,1,8,0:0:0:0:
320,40,148763,1,8,0:0:0:0:
220,48,149077,6,0,B|176:52|176:52|140:80|140:80|92:84,2,135.00000089407,4|0|2,0:2|0:0|0:0,0:0:0:0:
288,120,150333,1,4,0:0:0:0:
212,180,150647,2,0,L|168:192,2,45.0000002980232,0|0|8,0:0|0:0|0:0,0:0:0:0:
296,232,151276,2,0,L|261:261,2,45.0000002980232,0|0|4,0:0|0:0|0:0,0:0:0:0:
372,172,151904,2,0,B|412:172|412:172|444:160|456:136,2,90.0000005960464,0|8|2,0:0|0:0|0:0,0:0:0:0:
288,120,152846,6,0,L|272:72,2,45.0000002980232,4|8|8,0:0|0:0|0:0,0:0:0:0:
280,220,153475,2,4,P|240:240|192:236,1,90.0000005960464,8|8,0:0|0:0,0:0:0:0:
132,160,154103,5,6,0:2:0:0:
244,112,162899,6,4,L|212:28,1,90.0000005960464,8|8,0:0|0:0,0:0:0:0:
120,60,163527,2,4,L|152:144,1,90.0000005960464,8|8,0:0|0:0,0:0:0:0:
124,240,164155,6,0,B|108:260|108:260|100:296|100:296|80:320,2,90.0000005960464,4|8|0,0:2|0:0|0:0,0:0:0:0:
220,212,165098,1,8,0:0:0:0:
316,184,165412,2,0,P|336:144|332:96,1,90.0000005960464,4|8,0:0|0:0,0:0:0:0:
256,40,166040,2,0,P|236:80|240:128,1,90.0000005960464,4|8,0:0|0:0,0:0:0:0:
316,184,166668,2,0,B|360:196|360:196|404:192,2,90.0000005960464,4|8|0,0:0|0:0|0:0,0:0:0:0:
220,212,167611,6,0,P|176:224|136:252,1,90.0000005960464,8|4,0:0|0:0,0:0:0:0:
220,308,168239,2,0,P|264:296|304:268,2,90.0000005960464,8|0|8,0:0|0:0|0:0,0:0:0:0:
128,272,169181,6,0,B|84:284|84:284|44:316,2,90.0000005960464,4|8|0,0:2|0:0|0:0,0:0:0:0:
180,188,170124,2,0,P|192:144|184:92,1,90.0000005960464,8|4,0:0|0:0,0:0:0:0:
88,96,170752,2,0,P|76:140|84:192,1,90.0000005960464,8|0,0:0|0:0,0:0:0:0:
128,272,171380,2,0,P|165:298|216:308,1,90.0000005960464,8|4,0:0|0:2,0:0:0:0:
300,272,172009,5,4,0:2:0:0:
352,188,172323,1,4,0:2:0:0:
340,88,172637,2,0,P|256:56|168:72,2,180.000001192093,4|4|4,0:2|0:0|0:0,0:0:0:0:
408,160,174208,6,0,B|432:196|432:196|424:248|456:292,2,135.00000089407,4|4|2,0:2|0:0|0:0,0:0:0:0:
320,204,175464,2,0,B|296:168|296:168|304:116|272:72,2,135.00000089407,8|4|2,0:0|0:0|0:0,0:0:0:0:
392,272,176721,2,0,P|416:216|392:136,2,135.00000089407,8|4|2,0:0|0:0|0:0,0:0:0:0:
300,308,177977,2,0,B|272:312|272:312|240:300|240:300|212:304,1,90.0000005960464,8|4,0:0|0:0,0:0:0:0:
144,232,178605,1,8,0:0:0:0:
48,252,178920,1,8,0:0:0:0:
80,156,179234,6,0,B|88:120|72:92|72:92|56:64|64:20,2,135.00000089407,4|4|2,0:2|0:0|0:0,0:0:0:0:
144,232,180490,2,0,B|152:268|136:296|136:296|120:324|128:368,2,135.00000089407,8|4|2,0:0|0:0|0:0,0:0:0:0:
220,168,181747,2,0,P|216:123|195:75,2,90.0000005960464,4|4|2,0:0|0:0|0:0,0:0:0:0:
256,260,182689,2,0,B|304:260|336:296|336:296|384:304|424:268,2,180.000001192093,4|2|4,0:0|0:0|0:0,0:0:0:0:
156,264,184260,6,0,B|112:276|112:276|80:308|80:308|36:324,2,135.00000089407,4|4|2,0:2|0:0|0:0,0:0:0:0:
216,184,185516,2,0,P|228:116|200:56,2,135.00000089407,8|4|2,0:0|0:0|0:0,0:0:0:0:
119,168,186773,2,0,B|80:148|80:148|52:104|88:44,2,135.00000089407,8|4|2,0:0|0:0|0:0,0:0:0:0:
216,184,188030,2,0,P|256:203|288:236,1,90.0000005960464,8|4,0:0|0:0,0:0:0:0:
380,272,188658,1,4,0:0:0:0:
464,220,188972,1,4,0:0:0:0:
448,124,189286,6,0,B|383:112|312:130|312:130|273:75|200:43,1,270.000001788139,4|8,0:2|0:0,0:0:0:0:
164,136,190543,2,0,B|220:160|248:216|248:216|224:244|220:284,1,180.000001192093,4|4,0:0|0:0,0:0:0:0:
320,284,191485,1,8,0:0:0:0:
388,212,191799,2,0,B|420:180|420:180|464:164,1,90.0000005960464,4|8,0:0|0:0,0:0:0:0:
404,84,192427,2,0,B|372:116|372:116|328:132,1,90.0000005960464,4|8,0:0|0:0,0:0:0:0:
236,100,193056,2,0,P|148:108|84:180,2,180.000001192093,4|4|4,0:0|0:0|0:2,0:0:0:0:
276,192,194626,6,8,P|232:204|184:184,1,90.0000005960464
116,256,195255,2,8,B|148:288|148:288|192:300,1,90.0000005960464
292,300,195883,2,8,B|334:284|334:284|363:249,1,90.0000005960464
352,152,196511,2,8,P|348:108|360:56,1,90.0000005960464
452,40,197139,6,8,L|468:136,1,90.0000005960464
428,220,197768,2,8,L|413:308,1,90.0000005960464,8|4,0:0|0:2,0:0:0:0:
220,352,198710,1,4,0:0:0:0:
116,184,199338,5,8,0:0:0:0:
204,136,199653,2,8,B|248:127|248:127|296:140,1,90.0000005960464
287,239,200282,2,8,B|243:247|243:247|195:235,1,90.0000005960464
116,184,200910,2,8,B|72:176|72:176|23:188,1,90.0000005960464
32,288,201537,2,8,B|75:296|75:296|124:284,1,90.0000005960464
208,240,202167,6,8,P|244:214|273:169,1,90.0000005960464
180,132,202795,2,8,P|205:95|250:66,1,90.0000005960464,8|4,0:0|0:2,0:0:0:0:
440,100,203736,1,4,0:0:0:0:
356,280,204365,5,8,0:0:0:0:
268,328,204679,2,4,P|224:336|180:324,2,90.0000005960464
228,236,205621,1,8,0:0:0:0:
188,144,205935,2,4,P|231:135|275:147,2,90.0000005960464
99,192,206878,5,8,0:0:0:0:
28,260,207192,2,4,P|20:304|32:348,2,90.0000005960464
120,300,208134,1,8,0:0:0:0:
212,340,208448,2,4,P|220:296|208:252,2,90.0000005960464
120,300,209391,6,4,B|136:204|61:138|61:138|156:154|222:79,2,360.000002384186,4|4|8,0:2|0:2|0:0,0:0:0:0:
220,296,212218,2,4,B|232:264|220:236|220:236|248:228,1,90.0000005960464
344,204,212846,1,4,0:0:0:0:
440,180,213160,6,0,P|384:112|292:116,1,180.000001192093,8|4,0:0|0:2,0:0:0:0:
220,296,214417,6,0,B|184:332|128:312|128:312|104:352,2,135.00000089407,4|4|2,0:2|0:0|0:0,0:0:0:0:
320,296,215674,2,0,B|356:332|412:312|412:312|436:352,2,135.00000089407,8|4|2,0:0|0:0|0:0,0:0:0:0:
320,196,216930,2,0,B|344:160|344:160|336:112|336:112|360:72,2,135.00000089407,8|4|2,0:0|0:0|0:0,0:0:0:0:
220,196,218187,2,0,P|184:168|168:124,1,90.0000005960464,8|4,0:0|0:0,0:0:0:0:
220,44,218815,1,8,0:0:0:0:
316,64,219129,1,8,0:0:0:0:
388,132,219443,6,0,B|428:152|428:152|476:136|496:76,2,135.00000089407,4|4|2,0:2|0:0|0:0,0:0:0:0:
316,64,220700,2,0,B|276:44|276:44|228:60|208:120,2,135.00000089407,8|4|2,0:0|0:0|0:0,0:0:0:0:
300,160,221956,2,0,P|272:192|228:208,2,90.0000005960464,4|4|2,0:0|0:0|0:0,0:0:0:0:
316,64,222899,2,0,P|388:116|384:208,2,180.000001192093,4|2|4,0:0|0:0|0:0,0:0:0:0:
216,68,224469,6,0,B|172:80|172:80|144:116|144:116|100:128,2,135.00000089407,4|4|2,0:2|0:0|0:0,0:0:0:0:
280,144,225726,2,0,B|324:156|324:156|352:192|352:192|396:204,2,135.00000089407,8|4|2,0:0|0:0|0:0,0:0:0:0:
204,208,226982,2,0,B|160:220|160:220|132:256|132:256|88:268,2,135.00000089407,8|4|2,0:0|0:0|0:0,0:0:0:0:
268,284,228239,2,0,B|312:296|312:296|340:332|340:332|384:344,2,135.00000089407,8|4|2,0:0|0:0|0:0,0:0:0:0:
172,308,229496,6,0,P|64:236|104:112,1,270.000001788139,4|8,0:2|0:0,0:0:0:0:
164,200,230752,2,0,B|214:186|214:186|253:135|253:135|315:119,1,180.000001192093,4|4,0:0|0:0,0:0:0:0:
400,172,231694,1,8,0:0:0:0:
452,256,232009,2,0,P|436:300|404:328,1,90.0000005960464,4|8,0:0|0:0,0:0:0:0:
304,316,232637,2,0,P|320:272|352:244,1,90.0000005960464,4|8,0:0|0:0,0:0:0:0:
452,256,233265,2,0,B|452:212|476:172|476:172|448:132|440:84,2,180.000001192093,4|4|4,0:0|0:0|0:2,0:0:0:0:
256,192,234600,12,4,237035,0:2:0:0:
256,192,237113,12,4,239391,0:0:0:0:
256,192,240176,5,4,0:2:0:0:
256,192,240255,12,0,248344,2:0:0:0:
