osu file format v13

[General]
AudioFilename: innocencemp3.mp3
AudioLeadIn: 0
PreviewTime: 87309
Countdown: 0
SampleSet: Soft
StackLeniency: 0.7
Mode: 0
LetterboxInBreaks: 0
WidescreenStoryboard: 0

[Editor]
DistanceSpacing: 1.2
BeatDivisor: 4
GridSize: 4
TimelineZoom: 1.1

[Metadata]
Title:When Innocence Is Just A Mask
TitleUnicode:When Innocence Is Just A Mask
Artist:Foreground Eclipse
ArtistUnicode:Foreground Eclipse
Creator:kakifly
Version:Insane
Source:
Tags:pishifat screamo めらみぽっぷ teto merami meramipop draw the emotional seated with liquor C83 original hakurei reimu
BeatmapID:559372
BeatmapSetID:242316

[Difficulty]
HPDrainRate:5.5
CircleSize:4
OverallDifficulty:8
ApproachRate:9
SliderMultiplier:1.8
SliderTickRate:2

[Events]
//Background and Video events
0,0,"reimubg.jpg",0,0
//Break Periods
2,47734,49631
2,77397,81990
2,109757,119743
2,152903,162889
//Storyboard Layer 0 (Background)
//Storyboard Layer 1 (Fail)
//Storyboard Layer 2 (Pass)
//Storyboard Layer 3 (Foreground)
//Storyboard Sound Samples

[TimingPoints]
23265,337.078651685393,4,2,1,60,1,0
55624,-90.9090909090909,4,2,1,80,0,1
63714,-90.9090909090909,4,2,1,40,0,1
64051,-90.9090909090909,4,2,1,80,0,1
66073,-90.9090909090909,4,2,1,80,0,0
66411,-90.9090909090909,4,2,1,80,0,1
77197,-100,4,2,1,60,0,0
87984,-90.9090909090909,4,2,1,80,0,1
98433,-90.9090909090909,4,2,1,80,0,0
98770,-90.9090909090909,4,2,1,80,0,1
109557,-100,4,2,1,40,0,0
120343,-125,4,2,1,50,0,0
131130,-133.333333333333,4,2,1,65,0,0
136523,-117.647058823529,4,2,1,65,0,0
163489,-111.111111111111,4,2,1,65,0,0
174276,-90.9090909090909,4,2,1,80,0,1
184725,-90.9090909090909,4,2,1,80,0,0
185062,-90.9090909090909,4,2,1,80,0,1
195849,-100,4,2,1,70,0,0

[Colours]
Combo1 : 251,142,188
Combo2 : 213,11,56
Combo3 : 147,45,116
Combo4 : 174,130,215

[HitObjects]
144,72,23265,6,0,L|160:264,1,180,4|0,0:0|0:0,0:0:0:0:
264,172,23770,1,0,0:0:0:0:
72,128,23939,2,0,L|80:244,1,90,8|0,0:0|0:0,0:0:0:0:
264,172,24276,2,0,L|256:64,1,90
144,72,24613,5,0,0:0:0:0:
212,248,24781,2,0,B|260:260|260:260|320:244,1,90,8|0,0:0|0:0,0:0:0:0:
124,196,25118,1,0,0:0:0:0:
299,250,25287,2,0,P|295:306|299:362,1,90,8|0,0:0|0:0,0:0:0:0:
120,288,25624,1,8,0:0:0:0:
108,264,25708,1,8,0:0:0:0:
108,240,25793,1,8,0:0:0:0:
112,216,25877,1,8,0:0:0:0:
124,196,25961,5,4,0:0:0:0:
288,156,26130,1,0,0:0:0:0:
144,72,26298,2,0,B|192:80|192:80|252:72,1,90,8|0,0:0|0:0,0:0:0:0:
360,44,26635,1,0,0:0:0:0:
472,100,26804,1,0,0:0:0:0:
360,44,26972,2,0,L|368:152,1,90,8|0,0:0|0:0,0:0:0:0:
460,220,27309,6,0,P|396:176|288:224,1,180,0|8,0:0|0:0,0:0:0:0:
244,332,27815,1,0,0:0:0:0:
376,276,27984,2,0,L|384:376,2,90,0|0|8,0:0|0:0|0:0,0:0:0:0:
248,152,28489,1,0,0:0:0:0:
136,192,28658,6,0,L|152:280,1,90,4|0,0:0|0:0,0:0:0:0:
248,152,28995,2,0,L|240:256,1,90
144,76,29332,2,0,P|224:112|304:40,1,180,8|0,0:0|0:0,0:0:0:0:
216,28,29838,1,0,0:0:0:0:
136,192,30006,5,0,0:0:0:0:
256,272,30175,1,8,0:0:0:0:
256,272,30259,1,0,0:0:0:0:
256,272,30343,1,0,0:0:0:0:
248,152,30512,1,0,0:0:0:0:
128,296,30680,1,8,0:0:0:0:
344,216,30849,1,0,0:0:0:0:
129,103,31017,2,0,P|137:159|133:215,1,90,8|0,0:0|0:0,0:0:0:0:
25,74,31354,6,0,L|241:30,1,180,4|0,0:0|0:0,0:0:0:0:
328,72,31860,1,0,0:0:0:0:
248,152,32029,2,0,B|260:204|260:204|256:260,2,90,8|0|0,0:0|0:0|0:0,0:0:0:0:
128,104,32534,1,0,0:0:0:0:
328,72,32703,5,0,0:0:0:0:
172,192,32871,1,0,0:0:0:0:
172,192,32956,1,0,0:0:0:0:
172,192,33040,1,8,0:0:0:0:
224,48,33208,1,0,0:0:0:0:
360,197,33377,1,8,0:0:0:0:
234,256,33545,1,0,0:0:0:0:
234,256,33630,1,0,0:0:0:0:
234,256,33714,1,12,0:0:0:0:
428,120,33882,1,0,0:0:0:0:
356,364,34051,6,0,B|376:312|376:312|316:248|380:168,1,180,4|8,0:0|0:0,0:0:0:0:
504,288,34557,1,0,0:0:0:0:
504,288,34725,2,0,L|416:242,1,90
148,280,35062,2,0,L|252:252,1,90,8|0,0:0|0:0,0:0:0:0:
320,172,35399,5,0,0:0:0:0:
424,248,35568,1,0,0:0:0:0:
424,248,35652,1,0,0:0:0:0:
424,248,35736,2,0,P|428:196|436:140,1,90,12|0,0:0|0:0,0:0:0:0:
296,84,36073,1,0,0:0:0:0:
276,96,36158,1,0,0:0:0:0:
252,100,36242,1,0,0:0:0:0:
228,96,36326,1,0,0:0:0:0:
208,84,36411,1,12,0:0:0:0:
356,32,36579,1,0,0:0:0:0:
320,172,36748,6,0,L|316:272,1,90
224,320,37085,2,0,L|227:230,1,90,8|0,0:0|0:0,0:0:0:0:
400,156,37422,2,0,L|396:256,1,90
152,276,37759,2,0,L|155:186,1,90,8|0,0:0|0:0,0:0:0:0:
96,96,38096,5,0,0:0:0:0:
236,152,38265,1,0,0:0:0:0:
236,152,38349,1,0,0:0:0:0:
236,152,38433,1,8,0:0:0:0:
96,96,38602,1,0,0:0:0:0:
152,276,38770,2,0,P|204:272|252:280,1,90
416,204,39107,2,0,P|364:208|316:200,1,90,8|0,0:0|0:0,0:0:0:0:
372,108,39444,5,4,0:0:0:0:
416,203,39613,1,0,0:0:0:0:
384,304,39781,1,0,0:0:0:0:
280,332,39950,1,0,0:0:0:0:
384,304,40118,2,0,L|496:296,1,90,8|0,0:0|0:0,0:0:0:0:
416,204,40456,2,0,L|326:210,1,90
228,168,40793,5,0,0:0:0:0:
120,104,40961,1,8,0:0:0:0:
228,168,41130,2,0,B|224:204|224:204|232:228|232:228|228:264,1,90
152,336,41467,1,8,0:0:0:0:
100,216,41635,1,0,0:0:0:0:
228,256,41804,1,8,0:0:0:0:
50,317,41972,1,0,0:0:0:0:
228,256,42141,6,0,P|272:284|392:224,1,180,4|0,0:0|0:0,0:0:0:0:
288,110,42647,1,0,0:0:0:0:
288,110,42815,2,0,L|300:200,2,90,8|0|0,0:0|0:0|0:0,0:0:0:0:
184,168,43321,1,0,0:0:0:0:
372,164,43489,6,0,L|360:60,1,90,0|8,0:0|0:0,0:0:0:0:
264,24,43826,1,0,0:0:0:0:
184,168,43995,1,0,0:0:0:0:
288,110,44163,1,8,0:0:0:0:
124,68,44332,1,0,0:0:0:0:
124,68,44416,1,0,0:0:0:0:
124,68,44500,1,10,0:0:0:0:
308,232,44669,1,0,0:0:0:0:
204,88,44838,5,6,0:0:0:0:
256,192,44922,12,4,47534,0:0:0:0:
104,176,50231,6,0,P|148:188|200:176,1,90
152,80,50568,1,4,0:0:0:0:
60,248,50736,1,0,0:0:0:0:
268,324,50905,2,0,L|288:136,1,180,0|4,0:0|0:0,0:0:0:0:
244,48,51411,1,0,0:0:0:0:
360,140,51579,6,0,P|404:148|448:144,1,90
280,212,51916,2,0,P|236:204|192:208,1,90,4|0,0:0|0:0,0:0:0:0:
352,328,52253,2,0,L|376:132,1,180,0|4,0:0|0:0,0:0:0:0:
288,56,52759,1,0,0:0:0:0:
480,168,52927,5,6,0:0:0:0:
256,192,53012,12,0,55287,0:0:0:0:
412,232,55624,6,0,L|400:336,1,99.0000030212403,4|0,0:0|0:0,0:0:0:0:
296,264,55961,2,0,L|300:368,2,99.0000030212403,8|0|0,0:0|0:0|0:0,0:0:0:0:
212,184,56467,1,0,0:0:0:0:
328,156,56635,1,8,0:0:0:0:
212,184,56804,6,0,P|172:216|44:172,1,198.000006042481
132,128,57309,1,8,0:0:0:0:
84,296,57478,1,0,0:0:0:0:
212,184,57647,2,0,L|220:76,1,99.0000030212403,0|0,0:0|0:0,0:0:0:0:
420,60,57984,2,0,L|416:158,1,99.0000030212403,8|0,0:0|0:0,0:0:0:0:
332,76,58321,5,0,0:0:0:0:
428,232,58489,1,0,0:0:0:0:
220,268,58658,1,8,0:0:0:0:
320,204,58826,2,0,P|332:256|332:324,1,99.0000030212403,0|0,0:0|0:0,0:0:0:0:
192,356,59163,1,0,0:0:0:0:
212,184,59332,1,8,0:0:0:0:
376,140,59500,6,0,P|404:232|400:368,1,198.000006042481
220,268,60006,1,8,0:0:0:0:
320,204,60175,1,0,0:0:0:0:
197,87,60343,2,0,L|213:191,1,99.0000030212403
104,308,60680,2,0,L|88:210,1,99.0000030212403,8|0,0:0|0:0,0:0:0:0:
197,87,61017,6,0,B|257:99|257:99|317:47|405:99,1,198.000006042481,4|8,0:0|0:0,0:0:0:0:
508,206,61523,2,0,B|448:194|448:194|388:246|300:194,1,198.000006042481
384,88,62029,1,8,0:0:0:0:
468,280,62197,1,0,0:0:0:0:
320,204,62366,5,0,0:0:0:0:
328,232,62450,1,0,0:0:0:0:
332,260,62534,1,0,0:0:0:0:
328,288,62618,1,0,0:0:0:0:
316,316,62703,1,8,0:0:0:0:
220,244,62871,1,0,0:0:0:0:
364,136,63040,2,0,P|396:188|392:332,1,198.000006042481,0|8,0:0|0:0,0:0:0:0:
220,244,63545,1,0,0:0:0:0:
364,136,63714,5,0,0:0:0:0:
388,128,63798,1,0,0:0:0:0:
412,120,63882,1,0,0:0:0:0:
436,112,63967,1,0,0:0:0:0:
460,100,64051,2,0,L|256:80,1,198.000006042481,8|0,0:0|0:0,0:0:0:0:
168,136,64557,1,0,0:0:0:0:
60,144,64725,2,0,P|80:204|140:240,1,99.0000030212403,8|0,0:0|0:0,0:0:0:0:
220,244,65062,6,0,L|224:188,3,49.5000015106202,0|0|0|0,0:0|0:0|0:0|0:0,0:0:0:0:
304,288,65399,2,0,L|320:344,3,49.5000015106202,8|0|0|0,0:0|0:0|0:0|0:0,0:0:0:0:
384,232,65736,2,0,L|372:168,3,49.5000015106202,0|0|0|0,0:0|0:0|0:0|0:0,0:0:0:0:
464,280,66073,2,0,L|512:260,3,49.5000015106202,8|0|0|0,0:0|0:0|0:0|0:0,0:0:0:0:
304,288,66411,6,0,P|264:200|336:112,1,198.000006042481,4|8,0:0|0:0,0:0:0:0:
420,96,66916,1,0,0:0:0:0:
464,224,67085,2,0,L|364:208,2,99.0000030212403,0|0|8,0:0|0:0|0:0,0:0:0:0:
420,96,67590,1,0,0:0:0:0:
188,144,67759,6,0,L|304:136,1,99.0000030212403
224,32,68096,1,8,0:0:0:0:
132,224,68265,1,0,0:0:0:0:
224,32,68433,2,0,P|280:36|320:24,1,99.0000030212403
420,96,68770,2,0,B|408:144|408:144|416:204,1,99.0000030212403,8|0,0:0|0:0,0:0:0:0:
320,248,69107,6,0,P|404:296|496:260,1,198.000006042481,0|8,0:0|0:0,0:0:0:0:
320,248,69613,2,0,L|296:372,1,99.0000030212403
204,260,69950,1,0,0:0:0:0:
416,192,70118,1,8,0:0:0:0:
204,260,70287,6,0,B|212:192|212:192|200:132|200:132|212:56,1,198.000006042481
288,140,70793,2,0,P|208:172|112:124,1,198.000006042481,8|0,0:0|0:0,0:0:0:0:
212,64,71298,1,0,0:0:0:0:
288,228,71467,2,0,B|280:272|280:272|292:336,1,99.0000030212403,8|0,0:0|0:0,0:0:0:0:
392,368,71804,6,0,L|400:264,1,99.0000030212403,4|0,0:0|0:0,0:0:0:0:
500,312,72141,2,0,L|496:192,1,99.0000030212403,8|0,0:0|0:0,0:0:0:0:
396,168,72478,1,0,0:0:0:0:
496,212,72647,1,0,0:0:0:0:
288,228,72815,2,0,P|276:172|284:120,1,99.0000030212403,8|0,0:0|0:0,0:0:0:0:
364,60,73152,6,0,L|156:120,1,198.000006042481,0|8,0:0|0:0,0:0:0:0:
200,8,73658,1,0,0:0:0:0:
216,196,73826,2,0,B|164:208|164:208|108:196,1,99.0000030212403
12,80,74163,2,0,B|64:68|64:68|120:80,1,99.0000030212403,8|0,0:0|0:0,0:0:0:0:
216,196,74500,5,0,0:0:0:0:
316,268,74669,1,0,0:0:0:0:
180,296,74838,1,8,0:0:0:0:
320,78,75006,2,0,P|340:142|316:270,1,198.000006042481
180,296,75512,2,0,L|164:196,1,99.0000030212403,8|0,0:0|0:0,0:0:0:0:
68,148,75849,6,0,P|140:168|236:88,1,198.000006042481,0|8,0:0|0:0,0:0:0:0:
132,56,76354,1,0,0:0:0:0:
72,236,76523,2,0,L|108:336,1,99.0000030212403
288,312,76860,2,0,L|254:218,1,99.0000030212403,8|0,0:0|0:0,0:0:0:0:
68,148,77197,5,12,0:0:0:0:
156,112,82590,6,0,L|164:212,1,90,12|0,0:0|0:0,0:0:0:0:
252,140,82927,1,8,0:0:0:0:
84,196,83096,1,0,0:0:0:0:
256,320,83264,2,0,B|260:272|260:272|248:224,2,90,8|0|8,0:0|0:0|0:0,0:0:0:0:
156,280,83770,1,0,0:0:0:0:
252,140,83939,6,0,L|152:136,1,90,8|0,0:0|0:0,0:0:0:0:
276,40,84276,2,0,L|372:36,1,90,8|0,0:0|0:0,0:0:0:0:
176,48,84613,1,8,0:0:0:0:
348,116,84781,1,0,0:0:0:0:
250,229,84950,2,0,P|256:184|252:140,1,90,8|0,0:0|0:0,0:0:0:0:
72,152,85287,6,0,L|160:172,2,90,8|0|8,0:0|0:0|0:0,0:0:0:0:
176,48,85793,1,0,0:0:0:0:
251,230,85961,2,0,P|259:282|251:326,1,90,8|0,0:0|0:0,0:0:0:0:
356,232,86298,2,0,P|348:180|356:136,1,90,8|0,0:0|0:0,0:0:0:0:
480,104,86635,5,4,0:0:0:0:
488,116,87984,6,0,L|476:216,1,99.0000030212403,4|0,0:0|0:0,0:0:0:0:
384,268,88321,1,8,0:0:0:0:
312,180,88489,1,0,0:0:0:0:
292,304,88658,2,0,P|236:328|128:256,1,198.000006042481,0|8,0:0|0:0,0:0:0:0:
104,152,89163,1,0,0:0:0:0:
224,232,89332,6,0,L|236:128,2,99.0000030212403,0|0|8,0:0|0:0|0:0,0:0:0:0:
312,180,89838,1,0,0:0:0:0:
152,160,90006,2,0,L|168:60,1,99.0000030212403
328,82,90343,2,0,L|312:179,1,99.0000030212403,8|0,0:0|0:0,0:0:0:0:
444,352,90680,6,0,P|468:296|380:204,2,198.000006042481,4|8|0,0:0|0:0|0:0,0:0:0:0:
384,288,91523,1,0,0:0:0:0:
312,180,91691,1,8,0:0:0:0:
480,164,91860,1,0,0:0:0:0:
288,280,92029,6,0,L|72:308,1,198.000006042481,0|8,0:0|0:0,0:0:0:0:
64,80,92703,1,0,0:0:0:0:
148,128,92871,1,0,0:0:0:0:
248,112,93040,1,8,0:0:0:0:
308,36,93208,1,0,0:0:0:0:
148,128,93377,6,0,P|200:200|152:304,1,198.000006042481,4|8,0:0|0:0,0:0:0:0:
108,216,93882,2,0,L|328:200,1,198.000006042481
380,268,94388,2,0,B|332:292|332:292|280:292,1,99.0000030212403,8|0,0:0|0:0,0:0:0:0:
368,132,94725,5,0,0:0:0:0:
476,264,94894,1,0,0:0:0:0:
272,176,95062,1,8,0:0:0:0:
456,68,95231,2,0,P|468:140|476:268,1,198.000006042481
304,356,95736,2,0,P|296:305|296:252,1,99.0000030212403,8|0,0:0|0:0,0:0:0:0:
368,132,96073,6,0,B|320:136|320:136|256:116,1,99.0000030212403,4|0,0:0|0:0,0:0:0:0:
192,60,96411,1,8,0:0:0:0:
456,68,96579,2,0,B|464:104|464:104|452:132|452:132|496:192|444:264,1,198.000006042481
304,356,97085,1,8,0:0:0:0:
164,272,97253,1,0,0:0:0:0:
304,356,97422,6,0,L|292:252,1,99.0000030212403
192,60,97759,2,0,L|180:164,1,99.0000030212403,12|0,0:0|0:0,0:0:0:0:
293,258,98096,1,8,0:0:0:0:
317,270,98180,1,0,0:0:0:0:
345,274,98264,1,0,0:0:0:0:
373,270,98349,1,0,0:0:0:0:
397,258,98433,1,12,0:0:0:0:
346,144,98602,1,0,0:0:0:0:
52,108,98770,6,0,P|72:200|36:328,1,198.000006042481,12|8,0:0|0:0,0:0:0:0:
164,316,99276,2,0,B|216:308|216:308|288:316,1,99.0000030212403,0|8,0:0|0:0,0:0:0:0:
376,344,99613,1,0,0:0:0:0:
356,228,99781,1,8,0:0:0:0:
448,152,99950,1,0,0:0:0:0:
272,256,100118,6,0,L|280:148,1,99.0000030212403,8|0,0:0|0:0,0:0:0:0:
172,208,100456,2,0,L|192:96,1,99.0000030212403,8|0,0:0|0:0,0:0:0:0:
96,20,100793,1,8,0:0:0:0:
288,36,100961,1,0,0:0:0:0:
96,20,101130,2,0,B|92:76|92:76|116:132,1,99.0000030212403,8|0,0:0|0:0,0:0:0:0:
272,256,101467,6,0,B|316:240|316:240|344:248|344:248|416:216|488:272,1,198.000006042481,8|8,0:0|0:0,0:0:0:0:
380,376,101972,2,0,B|333:376|333:376|300:361|300:361|223:389|164:316,1,198.000006042481,0|0,0:0|0:0,0:0:0:0:
192,192,102478,2,0,B|144:204|144:204|80:188,1,99.0000030212403,8|0,0:0|0:0,0:0:0:0:
252,64,102815,6,0,L|280:176,1,99.0000030212403,12|0,0:0|0:0,0:0:0:0:
364,80,103152,2,0,L|380:204,1,99.0000030212403,8|0,0:0|0:0,0:0:0:0:
468,272,103489,1,8,0:0:0:0:
392,360,103658,1,0,0:0:0:0:
312,229,103826,1,8,0:0:0:0:
476,352,103995,1,0,0:0:0:0:
220,368,104163,6,0,L|232:148,1,198.000006042481,4|8,0:0|0:0,0:0:0:0:
140,224,104669,2,0,P|196:264|328:204,1,198.000006042481
210,75,105175,2,0,B|214:115|214:115|225:136|225:136|234:187,1,99.0000030212403,8|0,0:0|0:0,0:0:0:0:
392,284,105512,5,0,0:0:0:0:
429,192,105680,1,0,0:0:0:0:
320,72,105849,2,0,L|336:180,1,99.0000030212403,8|0,0:0|0:0,0:0:0:0:
288,280,106186,2,0,P|344:192|448:204,1,198.000006042481,0|8,0:0|0:0,0:0:0:0:
416,381,106691,1,0,0:0:0:0:
416,380,106860,6,0,L|392:280,1,99.0000030212403
488,168,107197,2,0,L|496:280,1,99.0000030212403,8|0,0:0|0:0,0:0:0:0:
288,280,107534,1,0,0:0:0:0:
288,280,107703,1,0,0:0:0:0:
208,192,107871,1,8,0:0:0:0:
264,88,108040,1,0,0:0:0:0:
264,88,108124,1,0,0:0:0:0:
264,88,108208,6,0,P|332:100|408:224,1,198.000006042481,4|8,0:0|0:0,0:0:0:0:
376,312,108714,1,0,0:0:0:0:
300,196,108882,1,0,0:0:0:0:
496,76,109051,1,0,0:0:0:0:
496,76,109135,1,0,0:0:0:0:
496,76,109220,1,8,0:0:0:0:
512,224,109388,1,0,0:0:0:0:
360,104,109557,5,4,0:0:0:0:
296,120,120343,6,0,B|300:156|300:156|292:224,1,72,4|0,0:0|0:0,0:0:0:0:
212,272,120680,2,0,L|200:180,1,72,8|0,0:0|0:0,0:0:0:0:
160,92,121017,2,0,P|120:76|80:64,2,72,0|0|8,0:0|0:0|0:0,0:0:0:0:
296,120,121523,1,0,0:0:0:0:
296,120,121607,1,0,0:0:0:0:
296,120,121691,6,0,L|384:112,1,72,4|0,0:0|0:0,0:0:0:0:
476,168,122029,1,8,0:0:0:0:
392,244,122197,1,0,0:0:0:0:
220,152,122366,2,0,B|212:112|212:112|200:48,1,72
403,173,122703,2,0,P|399:217|383:268,1,72,8|0,0:0|0:0,0:0:0:0:
200,248,123040,6,0,B|164:252|164:252|164:252|164:252|124:240,1,72,4|0,0:0|0:0,0:0:0:0:
256,336,123377,2,0,B|296:328|296:328|296:328|296:328|332:332,1,72,8|0,0:0|0:0,0:0:0:0:
316,236,123714,1,0,0:0:0:0:
484,328,123882,1,0,0:0:0:0:
316,236,124051,2,0,L|312:144,1,72,8|0,0:0|0:0,0:0:0:0:
400,100,124388,5,12,0:0:0:0:
312,164,124557,1,8,0:0:0:0:
204,156,124725,1,8,0:0:0:0:
124,84,124894,1,8,0:0:0:0:
204,156,125062,2,8,P|220:224|208:320,1,144,8|0,0:0|0:0,0:0:0:0:
108,304,125568,1,0,0:0:0:0:
108,304,125736,6,0,B|99:258|99:258|91:206,1,72,4|0,0:0|0:0,0:0:0:0:
316,92,126073,2,0,L|311:182,1,72,8|0,0:0|0:0,0:0:0:0:
272,300,126411,1,0,0:0:0:0:
272,300,126579,1,0,0:0:0:0:
124,324,126748,1,8,0:0:0:0:
44,220,126916,1,8,0:0:0:0:
44,220,127000,1,8,0:0:0:0:
44,220,127085,6,0,P|100:208|136:208,1,72,4|0,0:0|0:0,0:0:0:0:
188,264,127422,2,0,P|172:168|180:88,1,144,8|0,0:0|0:0,0:0:0:0:
292,68,127927,1,0,0:0:0:0:
344,176,128096,2,0,L|292:180|244:184,1,72,8|0,0:0|0:0,0:0:0:0:
120,336,128433,6,0,P|164:328|216:320,1,72,4|0,0:0|0:0,0:0:0:0:
320,340,128770,1,8,0:0:0:0:
420,276,128939,1,0,0:0:0:0:
264,172,129107,2,0,B|264:200|264:200|276:248,1,72,8|0,0:0|0:0,0:0:0:0:
424,360,129444,1,8,0:0:0:0:
484,212,129613,1,8,0:0:0:0:
484,212,129697,1,8,0:0:0:0:
484,212,129781,5,4,0:0:0:0:
336,96,129950,2,0,L|304:80,2,36,8|8|8,0:0|0:0|0:0,0:0:0:0:
376,212,130287,1,0,0:0:0:0:
288,268,130456,1,8,0:0:0:0:
184,276,130624,1,8,0:0:0:0:
92,228,130793,1,8,0:0:0:0:
44,136,130961,1,8,0:0:0:0:
188,16,131130,6,0,P|208:84|196:176,1,135.000005149842,4|0,0:0|0:0,0:0:0:0:
116,236,131635,1,0,0:0:0:0:
276,52,131804,2,0,P|284:100|276:144,1,67.5000025749208,8|0,0:0|0:0,0:0:0:0:
108,144,132141,2,0,L|100:56,1,67.5000025749208
276,52,132478,5,0,0:0:0:0:
396,124,132647,2,0,L|488:116,1,67.5000025749208,8|0,0:0|0:0,0:0:0:0:
408,36,132984,1,0,0:0:0:0:
320,184,133152,2,0,L|228:192,1,67.5000025749208,8|0,0:0|0:0,0:0:0:0:
124,176,133489,2,0,P|148:124|176:96,1,67.5000025749208
296,264,133826,6,0,L|284:336,1,67.5000025749208
192,212,134163,2,0,L|192:300,1,67.5000025749208
112,364,134500,2,0,P|84:320|108:216,1,135.000005149842,8|0,0:0|0:0,0:0:0:0:
312,152,135006,1,0,0:0:0:0:
312,152,135175,6,0,B|328:192|328:192|332:316,1,135.000005149842
244,368,135680,1,0,0:0:0:0:
188,272,135849,2,0,B|160:268|160:268|100:272,1,67.5000025749208,8|0,0:0|0:0,0:0:0:0:
72,168,136186,2,0,B|100:172|100:172|160:168,1,67.5000025749208,8|0,0:0|0:0,0:0:0:0:
352,248,136523,6,0,L|320:88,1,153.000002918243,4|0,0:0|0:0,0:0:0:0:
460,296,137197,1,8,0:0:0:0:
336,328,137366,1,0,0:0:0:0:
252,232,137534,1,0,0:0:0:0:
408,108,137703,6,0,L|440:268,1,153.000002918243,0|8,0:0|0:0,0:0:0:0:
336,328,138208,2,0,B|304:320|304:320|248:324,1,76.5000014591217
144,360,138545,2,0,P|148:260|132:180,1,153.000002918243,8|0,0:0|0:0,0:0:0:0:
28,116,139051,1,0,0:0:0:0:
224,212,139220,6,0,P|276:228|320:224,1,76.5000014591217,4|0,0:0|0:0,0:0:0:0:
424,96,139557,2,0,B|376:96|376:96|332:116,1,76.5000014591217,0|0,0:0|0:0,0:0:0:0:
464,240,139894,2,0,L|472:336,1,76.5000014591217,8|0,0:0|0:0,0:0:0:0:
224,212,140231,2,0,L|216:128,1,76.5000014591217,0|0,0:0|0:0,0:0:0:0:
336,44,140568,6,0,P|348:96|336:144,1,76.5000014591217,0|8,0:0|0:0,0:0:0:0:
237,288,140905,2,0,L|221:196,1,76.5000014591217,4|0,0:0|0:0,0:0:0:0:
144,68,141242,5,8,0:0:0:0:
132,92,141326,1,8,0:0:0:0:
128,116,141411,1,8,0:0:0:0:
128,140,141495,1,8,0:0:0:0:
128,164,141579,1,8,0:0:0:0:
136,188,141663,1,8,0:0:0:0:
144,212,141748,1,8,0:0:0:0:
156,232,141832,1,8,0:0:0:0:
172,252,141916,6,0,B|224:244|224:244|280:252|280:252|352:240,1,153.000002918243,4|0,0:0|0:0,0:0:0:0:
380,120,142422,1,0,0:0:0:0:
380,120,142590,2,0,B|324:130|324:130|280:124|280:124|212:130,1,153.000002918243,8|0,0:0|0:0,0:0:0:0:
288,260,143096,1,0,0:0:0:0:
456,156,143264,5,0,0:0:0:0:
284,44,143433,1,8,0:0:0:0:
376,208,143602,1,0,0:0:0:0:
420,44,143770,1,0,0:0:0:0:
192,40,143939,2,0,L|212:144,1,76.5000014591217,12|0,0:0|0:0,0:0:0:0:
352,300,144276,2,0,L|336:216,1,76.5000014591217,4|0,0:0|0:0,0:0:0:0:
236,108,144613,5,0,0:0:0:0:
120,156,144781,1,0,0:0:0:0:
232,368,144950,2,0,P|244:308|228:188,1,153.000002918243,0|8,0:0|0:0,0:0:0:0:
152,80,145456,1,0,0:0:0:0:
324,176,145624,2,0,B|364:176|364:176|416:192,1,76.5000014591217
504,276,145961,6,0,P|436:284|324:256,1,153.000002918243,4|0,0:0|0:0,0:0:0:0:
276,108,146467,1,0,0:0:0:0:
448,184,146635,2,0,L|412:364,1,153.000002918243,8|8,0:0|0:0,0:0:0:0:
284,332,147141,1,0,0:0:0:0:
284,332,147309,6,0,L|308:240,1,76.5000014591217,4|0,0:0|0:0,0:0:0:0:
212,164,147647,1,0,0:0:0:0:
380,296,147815,1,0,0:0:0:0:
304,92,147984,2,0,P|292:144|304:196,1,76.5000014591217,8|0,0:0|0:0,0:0:0:0:
416,216,148321,1,0,0:0:0:0:
212,164,148489,6,0,B|160:156|160:156|108:164|108:164|40:148,1,153.000002918243,0|8,0:0|0:0,0:0:0:0:
128,52,148995,1,0,0:0:0:0:
276,216,149163,2,0,P|268:284|208:388,1,153.000002918243
96,340,149669,2,0,P|96:280|112:232,1,76.5000014591217
296,116,150006,6,0,L|376:112,1,76.5000014591217
444,224,150343,2,0,L|364:228,1,76.5000014591217
244,280,150680,1,8,0:0:0:0:
348,352,150849,1,0,0:0:0:0:
408,148,151017,2,0,P|408:100|392:44,1,76.5000014591217
192,96,151354,6,0,L|216:180,1,76.5000014591217
336,312,151691,2,0,P|344:248|336:212,1,76.5000014591217,4|0,0:0|0:0,0:0:0:0:
120,176,152029,2,0,L|140:260,1,76.5000014591217,12|0,0:0|0:0,0:0:0:0:
240,340,152366,1,12,0:0:0:0:
288,220,152534,1,0,0:0:0:0:
64,284,152703,5,6,0:0:0:0:
288,308,163489,6,0,B|300:264|300:264|292:212|292:212|308:124,1,161.999995056153,4|8,0:0|0:0,0:0:0:0:
396,28,163995,1,0,0:0:0:0:
400,164,164163,1,0,0:0:0:0:
204,208,164332,1,0,0:0:0:0:
288,32,164500,2,0,L|392:24,1,80.9999975280763,8|0,0:0|0:0,0:0:0:0:
204,208,164838,6,0,P|192:160|212:36,1,161.999995056153,0|8,0:0|0:0,0:0:0:0:
372,52,165343,1,0,0:0:0:0:
428,176,165512,2,0,L|416:280,1,80.9999975280763
312,356,165849,1,8,0:0:0:0:
280,224,166017,1,0,0:0:0:0:
504,148,166186,6,0,L|496:256,1,80.9999975280763
316,148,166523,1,8,0:0:0:0:
372,52,166691,1,0,0:0:0:0:
436,288,166860,2,0,B|404:284|404:284|384:288|384:288|320:280,1,80.9999975280763
148,160,167197,2,0,B|177:156|177:156|196:160|196:160|232:156,1,80.9999975280763,8|0,0:0|0:0,0:0:0:0:
112,344,167534,6,0,L|92:256,1,80.9999975280763
229,238,167871,2,0,L|229:124,1,80.9999975280763,8|0,0:0|0:0,0:0:0:0:
332,60,168208,1,2,0:0:0:0:
464,168,168377,1,12,0:0:0:0:
316,180,168545,1,0,0:0:0:0:
444,56,168714,1,8,0:0:0:0:
240,152,168882,6,0,P|188:176|72:144,1,161.999995056153,0|8,0:0|0:0,0:0:0:0:
160,48,169388,1,0,0:0:0:0:
256,240,169557,2,0,L|240:328,1,80.9999975280763
108,360,169894,2,0,B|96:312|96:312|100:248,1,80.9999975280763,8|0,0:0|0:0,0:0:0:0:
248,72,170231,6,0,B|300:68|300:68|348:84|348:84|424:80,1,161.999995056153,0|8,0:0|0:0,0:0:0:0:
376,308,170905,2,0,B|312:304|312:304|268:316|268:316|198:316,1,161.999995056153,0|8,0:0|0:0,0:0:0:0:
112,260,171411,1,0,0:0:0:0:
232,152,171579,6,0,L|224:236|224:236,1,80.9999975280763
36,352,171916,2,0,L|24:248,1,80.9999975280763,8|0,0:0|0:0,0:0:0:0:
68,136,172253,1,0,0:0:0:0:
232,152,172422,1,0,0:0:0:0:
123,340,172590,2,0,L|112:260,1,80.9999975280763,10|0,0:0|0:0,0:0:0:0:
256,192,172927,12,0,173939,0:0:0:0:
312,268,174276,6,0,P|344:220|292:100,1,198.000006042481,4|8,0:0|0:0,0:0:0:0:
256,188,174781,1,0,0:0:0:0:
180,280,174950,2,0,L|200:380,2,99.0000030212403,0|0|8,0:0|0:0|0:0,0:0:0:0:
96,208,175456,1,0,0:0:0:0:
256,188,175624,6,0,L|364:184,1,99.0000030212403
200,96,175961,2,0,L|101:92,1,99.0000030212403,8|0,0:0|0:0,0:0:0:0:
176,184,176298,1,0,0:0:0:0:
288,92,176467,1,0,0:0:0:0:
176,184,176635,2,0,L|184:300,1,99.0000030212403,8|0,0:0|0:0,0:0:0:0:
376,352,176972,6,0,B|372:280|372:280|348:228|348:228|340:116,2,198.000006042481,4|8|0,0:0|0:0|0:0,0:0:0:0:
444,216,177815,1,0,0:0:0:0:
264,172,177984,2,0,L|268:276,1,99.0000030212403,8|0,0:0|0:0,0:0:0:0:
444,216,178321,6,0,L|440:117,1,99.0000030212403
264,172,178658,2,0,P|316:184|372:168,1,99.0000030212403,8|0,0:0|0:0,0:0:0:0:
316,64,178995,1,0,0:0:0:0:
192,232,179163,1,0,0:0:0:0:
312,332,179332,2,0,L|316:232,1,99.0000030212403,8|0,0:0|0:0,0:0:0:0:
104,196,179669,6,0,P|108:276|228:320,1,198.000006042481,4|8,0:0|0:0,0:0:0:0:
386,193,180175,2,0,L|192:232,1,198.000006042481
308,296,180680,2,0,L|416:276,1,99.0000030212403,8|0,0:0|0:0,0:0:0:0:
336,116,181017,6,0,L|238:134,2,99.0000030212403,0|0|8,0:0|0:0|0:0,0:0:0:0:
468,168,181523,1,0,0:0:0:0:
308,296,181691,2,0,B|288:248|288:248|288:200,1,99.0000030212403
468,168,182029,1,8,0:0:0:0:
496,296,182197,1,0,0:0:0:0:
308,296,182366,6,0,P|256:308|200:292,1,99.0000030212403
256,188,182703,1,8,0:0:0:0:
392,52,182871,2,0,B|400:112|400:112|384:176|384:176|404:256,1,198.000006042481
496,296,183377,2,0,B|504:240|504:240|492:184,1,99.0000030212403,8|0,0:0|0:0,0:0:0:0:
392,52,183714,6,0,L|280:56,1,99.0000030212403
120,108,184051,2,0,L|218:111,1,99.0000030212403,8|0,0:0|0:0,0:0:0:0:
360,176,184388,5,8,0:0:0:0:
348,200,184472,1,0,0:0:0:0:
336,224,184557,1,0,0:0:0:0:
324,244,184641,1,0,0:0:0:0:
332,268,184725,5,8,0:0:0:0:
316,288,184809,1,0,0:0:0:0:
300,308,184894,1,0,0:0:0:0:
284,328,184978,1,0,0:0:0:0:
268,348,185062,6,0,P|216:264|108:248,2,198.000006042481,12|8|8,0:0|0:0|0:0,0:0:0:0:
148,360,185905,1,0,0:0:0:0:
48,224,186073,2,0,L|36:120,1,99.0000030212403,8|0,0:0|0:0,0:0:0:0:
152,196,186411,6,0,P|204:212|264:188,1,99.0000030212403,8|0,0:0|0:0,0:0:0:0:
220,24,186748,2,0,L|204:132,1,99.0000030212403,8|0,0:0|0:0,0:0:0:0:
292,288,187085,2,0,P|336:240|284:112,1,198.000006042481,8|8,0:0|0:0,0:0:0:0:
246,202,187590,1,0,0:0:0:0:
303,122,187759,6,0,L|411:114,1,99.0000030212403,8|0,0:0|0:0,0:0:0:0:
246,202,188096,2,0,L|147:194,1,99.0000030212403,8|0,0:0|0:0,0:0:0:0:
208,92,188433,1,8,0:0:0:0:
336,212,188602,1,0,0:0:0:0:
216,368,188770,2,0,P|200:320|212:256,1,99.0000030212403,8|0,0:0|0:0,0:0:0:0:
292,308,189107,6,0,B|356:292|356:292|424:308|424:308|504:288,1,198.000006042481,8|8,0:0|0:0,0:0:0:0:
416,172,189613,1,0,0:0:0:0:
208,92,189781,2,0,L|224:204,2,99.0000030212403,8|0|8,0:0|0:0|0:0,0:0:0:0:
100,44,190287,1,0,0:0:0:0:
148,240,190456,6,0,P|224:276|308:180,1,198.000006042481,4|8,0:0|0:0,0:0:0:0:
348,100,190961,2,0,B|348:236|348:236|384:308,1,198.000006042481,0|0,0:0|0:0,0:0:0:0:
440,140,191467,2,0,P|444:80|420:28,1,99.0000030212403,8|0,0:0|0:0,0:0:0:0:
284,28,191804,6,0,L|180:40,2,99.0000030212403,0|0|8,0:0|0:0|0:0,0:0:0:0:
440,140,192309,1,0,0:0:0:0:
340,208,192478,2,0,B|336:260|336:260|352:308,1,99.0000030212403
236,336,192815,2,0,B|240:284|240:284|224:236,1,99.0000030212403,8|0,0:0|0:0,0:0:0:0:
136,164,193152,6,0,L|144:64,1,99.0000030212403,4|0,0:0|0:0,0:0:0:0:
32,24,193489,1,8,0:0:0:0:
216,132,193658,2,0,L|224:32,1,99.0000030212403,0|0,0:0|0:0,0:0:0:0:
60,116,193995,1,0,0:0:0:0:
164,200,194163,2,0,P|224:216|272:196,1,99.0000030212403,8|0,0:0|0:0,0:0:0:0:
352,120,194500,5,4,0:0:0:0:
164,200,194669,1,0,0:0:0:0:
304,268,194838,1,8,0:0:0:0:
304,268,194922,1,0,0:0:0:0:
304,268,195006,1,0,0:0:0:0:
216,132,195175,1,0,0:0:0:0:
136,284,195343,1,0,0:0:0:0:
284,188,195512,1,8,0:0:0:0:
84,192,195680,1,0,0:0:0:0:
240,344,195849,5,6,0:0:0:0:
