osu file format v12

[General]
AudioFilename: 08. Foreground Eclipse We cannot get out of here forever.mp3
AudioLeadIn: 0
PreviewTime: 189153
Countdown: 0
SampleSet: Normal
StackLeniency: 0
Mode: 0
LetterboxInBreaks: 0
WidescreenStoryboard: 1

[Editor]
DistanceSpacing: 1.6
BeatDivisor: 4
GridSize: 16
TimelineZoom: 1.5

[Metadata]
Title:We cannot get out of here forever
TitleUnicode:We cannot get out of here forever
Artist:Foreground Eclipse
ArtistUnicode:Foreground Eclipse
Creator:[ Lionheart ]
Version:Ecliptic
Source:
Tags:
BeatmapID:398614
BeatmapSetID:163606

[Difficulty]
HPDrainRate:5
CircleSize:4
OverallDifficulty:8
ApproachRate:9
SliderMultiplier:1.9
SliderTickRate:2

[Events]
//Background and Video events
0,0,"Life and Death.jpg",0,0
//Break Periods
2,87365,90949
2,160016,169547
//Storyboard Layer 0 (Background)
//Storyboard Layer 1 (Fail)
//Storyboard Layer 2 (Pass)
//Storyboard Layer 3 (Foreground)
//Storyboard Sound Samples
//Background Colour Transformations
3,100,163,162,255

[TimingPoints]
2871,333.259275716507,4,1,0,100,1,0
4204,-100,4,1,0,100,0,1
25532,-100,4,1,0,100,0,0
46861,-350,4,1,0,100,0,0
48194,-200,4,1,0,100,0,0
48860,-100,4,1,0,100,0,0
57525,-100,4,1,0,100,0,1
78854,-100,4,1,0,100,0,0
85519,352.858151023289,4,1,0,100,1,0
85871,375,4,1,0,100,1,0
86246,400,4,1,0,100,1,0
86646,4000,4,1,0,100,1,0
86646,-50,4,1,0,100,0,0
87165,230.769230769231,4,1,0,100,1,0
125824,333.259275716507,4,1,0,100,1,0
127824,333.259275716507,4,1,0,100,1,0
138488,-133.333333333333,4,1,0,100,0,0
139738,-100,4,1,0,100,0,0
140487,-200,4,1,0,100,0,0
142487,-100,4,1,0,100,0,0
180312,-300,4,1,0,100,0,0
186477,-200,4,1,0,100,0,0
191809,-100,4,1,0,100,0,1
197141,-800,4,1,0,100,0,1
198474,-100,4,1,0,100,0,1
202474,-100,4,1,0,100,0,1
207806,-350,4,1,0,100,0,1
210472,-100,4,1,0,100,0,1
221136,-100,4,1,0,100,0,1
227801,-100,4,1,0,100,0,0

[HitObjects]
256,120,2870,5,0,0:0:0:0:
120,176,3704,5,0,0:0:0:0:
166,216,3787,1,0,0:0:0:0:
221,245,3870,1,0,0:0:0:0:
343,265,4037,1,0,0:0:0:0:
308,146,4204,6,0,P|299:192|276:234,1,95
166,285,4537,1,0,0:0:0:0:
177,162,4703,2,0,P|185:115|208:73,2,95
80,84,5203,1,0,0:0:0:0:
177,162,5370,2,0,P|132:177|85:179,2,95
166,285,5870,1,0,0:0:0:0:
274,227,6036,2,0,P|283:180|305:138,2,95
397,217,6536,5,0,0:0:0:0:
344,329,6703,1,0,0:0:0:0:
464,296,6870,2,0,P|454:342|432:383,1,95
347,253,7203,1,0,0:0:0:0:
347,253,7370,1,0,0:0:0:0:
312,133,7536,2,0,P|266:146|227:172,1,95
233,234,7786,1,0,0:0:0:0:
237,295,7869,2,0,P|197:321|152:334,1,95
46,177,8203,6,0,P|92:187|134:210,1,95
243,268,8536,2,0,P|228:223|227:175,1,95,0|0,0:0|0:0,0:0:0:0:
218,52,8869,2,0,P|186:87|145:111,1,95,0|0,0:0|0:0,0:0:0:0:
92,223,9202,5,0,0:0:0:0:
109,266,9286,1,0,0:0:0:0:
142,300,9369,1,0,0:0:0:0:
186,317,9452,1,0,0:0:0:0:
233,314,9536,1,0,0:0:0:0:
271,196,9702,5,0,0:0:0:0:
369,270,9869,2,0,P|391:228|401:182,1,95
354,296,10202,1,0,0:0:0:0:
221,116,10369,5,0,0:0:0:0:
319,190,10535,2,0,P|341:148|351:102,1,95
304,216,10869,1,0,0:0:0:0:
171,36,11035,5,0,0:0:0:0:
269,110,11202,2,0,P|291:68|301:22,1,95
254,136,11535,1,0,0:0:0:0:
133,107,11702,6,0,P|111:149|101:195,1,95
186,284,12035,1,0,0:0:0:0:
210,162,12202,2,0,P|287:212|297:317,1,190
385,212,12702,1,0,0:0:0:0:
422,329,12868,2,0,P|444:287|454:241,2,95
385,132,13368,1,0,0:0:0:0:
327,249,13535,2,0,P|305:207|295:161,2,95
385,52,14035,1,0,0:0:0:0:
422,169,14201,1,0,0:0:0:0:
502,75,14368,5,0,0:0:0:0:
460,96,14451,1,0,0:0:0:0:
413,107,14535,1,0,0:0:0:0:
290,119,14701,1,0,0:0:0:0:
243,129,14785,1,0,0:0:0:0:
201,151,14868,1,0,0:0:0:0:
154,334,15034,6,0,P|132:292|122:246,1,95
204,153,15368,2,0,P|226:195|237:242,1,95
424,347,15701,6,0,P|377:336|336:315,1,95
417,222,16034,1,0,0:0:0:0:
239,101,16201,2,0,P|286:112|328:134,1,95
196,273,16534,1,0,0:0:0:0:
140,161,16701,2,0,P|118:203|109:250,1,95
217,189,17034,1,0,0:0:0:0:
264,187,17117,1,0,0:0:0:0:
309,171,17201,1,0,0:0:0:0:
289,293,17367,1,0,0:0:0:0:
408,323,17534,6,0,P|441:287|479:262,1,95
357,105,17867,2,0,P|371:150|374:198,1,95
468,278,18200,1,0,0:0:0:0:
344,264,18367,1,0,0:0:0:0:
309,233,18450,1,0,0:0:0:0:
266,212,18534,1,0,0:0:0:0:
294,91,18700,1,0,0:0:0:0:
375,183,18867,2,0,P|408:147|446:122,1,95
400,7,19200,2,0,P|367:42|327:68,1,95
204,54,19533,5,0,0:0:0:0:
328,68,19700,1,0,0:0:0:0:
343,112,19783,1,0,0:0:0:0:
370,152,19867,1,0,0:0:0:0:
352,195,19950,5,0,0:0:0:0:
319,229,20033,1,0,0:0:0:0:
275,246,20117,1,0,0:0:0:0:
228,243,20200,1,0,0:0:0:0:
180,142,20367,6,0,P|158:184|149:231,1,95
250,282,20700,2,0,P|298:280|343:265,1,95
337,151,21033,2,0,P|311:111|275:79,1,95
100,197,21366,2,0,P|108:151|130:109,1,95
338,324,21700,2,0,P|294:339|247:342,1,95
328,54,22033,2,0,P|364:84|390:124,1,95
291,287,22366,1,0,0:0:0:0:
423,211,22533,1,0,0:0:0:0:
291,136,22699,1,0,0:0:0:0:
146,276,22866,6,0,P|193:267|235:246,2,95
256,192,23366,1,0,0:0:0:0:
366,106,23533,2,0,P|319:115|277:136,2,95
256,192,24032,1,0,0:0:0:0:
256,192,24199,1,0,0:0:0:0:
256,192,24366,1,0,0:0:0:0:
149,33,24532,5,0,0:0:0:0:
138,45,24616,1,0,0:0:0:0:
128,57,24699,1,0,0:0:0:0:
118,69,24782,1,0,0:0:0:0:
152,102,24866,5,0,0:0:0:0:
169,117,24949,1,0,0:0:0:0:
184,136,25032,1,0,0:0:0:0:
194,157,25116,1,0,0:0:0:0:
199,181,25199,1,0,0:0:0:0:
200,204,25282,1,0,0:0:0:0:
195,227,25366,1,0,0:0:0:0:
186,249,25449,1,0,0:0:0:0:
172,269,25532,1,0,0:0:0:0:
116,191,25699,5,0,0:0:0:0:
116,191,25865,1,0,0:0:0:0:
131,353,26032,1,0,0:0:0:0:
91,307,26115,1,0,0:0:0:0:
62,252,26199,1,0,0:0:0:0:
117,57,26365,6,0,P|90:97|55:128,1,95
334,224,26699,1,0,0:0:0:0:
178,224,26865,1,0,0:0:0:0:
457,128,27032,2,0,P|421:97|394:57,1,95
342,168,27365,1,0,0:0:0:0:
313,223,27448,1,0,0:0:0:0:
273,269,27532,1,0,0:0:0:0:
180,75,27698,5,0,0:0:0:0:
98,167,27865,2,0,P|137:193|168:229,1,95
222,340,28198,1,0,0:0:0:0:
304,248,28365,2,0,P|264:221|233:185,1,95
224,16,28698,2,0,L|224:64,1,47.5
223,125,28865,2,0,P|176:133|134:154,1,95
346,118,29198,2,0,P|392:109|434:88,1,95
448,288,29531,5,0,0:0:0:0:
368,192,29698,1,0,0:0:0:0:
160,384,29865,5,0,0:0:0:0:
256,304,30031,1,0,0:0:0:0:
64,96,30198,5,0,0:0:0:0:
144,192,30364,1,0,0:0:0:0:
352,0,30531,5,0,0:0:0:0:
256,80,30698,1,0,0:0:0:0:
379,166,30864,6,0,P|212:223|121:125,1,285
113,108,31447,1,0,0:0:0:0:
102,46,31531,1,0,0:0:0:0:
223,136,31697,5,0,0:0:0:0:
112,241,31864,1,0,0:0:0:0:
139,91,32031,1,0,0:0:0:0:
400,241,32197,2,0,B|351:313|351:313|282:313,2,142.5
427,201,32781,1,0,0:0:0:0:
455,163,32864,1,0,0:0:0:0:
164,50,33197,5,0,0:0:0:0:
154,144,33364,2,0,P|123:108|84:82,2,95
195,229,33864,1,0,0:0:0:0:
235,381,34030,5,0,0:0:0:0:
275,335,34114,1,0,0:0:0:0:
304,280,34197,2,0,P|366:347|471:338,2,190
272,160,35030,1,0,0:0:0:0:
272,160,35113,1,0,0:0:0:0:
272,160,35197,1,0,0:0:0:0:
180,78,35363,1,0,0:0:0:0:
160,200,35530,5,0,0:0:0:0:
184,240,35613,1,0,0:0:0:0:
223,267,35696,1,0,0:0:0:0:
269,276,35779,1,0,0:0:0:0:
315,265,35863,1,0,0:0:0:0:
272,160,36030,1,0,0:0:0:0:
457,103,36196,6,0,P|478:145|488:192,1,95
294,188,36530,2,0,P|342:190|387:206,1,95
296,364,36863,2,0,P|322:325|358:294,1,95
204,280,37196,2,0,P|179:320|143:351,1,95
101,361,37446,1,0,0:0:0:0:
58,361,37529,1,0,0:0:0:0:
308,93,37752,5,0,0:0:0:0:
475,178,37974,1,0,0:0:0:0:
512,360,38196,1,0,0:0:0:0:
317,208,38528,6,0,P|326:162|347:119,1,95
447,45,38862,2,0,P|438:90|416:133,1,95
348,237,39195,1,0,0:0:0:0:
285,130,39361,5,0,0:0:0:0:
251,183,39444,1,0,0:0:0:0:
232,241,39528,1,0,0:0:0:0:
266,359,39695,2,0,P|292:320|307:275,1,95
187,307,40028,1,0,0:0:0:0:
365,187,40195,6,0,L|440:128,1,95
276,256,40528,1,0,0:0:0:0:
276,256,40694,1,0,0:0:0:0:
146,196,40861,6,0,L|72:256,1,95
236,128,41194,1,0,0:0:0:0:
236,128,41361,1,0,0:0:0:0:
23,191,41528,6,0,P|33:238|54:280,1,95
124,177,41862,2,0,P|169:193|217:195,1,95
153,90,42195,2,0,P|189:58|215:19,1,95
49,77,42527,1,0,0:0:0:0:
235,137,42694,5,0,0:0:0:0:
195,91,42778,1,0,0:0:0:0:
166,36,42861,1,0,0:0:0:0:
287,52,43084,5,0,0:0:0:0:
361,288,43306,1,0,0:0:0:0:
119,235,43528,1,0,0:0:0:0:
309,76,43862,6,0,P|300:121|278:164,1,95
245,216,44111,1,0,0:0:0:0:
202,261,44195,1,0,0:0:0:0:
190,107,44528,1,0,0:0:0:0:
90,333,44861,1,0,0:0:0:0:
59,212,45028,1,0,0:0:0:0:
292,132,45361,1,0,0:0:0:0:
412,104,45528,5,0,0:0:0:0:
409,127,45611,1,0,0:0:0:0:
400,149,45694,1,0,0:0:0:0:
385,168,45777,1,0,0:0:0:0:
367,183,45861,1,0,0:0:0:0:
347,196,45944,1,0,0:0:0:0:
326,207,46027,1,0,0:0:0:0:
305,217,46111,1,0,0:0:0:0:
283,226,46194,5,0,0:0:0:0:
261,235,46277,1,0,0:0:0:0:
239,245,46361,1,0,0:0:0:0:
218,257,46444,1,0,0:0:0:0:
198,269,46527,1,0,0:0:0:0:
180,284,46611,1,0,0:0:0:0:
164,302,46694,1,0,0:0:0:0:
151,321,46777,1,0,0:0:0:0:
142,343,46861,6,0,P|63:269|78:182,1,190
155,246,48194,6,0,P|156:154|83:98,1,190
70,195,49194,5,0,0:0:0:0:
59,240,49277,1,0,0:0:0:0:
69,286,49360,1,0,0:0:0:0:
99,323,49443,1,0,0:0:0:0:
142,343,49527,5,0,0:0:0:0:
259,2,49693,1,0,0:0:0:0:
364,347,49916,1,0,0:0:0:0:
77,130,50138,1,0,0:0:0:0:
436,136,50360,1,0,0:0:0:0:
436,136,50582,5,0,0:0:0:0:
142,343,50804,1,0,0:0:0:0:
259,2,51026,1,0,0:0:0:0:
364,347,51249,1,0,0:0:0:0:
77,130,51527,1,0,0:0:0:0:
124,137,51610,5,0,0:0:0:0:
169,151,51693,1,0,0:0:0:0:
213,170,51776,1,0,0:0:0:0:
255,192,51860,1,0,0:0:0:0:
297,213,51943,1,0,0:0:0:0:
340,233,52026,1,0,0:0:0:0:
386,247,52110,1,0,0:0:0:0:
432,256,52193,1,0,0:0:0:0:
319,307,52360,5,0,0:0:0:0:
134,298,52609,1,0,0:0:0:0:
238,145,52859,1,0,0:0:0:0:
319,307,53109,1,0,0:0:0:0:
134,298,53359,1,0,0:0:0:0:
20,348,53526,1,0,0:0:0:0:
238,145,53776,1,0,0:0:0:0:
134,298,54026,1,0,0:0:0:0:
245,245,54192,1,0,0:0:0:0:
465,133,54526,1,0,0:0:0:0:
234,45,54859,5,0,0:0:0:0:
290,220,55109,5,0,0:0:0:0:
136,115,55359,1,0,0:0:0:0:
40,193,55525,1,0,0:0:0:0:
348,261,55775,5,0,0:0:0:0:
136,115,56025,1,0,0:0:0:0:
40,193,56192,1,0,0:0:0:0:
406,302,56442,5,0,0:0:0:0:
367,48,56692,1,0,0:0:0:0:
479,67,56859,5,0,0:0:0:0:
461,110,56942,1,0,0:0:0:0:
428,144,57025,1,0,0:0:0:0:
384,161,57108,1,0,0:0:0:0:
337,158,57192,1,0,0:0:0:0:
17,24,57525,6,0,P|27:71|49:113,1,95
151,180,57858,2,0,P|141:133|120:92,1,95
239,130,58192,1,0,0:0:0:0:
191,15,58358,2,0,P|236:29|284:32,1,95
406,16,58691,1,0,0:0:0:0:
330,114,58858,2,0,P|295:144|269:184,1,95
409,163,59191,1,0,0:0:0:0:
244,306,59358,1,0,0:0:0:0:
319,104,59525,6,0,P|350:236|502:225,1,285
409,163,60191,2,0,L|269:306,1,190
152,289,60691,2,0,P|160:334|182:376,2,95
70,195,61191,2,0,P|117:197|162:212,1,95
213,323,61524,2,0,P|258:339|306:341,1,95
90,333,61857,1,0,0:0:0:0:
115,211,62024,2,0,P|118:163|133:119,1,95
90,333,62357,1,0,0:0:0:0:
254,187,62524,2,0,L|185:253,1,95
290,69,62857,6,0,P|347:140|440:145,1,190
362,241,63357,2,0,P|327:272|302:312,1,95
425,322,63690,1,0,0:0:0:0:
208,304,63857,2,0,P|254:314|302:312,1,95
263,193,64190,1,0,0:0:0:0:
336,93,64357,2,0,P|338:140|328:187,1,95
206,212,64690,2,0,P|171:243|129:264,2,95
238,92,65190,1,0,0:0:0:0:
357,58,65357,1,0,0:0:0:0:
238,92,65523,6,0,P|295:163|388:168,1,190
475,181,66023,2,0,P|485:135|483:88,2,95
398,84,66523,1,0,0:0:0:0:
156,63,66856,5,0,0:0:0:0:
51,173,67023,1,0,0:0:0:0:
52,229,67106,1,0,0:0:0:0:
86,273,67189,1,0,0:0:0:0:
140,290,67272,1,0,0:0:0:0:
193,273,67356,1,0,0:0:0:0:
227,229,67439,1,0,0:0:0:0:
256,192,67523,5,0,0:0:0:0:
284,154,67606,1,0,0:0:0:0:
318,110,67689,1,0,0:0:0:0:
371,93,67772,1,0,0:0:0:0:
425,110,67855,1,0,0:0:0:0:
459,154,67939,1,0,0:0:0:0:
460,211,68022,1,0,0:0:0:0:
336,227,68189,6,0,L|336:335,1,95
176,157,68523,2,0,L|176:49,1,95
245,279,68856,2,0,L|137:279,1,95
286,115,69190,2,0,L|394:115,1,95
367,283,69522,6,0,P|377:237|375:190,1,95
136,98,69856,2,0,P|126:144|129:192,1,95
253,314,70189,2,0,P|205:316|159:306,1,95
251,67,70523,2,0,P|298:65|344:75,1,95
425,329,70855,6,0,P|440:260|436:189,1,95
78,52,71189,2,0,P|63:121|67:192,1,95
65,207,71439,1,0,0:0:0:0:
74,267,71522,1,0,0:0:0:0:
190,307,71689,2,0,P|122:328|63:367,1,95
136,138,72022,1,0,0:0:0:0:
199,230,72188,6,0,P|245:240|292:237,1,95
331,132,72522,2,0,P|262:117|191:121,1,95
146,269,72855,2,0,P|192:279|239:276,1,95
451,45,73188,2,0,P|381:29|310:33,1,95
295,30,73438,1,0,0:0:0:0:
233,35,73521,1,0,0:0:0:0:
256,192,73688,12,0,74688,0:0:0:0:
310,88,74855,6,0,P|356:98|403:95,1,95,0|0,0:0|0:0,0:0:0:0:
194,294,75188,2,0,P|147:283|100:286,1,95,0|0,0:0|0:0,0:0:0:0:
355,249,75521,2,0,P|344:295|347:342,1,95,0|0,0:0|0:0,0:0:0:0:
149,133,75854,2,0,P|159:86|156:39,1,95,0|0,0:0|0:0,0:0:0:0:
156,39,76104,1,0,0:0:0:0:
156,39,76188,1,0,0:0:0:0:
257,109,76354,1,0,0:0:0:0:
288,214,76687,5,0,0:0:0:0:
334,226,76770,1,0,0:0:0:0:
380,239,76853,1,0,0:0:0:0:
215,167,77021,5,0,0:0:0:0:
169,155,77104,1,0,0:0:0:0:
124,143,77187,1,0,0:0:0:0:
252,191,77354,5,0,0:0:0:0:
252,63,77687,5,0,0:0:0:0:
252,110,77770,1,0,0:0:0:0:
252,158,77853,1,0,0:0:0:0:
362,255,78187,5,0,0:0:0:0:
321,231,78270,1,0,0:0:0:0:
280,207,78353,1,0,0:0:0:0:
141,255,78520,5,0,0:0:0:0:
182,231,78603,1,0,0:0:0:0:
223,207,78686,1,0,0:0:0:0:
252,287,78854,5,0,0:0:0:0:
252,63,79020,1,0,0:0:0:0:
216,168,79354,5,0,0:0:0:0:
170,156,79437,1,0,0:0:0:0:
124,143,79520,1,0,0:0:0:0:
289,215,79688,5,0,0:0:0:0:
335,227,79771,1,0,0:0:0:0:
380,239,79854,1,0,0:0:0:0:
252,191,80021,5,0,0:0:0:0:
252,191,80353,1,0,0:0:0:0:
252,191,80437,1,0,0:0:0:0:
252,191,80520,1,0,0:0:0:0:
252,63,80853,5,0,0:0:0:0:
252,94,80936,1,0,0:0:0:0:
252,126,81019,1,0,0:0:0:0:
252,158,81102,1,0,0:0:0:0:
252,191,81186,5,0,0:0:0:0:
268,207,81269,1,0,0:0:0:0:
288,221,81352,1,0,0:0:0:0:
309,231,81435,1,0,0:0:0:0:
360,263,81520,5,0,0:0:0:0:
355,278,81603,1,0,0:0:0:0:
348,292,81686,1,0,0:0:0:0:
339,306,81769,1,0,0:0:0:0:
330,319,81853,5,0,0:0:0:0:
319,331,81936,1,0,0:0:0:0:
307,342,82019,1,0,0:0:0:0:
294,352,82103,1,0,0:0:0:0:
280,360,82186,5,0,0:0:0:0:
265,367,82269,1,0,0:0:0:0:
250,372,82353,1,0,0:0:0:0:
234,375,82436,1,0,0:0:0:0:
218,378,82519,5,0,0:0:0:0:
202,378,82603,1,0,0:0:0:0:
186,377,82686,1,0,0:0:0:0:
170,374,82769,1,0,0:0:0:0:
154,370,82853,5,0,0:0:0:0:
139,364,82936,1,0,0:0:0:0:
125,357,83019,1,0,0:0:0:0:
111,348,83102,1,0,0:0:0:0:
99,338,83186,5,0,0:0:0:0:
87,326,83269,1,0,0:0:0:0:
77,314,83352,1,0,0:0:0:0:
68,301,83436,1,0,0:0:0:0:
60,286,83519,5,0,0:0:0:0:
54,272,83602,1,0,0:0:0:0:
49,256,83686,1,0,0:0:0:0:
46,240,83769,1,0,0:0:0:0:
44,224,83852,5,0,0:0:0:0:
44,208,83936,1,0,0:0:0:0:
46,192,84019,1,0,0:0:0:0:
49,176,84102,1,0,0:0:0:0:
54,161,84186,5,0,0:0:0:0:
61,146,84269,1,0,0:0:0:0:
69,132,84352,1,0,0:0:0:0:
78,118,84436,1,0,0:0:0:0:
88,106,84519,5,0,0:0:0:0:
100,95,84602,1,0,0:0:0:0:
113,85,84685,1,0,0:0:0:0:
126,76,84769,1,0,0:0:0:0:
141,69,84852,5,0,0:0:0:0:
156,64,84935,1,0,0:0:0:0:
172,59,85019,1,0,0:0:0:0:
188,57,85102,1,0,0:0:0:0:
204,56,85185,5,0,0:0:0:0:
220,56,85269,1,0,0:0:0:0:
236,59,85352,1,0,0:0:0:0:
251,62,85435,1,0,0:0:0:0:
264,69,85519,5,0,0:0:0:0:
293,83,85695,5,0,0:0:0:0:
315,97,85871,5,0,0:0:0:0:
334,117,86058,5,0,0:0:0:0:
348,139,86246,5,0,0:0:0:0:
358,165,86446,5,0,0:0:0:0:
358,170,86646,6,0,L|359:209,1,23.75
357,229,87165,5,0,0:0:0:0:
256,288,91549,5,0,0:0:0:0:
256,288,91665,1,0,0:0:0:0:
256,287,91780,2,0,L|256:192,5,95
256,192,92472,6,0,L|256:144,4,47.5
256,256,93011,1,0,0:0:0:0:
200,160,93318,1,0,0:0:0:0:
311,160,93626,1,0,0:0:0:0:
304,208,93857,5,0,0:0:0:0:
310,241,93914,1,0,0:0:0:0:
286,266,93972,1,0,0:0:0:0:
251,271,94030,1,0,0:0:0:0:
217,260,94087,1,0,0:0:0:0:
201,230,94145,1,0,0:0:0:0:
213,197,94203,5,0,0:0:0:0:
233,168,94260,1,0,0:0:0:0:
255,140,94318,1,0,0:0:0:0:
275,110,94376,1,0,0:0:0:0:
285,77,94433,1,0,0:0:0:0:
275,43,94491,1,0,0:0:0:0:
251,17,94549,6,0,L|251:112,1,95
309,107,94780,2,0,L|325:201,1,95
203,107,95011,2,0,L|186:201,1,95
251,367,95242,2,0,L|251:271,1,95
162,193,95473,6,0,L|194:282,1,95
253,330,95704,2,0,L|342:362,1,95
408,324,95935,2,0,L|497:291,1,95
509,216,96165,2,0,L|476:126,1,95
424,70,96396,6,0,L|337:29,1,95
263,38,96627,2,0,L|176:78,1,95
158,151,96858,2,0,L|117:237,1,95
163,299,97088,2,0,L|249:339,1,95
296,193,97319,5,0,0:0:0:0:
296,193,97435,1,0,0:0:0:0:
296,193,97550,1,0,0:0:0:0:
296,193,97665,1,0,0:0:0:0:
296,193,97781,1,0,0:0:0:0:
296,193,97896,1,0,0:0:0:0:
248,133,98011,6,0,L|179:62,1,95
222,212,98242,2,0,L|126:236,1,95
283,269,98473,2,0,L|256:364,1,95
357,237,98704,2,0,L|426:307,1,95
364,160,98935,2,0,L|459:135,1,95
299,116,99165,2,0,L|325:20,1,95
296,193,99395,5,0,0:0:0:0:
296,193,99511,1,0,0:0:0:0:
451,131,99626,2,0,L|359:154,1,95
420,301,99857,2,0,L|353:233,1,95
257,357,100088,2,0,L|283:265,1,95
126,240,100318,2,0,L|218:217,1,95
171,68,100550,2,0,L|237:136,1,95
345,27,100780,2,0,L|319:119,1,95
296,193,101011,5,0,0:0:0:0:
256,192,101241,12,0,107472,0:0:0:0:
256,192,107588,12,0,109318,0:0:0:0:
256,175,109434,6,0,L|256:128,13,47.5
270,200,110241,2,0,L|311:223,15,47.5
332,256,111165,2,0,L|344:301,15,47.5
315,327,112088,2,0,L|269:339,15,47.5
236,318,113011,2,0,L|223:272,15,47.5
188,259,113934,2,0,L|146:235,15,47.5
151,197,114857,6,0,L|174:155,15,47.5
205,132,115780,2,0,L|246:108,15,47.5
284,105,116703,2,0,L|330:113,15,47.5
352,144,117626,2,0,L|379:182,15,47.5
368,219,118549,2,0,L|359:265,15,47.5
323,278,119472,2,0,L|276:269,15,47.5
256,240,120395,6,0,L|255:192,15,47.5
256,175,121318,6,0,L|256:128,15,47.5
272,192,122241,2,0,L|320:192,15,47.5
239,192,123165,2,0,L|192:192,6,47.5
256,288,123626,5,0,0:0:0:0:
256,288,123857,1,0,0:0:0:0:
256,160,124088,6,0,L|256:96,15,47.5
256,160,125011,1,0,0:0:0:0:
352,128,125824,5,0,0:0:0:0:
353,179,125907,1,0,0:0:0:0:
327,225,125990,1,0,0:0:0:0:
283,252,126073,1,0,0:0:0:0:
230,249,126157,1,0,0:0:0:0:
186,227,126240,1,0,0:0:0:0:
159,182,126323,1,0,0:0:0:0:
159,130,126407,1,0,0:0:0:0:
107,130,126490,5,0,0:0:0:0:
107,193,126573,1,0,0:0:0:0:
107,256,126657,1,0,0:0:0:0:
352,336,126823,5,0,0:0:0:0:
128,288,126990,1,0,0:0:0:0:
416,240,127157,1,0,0:0:0:0:
64,192,127323,1,0,0:0:0:0:
480,144,127490,1,0,0:0:0:0:
0,96,127656,1,0,0:0:0:0:
512,32,127824,2,0,P|486:71|450:102,1,95
185,74,128324,5,0,0:0:0:0:
220,105,128407,1,0,0:0:0:0:
263,126,128491,2,0,P|317:200|298:290,1,190
178,231,128991,1,0,0:0:0:0:
116,112,129158,6,0,P|106:158|84:199,1,95
132,244,129407,1,0,0:0:0:0:
189,278,129491,2,0,P|199:324|221:365,1,95
352,384,129824,1,0,0:0:0:0:
341,337,129907,1,0,0:0:0:0:
319,296,129990,1,0,0:0:0:0:
213,173,130157,1,0,0:0:0:0:
32,33,130324,1,0,0:0:0:0:
220,59,130491,6,0,L|268:44,1,47.5
220,59,130657,2,0,P|229:104|225:152,1,95
318,261,130990,1,0,0:0:0:0:
308,214,131073,1,0,0:0:0:0:
312,167,131156,1,0,0:0:0:0:
245,283,131323,1,0,0:0:0:0:
144,109,131600,1,0,0:0:0:0:
272,46,131823,5,0,0:0:0:0:
315,63,131906,1,0,0:0:0:0:
349,96,131989,1,0,0:0:0:0:
366,140,132072,1,0,0:0:0:0:
363,187,132156,1,0,0:0:0:0:
204,83,132489,1,0,0:0:0:0:
256,352,132656,1,0,0:0:0:0:
363,187,132822,1,0,0:0:0:0:
464,239,133156,6,0,L|371:215,1,95
218,328,133656,1,0,0:0:0:0:
183,297,133739,1,0,0:0:0:0:
140,276,133823,2,0,P|85:201|104:111,1,190
169,183,134322,1,0,0:0:0:0:
310,56,134655,5,0,0:0:0:0:
355,44,134738,1,0,0:0:0:0:
401,32,134821,1,0,0:0:0:0:
59,105,135155,5,0,0:0:0:0:
106,113,135238,1,0,0:0:0:0:
153,120,135321,1,0,0:0:0:0:
295,147,135488,1,0,0:0:0:0:
484,204,135655,1,0,0:0:0:0:
348,337,135822,5,0,0:0:0:0:
146,324,135988,1,0,0:0:0:0:
96,128,136155,1,0,0:0:0:0:
266,20,136322,1,0,0:0:0:0:
422,149,136488,1,0,0:0:0:0:
347,337,136655,5,0,0:0:0:0:
422,149,136822,1,0,0:0:0:0:
266,20,136988,1,0,0:0:0:0:
266,20,137155,5,0,0:0:0:0:
240,37,137238,1,0,0:0:0:0:
229,67,137321,1,0,0:0:0:0:
231,98,137404,1,0,0:0:0:0:
239,129,137488,1,0,0:0:0:0:
248,160,137571,1,0,0:0:0:0:
259,190,137654,5,0,0:0:0:0:
268,220,137738,1,0,0:0:0:0:
275,251,137821,1,0,0:0:0:0:
278,283,137904,1,0,0:0:0:0:
272,314,137988,1,0,0:0:0:0:
255,341,138071,1,0,0:0:0:0:
229,359,138154,5,0,0:0:0:0:
192,288,138488,6,0,P|0:240|192:192,1,534.375020384789
101,240,139821,1,0,0:0:0:0:
101,240,140099,1,0,0:0:0:0:
101,240,140321,1,0,0:0:0:0:
204,283,140487,6,0,P|112:268|74:201,1,166.25
165,140,141155,6,0,P|180:48|247:10,1,166.25
308,101,141821,6,0,P|400:116|438:183,1,166.25
347,244,142488,6,0,P|332:336|232:365,1,190
142,274,142988,5,0,0:0:0:0:
154,229,143071,1,0,0:0:0:0:
166,183,143154,1,0,0:0:0:0:
370,110,143321,5,0,0:0:0:0:
358,155,143404,1,0,0:0:0:0:
346,201,143487,1,0,0:0:0:0:
273,214,143820,6,0,L|365:240,1,95
238,169,144153,2,0,L|147:144,1,95
233,209,144486,2,0,L|208:301,1,95
278,174,144820,2,0,L|304:83,1,95
141,345,145153,6,0,L|168:247,1,95
371,39,145486,2,0,L|344:137,1,95
103,77,145820,2,0,L|201:104,1,95
409,307,146153,2,0,L|311:280,1,95
256,136,146486,5,0,0:0:0:0:
303,239,146653,1,0,0:0:0:0:
166,192,146819,1,0,0:0:0:0:
335,112,146986,1,0,0:0:0:0:
256,326,147153,1,0,0:0:0:0:
145,81,147319,1,0,0:0:0:0:
435,191,147486,1,0,0:0:0:0:
113,334,147652,1,0,0:0:0:0:
352,128,147819,5,0,0:0:0:0:
353,179,147902,1,0,0:0:0:0:
327,225,147985,1,0,0:0:0:0:
283,252,148068,1,0,0:0:0:0:
230,249,148152,1,0,0:0:0:0:
186,227,148235,1,0,0:0:0:0:
159,182,148318,1,0,0:0:0:0:
159,130,148402,1,0,0:0:0:0:
208,122,148486,5,0,0:0:0:0:
208,147,148569,1,0,0:0:0:0:
221,170,148652,1,0,0:0:0:0:
243,184,148735,1,0,0:0:0:0:
269,182,148819,1,0,0:0:0:0:
291,171,148902,1,0,0:0:0:0:
305,149,148985,1,0,0:0:0:0:
305,123,149069,1,0,0:0:0:0:
256,96,149152,5,0,0:0:0:0:
256,192,149319,12,0,150485,0:0:0:0:
256,192,150652,12,0,151485,0:0:0:0:
256,112,151818,5,0,0:0:0:0:
303,256,152040,1,0,0:0:0:0:
179,167,152263,1,0,0:0:0:0:
332,167,152485,1,0,0:0:0:0:
208,256,152707,1,0,0:0:0:0:
310,41,152929,5,0,0:0:0:0:
300,345,153151,1,0,0:0:0:0:
129,93,153373,1,0,0:0:0:0:
415,197,153596,1,0,0:0:0:0:
123,281,153818,1,0,0:0:0:0:
335,312,154484,5,0,0:0:0:0:
472,181,154706,1,0,0:0:0:0:
313,300,154929,5,0,0:0:0:0:
371,98,155151,1,0,0:0:0:0:
291,297,155373,5,0,0:0:0:0:
245,74,155595,1,0,0:0:0:0:
273,304,155817,5,0,0:0:0:0:
120,109,156039,1,0,0:0:0:0:
251,310,156262,5,0,0:0:0:0:
32,204,156484,1,0,0:0:0:0:
32,204,156817,5,0,0:0:0:0:
104,142,157150,5,0,0:0:0:0:
127,128,157233,1,0,0:0:0:0:
150,115,157316,1,0,0:0:0:0:
174,102,157399,1,0,0:0:0:0:
171,121,157483,1,0,0:0:0:0:
164,147,157566,1,0,0:0:0:0:
157,173,157649,1,0,0:0:0:0:
149,199,157733,5,0,0:0:0:0:
142,225,157816,1,0,0:0:0:0:
134,251,157899,1,0,0:0:0:0:
148,267,157983,1,0,0:0:0:0:
175,270,158066,1,0,0:0:0:0:
202,269,158149,1,0,0:0:0:0:
229,265,158233,1,0,0:0:0:0:
255,260,158316,5,0,0:0:0:0:
281,253,158399,1,0,0:0:0:0:
306,243,158483,1,0,0:0:0:0:
330,231,158566,1,0,0:0:0:0:
352,215,158649,1,0,0:0:0:0:
371,196,158732,1,0,0:0:0:0:
384,173,158816,1,0,0:0:0:0:
389,147,158899,5,0,0:0:0:0:
383,121,158982,1,0,0:0:0:0:
367,99,159066,1,0,0:0:0:0:
344,85,159149,1,0,0:0:0:0:
318,79,159232,1,0,0:0:0:0:
292,81,159316,1,0,0:0:0:0:
267,92,159399,1,0,0:0:0:0:
251,113,159482,5,0,0:0:0:0:
247,140,159566,5,0,0:0:0:0:
256,165,159649,5,0,0:0:0:0:
256,192,159733,5,0,0:0:0:0:
256,192,159816,5,0,0:0:0:0:
256,112,170147,6,0,L|256:160,3,47.5
289,194,170481,2,0,P|339:271|392:284,2,126.666666666667
321,71,171147,2,0,P|236:33|180:101,1,190
281,259,171814,6,0,P|226:227|201:171,2,126.666666666667
298,166,172480,2,0,L|134:304,1,190
117,101,173147,5,0,0:0:0:0:
210,186,173369,1,0,0:0:0:0:
272,80,173591,2,0,P|303:25|359:0,1,126.666666666667
275,375,174147,5,0,0:0:0:0:
237,9,174480,5,0,0:0:0:0:
73,211,174813,5,0,0:0:0:0:
439,173,175146,5,0,0:0:0:0:
256,192,175813,12,0,179479,0:0:0:0:
256,48,180145,5,0,0:0:0:0:
256,176,180312,1,0,0:0:0:0:
256,192,180395,1,0,0:0:0:0:
256,208,180478,2,0,L|256:336,1,95
256,48,181145,5,0,0:0:0:0:
256,336,181312,5,0,0:0:0:0:
256,192,181478,12,0,182311,0:0:0:0:
256,48,182478,5,0,0:0:0:0:
256,336,182645,5,0,0:0:0:0:
256,192,182811,12,0,183644,0:0:0:0:
256,48,183811,5,0,0:0:0:0:
256,336,183978,5,0,0:0:0:0:
256,336,184478,5,0,0:0:0:0:
256,48,184645,5,0,0:0:0:0:
419,57,184977,5,0,0:0:0:0:
390,111,185060,1,0,0:0:0:0:
350,157,185144,1,0,0:0:0:0:
320,240,185366,5,0,0:0:0:0:
178,134,185588,1,0,0:0:0:0:
243,304,185811,1,0,0:0:0:0:
270,63,186033,1,0,0:0:0:0:
122,249,186255,1,0,0:0:0:0:
404,127,186477,6,0,P|312:131|251:217,1,190
149,286,187477,1,0,0:0:0:0:
379,250,187810,6,0,P|321:321|228:326,1,190
363,98,188810,1,0,0:0:0:0:
133,134,189143,6,0,P|190:62|283:57,1,190
253,187,190143,1,0,0:0:0:0:
447,40,190476,6,0,P|354:45|296:116,1,190
286,186,191226,1,0,0:0:0:0:
271,254,191309,1,0,0:0:0:0:
209,284,191392,1,0,0:0:0:0:
146,256,191475,1,0,0:0:0:0:
64,0,191809,6,0,P|56:46|63:93,1,95
254,186,192143,2,0,P|261:139|253:92,1,95
64,186,192476,2,0,P|56:234|64:282,1,95
224,384,192809,2,0,P|231:337|223:290,1,95
212,156,193142,6,0,P|261:196|323:208,2,126.666666666667
59,246,193809,2,0,P|17:163|50:77,1,190
299,227,194475,6,0,P|250:187|188:175,2,126.666666666667
453,138,195142,2,0,P|494:220|461:306,1,190
256,48,195808,6,0,L|256:144,1,95
340,308,196142,2,0,L|284:230,1,95
119,147,196475,2,0,L|210:177,1,95
392,147,196808,2,0,L|301:177,1,95
171,308,197141,6,0,L|227:230,1,95
108,63,198641,5,0,0:0:0:0:
312,124,198808,2,0,L|166:172,1,95
440,128,199141,1,0,0:0:0:0:
286,274,199308,2,0,L|317:123,1,95
218,383,199641,1,0,0:0:0:0:
169,177,199808,5,0,0:0:0:0:
178,184,199891,1,0,0:0:0:0:
187,192,199974,1,0,0:0:0:0:
196,200,200057,1,0,0:0:0:0:
205,208,200141,1,0,0:0:0:0:
213,216,200224,1,0,0:0:0:0:
222,224,200307,1,0,0:0:0:0:
231,232,200391,1,0,0:0:0:0:
240,240,200474,1,0,0:0:0:0:
249,251,200557,5,0,0:0:0:0:
249,270,200640,1,0,0:0:0:0:
253,290,200723,1,0,0:0:0:0:
260,309,200806,1,0,0:0:0:0:
271,325,200890,1,0,0:0:0:0:
285,340,200973,5,0,0:0:0:0:
301,351,201056,1,0,0:0:0:0:
319,360,201140,1,0,0:0:0:0:
339,364,201223,1,0,0:0:0:0:
359,365,201306,1,0,0:0:0:0:
378,363,201390,5,0,0:0:0:0:
397,356,201473,1,0,0:0:0:0:
415,346,201556,1,0,0:0:0:0:
430,333,201640,1,0,0:0:0:0:
442,318,201723,1,0,0:0:0:0:
452,300,201806,5,0,0:0:0:0:
458,281,201890,1,0,0:0:0:0:
460,261,201973,1,0,0:0:0:0:
458,241,202056,1,0,0:0:0:0:
453,222,202139,1,0,0:0:0:0:
453,222,202140,2,0,P|444:193|434:175,3,47.5
436,164,202474,6,0,L|472:53,1,95
76,220,202973,1,0,0:0:0:0:
46,310,203140,1,0,0:0:0:0:
325,13,203473,1,0,0:3:0:0:
223,276,203807,6,0,L|290:348,1,95
288,107,204307,1,0,0:0:0:0:
223,37,204473,1,0,0:0:0:0:
376,342,204806,1,0,0:0:0:0:
141,50,205140,6,0,L|27:74,1,95
370,333,205639,1,0,0:0:0:0:
463,314,205806,1,0,0:0:0:0:
66,220,206139,1,0,0:3:0:0:
183,346,206306,5,0,0:0:0:0:
173,253,206473,2,0,P|195:163|276:120,2,190
190,298,207223,5,0,0:0:0:0:
227,326,207306,1,0,0:0:0:0:
273,340,207389,1,0,0:0:0:0:
320,338,207472,1,0,0:0:0:0:
364,320,207556,1,0,0:0:0:0:
399,288,207639,1,0,0:0:0:0:
421,247,207722,1,0,0:0:0:0:
429,200,207806,6,0,P|383:120|292:107,1,190
270,209,209139,6,0,P|197:152|198:61,1,190
276,114,210472,6,0,P|323:106|370:113,1,95
512,192,210805,1,0,0:0:0:0:
370,113,210972,2,0,P|320:190|215:200,1,190,0|0,0:0|0:0,0:0:0:0:
75,258,211472,2,0,P|67:211|74:164,1,95
159,302,211805,5,0,0:0:0:0:
285,202,211971,2,0,P|331:209|378:201,1,95
261,87,212305,1,0,0:0:0:0:
212,240,212471,2,0,P|194:195|164:159,1,95
105,103,212721,1,0,0:0:0:0:
31,68,212805,1,0,0:0:0:0:
0,224,212971,1,0,0:0:0:0:
141,270,213138,6,0,P|188:276|235:269,1,95
0,192,213471,1,0,0:0:0:0:
153,140,213638,2,0,P|203:63|308:53,1,190,0|0,0:0|0:0,0:0:0:0:
437,126,214138,2,0,P|444:172|437:219,1,95
353,82,214471,5,0,0:0:0:0:
134,169,214637,2,0,P|180:176|227:169,1,95
156,23,214971,1,0,0:0:0:0:
356,150,215137,2,0,P|326:114|309:70,1,95
500,226,215471,5,0,0:0:0:0:
482,269,215554,1,0,0:0:0:0:
449,303,215637,1,0,0:0:0:0:
405,320,215720,1,0,0:0:0:0:
366,327,215804,6,0,L|247:274,1,95
160,186,216137,2,0,L|97:268,1,95
280,99,216470,2,0,L|214:20,1,95
339,237,216804,2,0,L|430:190,1,95
192,262,217137,6,0,L|217:362,1,95
200,114,217470,2,0,L|97:115,1,95
343,155,217804,2,0,L|365:54,1,95
271,285,218137,2,0,L|364:329,1,95
140,184,218470,6,0,L|76:264,1,95
288,80,218803,2,0,L|224:0,1,95
355,248,219137,2,0,L|448:203,1,95
176,276,219470,2,0,L|199:377,1,95
201,112,219803,6,0,L|98:112,1,95
344,157,220136,2,0,L|367:56,1,95
268,279,220470,5,0,0:0:0:0:
290,289,220553,1,0,0:0:0:0:
311,300,220636,1,0,0:0:0:0:
332,310,220719,1,0,0:0:0:0:
353,320,220803,1,0,0:0:0:0:
439,360,220969,5,0,0:0:0:0:
439,360,221136,5,0,0:0:0:0:
256,192,221469,12,0,227801,0:0:0:0:
256,176,228801,5,0,0:0:0:0:
256,192,228884,1,0,0:0:0:0:
256,208,228968,2,0,L|256:256,2,47.5
