osu file format v14

[General]
AudioFilename: 02 Vermillion Halo.mp3
AudioLeadIn: 0
PreviewTime: 67459
Countdown: 0
SampleSet: Normal
StackLeniency: 0.7
Mode: 0
LetterboxInBreaks: 1
WidescreenStoryboard: 1

[Editor]
Bookmarks: 22199,33297,44916,56014,61162,68153,79251,87575,91737,97979,112893,123644,137517,148615,159713,163182,170812,181910,193008,204107,215205,223528,226303,234627,241856
DistanceSpacing: 1
BeatDivisor: 4
GridSize: 4
TimelineZoom: 1.650001

[Metadata]
Title:Vermillion Halo
TitleUnicode:Vermillion Halo
Artist:Foreground Eclipse
ArtistUnicode:Foreground Eclipse
Creator:Shirayuki
Version:Lunatic
Source:
Tags:
BeatmapID:475677
BeatmapSetID:199102

[Difficulty]
HPDrainRate:7
CircleSize:4
OverallDifficulty:7
ApproachRate:9
SliderMultiplier:2.2
SliderTickRate:1

[Events]
//Background and Video events
0,0,"Touhou.full.1462285.jpg",0,0
//Break Periods
2,98179,112293
2,163382,170212
//Storyboard Layer 0 (Background)
//Storyboard Layer 1 (Fail)
//Storyboard Layer 2 (Pass)
//Storyboard Layer 3 (Foreground)
//Storyboard Sound Samples

[TimingPoints]
10581,346.820809248555,4,1,0,70,1,0
11101,-133.333333333333,4,1,0,70,0,0
11448,-100,4,1,0,70,0,0
13875,-133.333333333333,4,1,0,70,0,0
14222,-100,4,1,0,70,0,0
16650,-133.333333333333,4,1,0,70,0,0
16997,-100,4,1,0,70,0,0
19424,-133.333333333333,4,1,0,70,0,0
19771,-100,4,1,0,70,0,0
22199,-100,4,1,0,80,0,0
33297,-100,4,1,0,90,0,0
44916,-133.333333333333,4,2,0,40,0,0
53066,-133.333333333333,4,2,0,40,0,0
54974,-100,4,2,0,40,0,0
56014,-100,4,2,0,40,0,0
61162,-100,4,2,0,60,0,0
68153,-100,4,2,0,50,0,1
78384,-83.3333333333333,4,2,0,50,0,1
78731,-100,4,2,0,50,0,1
79251,-100,4,1,0,40,0,1
87575,-100,4,2,0,50,0,1
91737,-100,4,2,0,50,0,0
137517,-100,4,2,0,50,0,1
147748,-83.3333333333333,4,2,0,50,0,1
148095,-100,4,2,0,50,0,1
163182,-100,4,2,0,50,0,0
181910,-133.333333333333,4,2,0,50,0,0
198557,-133.333333333333,4,2,0,35,0,0
199251,-125,4,2,0,40,0,0
199945,-111.111111111111,4,2,0,45,0,0
200638,-100,4,2,0,50,0,0
201332,-100,4,2,0,55,0,0
201679,-100,4,2,0,50,0,0
201852,-100,4,2,0,55,0,0
202026,-100,4,2,0,60,0,0
202199,-100,4,2,0,65,0,0
202372,-100,4,2,0,70,0,0
202546,-100,4,2,0,75,0,0
202719,-100,4,2,0,80,0,0
202893,-100,4,2,0,50,0,0
204107,-100,4,2,0,50,0,1
214338,-83.3333333333333,4,2,0,50,0,1
214685,-100,4,2,0,50,0,1
225956,-100,4,2,0,50,0,0

[HitObjects]
72,52,10581,6,0,L|72:164,1,110,8|0,0:0|0:0,0:0:0:0:
76,292,10927,1,0,0:0:0:0:
228,264,11101,2,0,B|263:255|297:260|297:260|295:248|295:248|292:236|292:236|327:241|362:232,1,165.000006294251,4|0,0:3|0:0,0:0:0:0:
480,192,11621,1,2,0:2:0:0:
216,188,11968,1,0,0:0:0:0:
472,128,12315,1,2,0:2:0:0:
240,252,12661,1,0,0:0:0:0:
432,72,13008,1,2,0:2:0:0:
280,304,13355,2,0,L|308:188,1,110,8|0,0:0|0:0,0:0:0:0:
352,48,13702,1,0,0:0:0:0:
376,144,13875,6,0,B|382:179|375:212|375:212|387:210|387:210|399:209|399:209|393:243|400:279,1,165.000006294251,4|0,0:3|0:0,0:0:0:0:
400,279,14396,1,2,0:0:0:0:
218,358,14742,1,0,0:0:0:0:
70,196,15089,1,2,0:0:0:0:
185,39,15436,1,0,0:0:0:0:
379,79,15783,1,2,0:0:0:0:
379,79,16130,2,0,L|296:160,1,110,8|0,0:0|0:0,0:0:0:0:
216,240,16476,1,2,0:0:0:0:
144,304,16650,6,0,P|224:336|300:280,1,165.000006294251
376,220,17171,1,2,0:2:0:0:
192,60,17518,1,0,0:0:0:0:
412,164,17864,1,2,0:2:0:0:
132,104,18211,2,0,L|236:148,1,110
412,164,18557,2,0,L|304:204,1,110,2|0,0:0|0:0,0:0:0:0:
120,192,18904,2,0,L|224:232,1,110,8|0,0:0|0:0,0:0:0:0:
360,264,19251,1,2,0:0:0:0:
304,312,19424,6,0,B|223:264|222:372|136:318,1,165.000006294251
44,296,19945,1,2,0:2:0:0:
56,56,20292,1,0,0:0:0:0:
264,176,20638,1,2,0:2:0:0:
364,104,20812,1,0,0:0:0:0:
400,137,20898,1,0,0:0:0:0:
413,183,20985,1,0,0:0:0:0:
248,344,21332,1,2,0:0:0:0:
208,314,21418,1,0,0:0:0:0:
191,269,21505,1,0,0:0:0:0:
312,244,21679,1,0,0:0:0:0:
236,156,21852,1,0,0:0:0:0:
187,145,21938,1,0,0:0:0:0:
140,157,22025,1,2,0:0:0:0:
102,189,22112,1,0,0:0:0:0:
80,228,22199,6,0,P|50:110|116:56,1,220,4|0,0:3|0:0,0:0:0:0:
236,40,22720,1,2,0:2:0:0:
424,208,23066,2,0,P|460:168|512:152,2,110,0|0|2,0:0|0:0|0:0,0:0:0:0:
388,320,23586,1,0,0:0:0:0:
300,236,23760,2,0,P|240:228|180:252,1,110
72,292,24107,1,2,0:2:0:0:
152,56,24453,2,0,L|116:164,1,110,8|0,0:0|0:0,0:0:0:0:
72,292,24800,1,2,0:2:0:0:
172,232,24974,6,0,B|207:200|254:186|254:186|241:170|241:170|227:155|227:155|274:141|310:110,1,220,4|0,0:3|0:0,0:0:0:0:
392,40,25495,1,2,0:2:0:0:
92,128,25841,2,0,P|48:104|28:48,2,110,0|0|2,0:0|0:0|0:0,0:0:0:0:
208,164,26361,1,0,0:0:0:0:
320,200,26534,2,0,P|288:252|232:272,1,110
128,300,26882,1,2,0:2:0:0:
400,336,27228,2,0,L|452:236,1,110,8|0,0:0|0:0,0:0:0:0:
496,128,27575,1,2,0:2:0:0:
388,188,27748,6,0,B|347:213|301:223|301:223|309:237|309:237|319:251|319:251|273:261|232:287,1,220,4|0,0:3|0:0,0:0:0:0:
120,340,28269,1,2,0:2:0:0:
136,84,28615,2,0,P|88:68|52:20,2,110,0|0|2,0:0|0:0|0:0,0:0:0:0:
256,84,29135,1,0,0:0:0:0:
240,196,29309,2,0,P|252:248|300:272,1,110
420,300,29656,1,2,0:2:0:0:
408,80,30002,2,0,P|364:40|304:40,1,110,8|0,0:0|0:0,0:0:0:0:
192,52,30349,1,2,0:2:0:0:
124,164,30523,5,4,0:3:0:0:
360,224,30870,1,0,0:0:0:0:
216,280,31044,1,2,0:2:0:0:
40,168,31390,2,0,P|32:116|68:64,2,110,0|0|2,0:0|0:0|0:0,0:0:0:0:
104,256,31910,1,0,0:0:0:0:
352,316,32257,2,0,P|408:312|444:268,1,110,0|2,0:0|0:0,0:0:0:0:
432,84,32777,2,0,P|398:41|344:36,1,110,8|0,0:0|0:0,0:0:0:0:
240,68,33124,1,2,0:2:0:0:
140,116,33297,5,4,0:3:0:0:
240,164,33471,1,0,0:0:0:0:
344,204,33644,1,0,0:0:0:0:
444,248,33818,1,2,0:2:0:0:
344,292,33991,1,0,0:0:0:0:
236,324,34164,2,0,P|184:340|128:336,2,110,0|0|2,0:0|0:0|0:0,0:0:0:0:
344,292,34685,1,0,0:0:0:0:
444,248,34858,2,0,P|488:216|496:152,1,110
444,56,35205,1,2,0:2:0:0:
320,28,35378,1,0,0:0:0:0:
204,32,35552,2,0,P|148:40|104:84,1,110,8|0,0:0|0:0,0:0:0:0:
196,144,35898,1,2,0:2:0:0:
96,188,36072,6,0,P|128:232|184:252,1,110,4|0,0:3|0:0,0:0:0:0:
300,268,36419,1,0,0:0:0:0:
400,208,36592,1,2,0:2:0:0:
300,268,36765,1,0,0:0:0:0:
316,148,36939,2,0,P|322:93|304:36,2,110,0|0|2,0:0|0:0|0:0,0:0:0:0:
300,268,37459,1,0,0:0:0:0:
192,216,37633,2,0,P|145:184|120:136,1,110
96,20,37980,1,2,0:2:0:0:
216,36,38153,1,0,0:0:0:0:
328,80,38326,2,0,P|384:112|408:164,1,110,8|0,0:0|0:0,0:0:0:0:
432,268,38673,1,2,0:0:0:0:
336,344,38846,6,0,P|284:364|228:360,1,110,4|0,0:3|0:0,0:0:0:0:
116,320,39193,1,0,0:0:0:0:
228,360,39367,1,2,0:2:0:0:
204,240,39540,1,0,0:0:0:0:
228,360,39713,2,0,L|296:268,1,110,0|0,0:0|0:0,0:0:0:0:
293,271,40060,2,0,L|264:160,1,110,2|0,0:0|0:0,0:0:0:0:
236,48,40407,1,0,0:0:0:0:
160,144,40581,2,0,L|96:236,1,110,0|2,0:0|0:0,0:0:0:0:
24,332,40927,1,0,0:0:0:0:
144,332,41101,2,0,L|256:332,1,110,8|0,0:0|0:0,0:0:0:0:
388,332,41448,1,2,0:0:0:0:
388,212,41621,6,0,L|388:100,1,110,4|0,0:3|0:0,0:0:0:0:
388,102,41968,2,0,L|284:60,1,110,0|2,0:0|0:0,0:0:0:0:
168,24,42315,1,0,0:0:0:0:
88,124,42488,2,0,P|60:172|56:228,2,110,0|0|2,0:0|0:0|0:0,0:0:0:0:
168,24,43008,1,0,0:0:0:0:
304,64,43182,2,0,P|344:100|352:160,1,110
328,272,43529,1,2,0:2:0:0:
192,272,43702,1,0,0:0:0:0:
104,180,43875,1,0,0:0:0:0:
113,132,43961,1,0,0:0:0:0:
148,97,44048,1,0,0:0:0:0:
195,87,44135,1,0,0:0:0:0:
241,105,44221,1,2,0:0:0:0:
368,184,44396,1,0,0:0:0:0:
440,308,44569,5,4,0:2:0:0:
204,360,44916,2,0,P|160:368|124:356,1,82.5000031471254
88,280,45263,2,0,P|132:272|168:284,1,82.5000031471254
248,284,45609,1,2,0:0:0:0:
324,320,45783,2,0,P|324:248|252:200,1,165.000006294251,0|2,0:0|0:0,0:0:0:0:
200,136,46303,2,0,P|168:172|168:216,1,82.5000031471254
136,288,46650,2,0,P|176:296|216:268,1,82.5000031471254
252,200,46997,2,0,P|276:168|284:124,1,82.5000031471254
256,48,47344,5,0,0:0:0:0:
168,64,47517,1,0,0:0:0:0:
116,136,47690,2,0,P|96:176|100:220,1,82.5000031471254
136,288,48037,2,0,P|164:312|212:320,1,82.5000031471254
308,316,48383,1,2,0:0:0:0:
404,296,48557,2,0,B|380:216|380:216|320:156,1,165.000006294251,0|2,0:0|0:0,0:0:0:0:
280,76,49078,2,0,P|240:100|232:136,1,82.5000031471254
260,220,49424,2,0,P|220:224|180:200,1,82.5000031471254
120,128,49771,1,0,0:0:0:0:
184,52,49945,1,0,0:0:0:0:
284,40,50118,5,4,0:0:0:0:
372,80,50291,1,0,0:0:0:0:
432,160,50465,2,0,P|448:204|440:248,1,82.5000031471254
396,324,50812,2,0,P|368:356|328:364,1,82.5000031471254
320,264,51159,1,2,0:0:0:0:
252,336,51332,2,0,P|220:268|256:188,1,165.000006294251,0|2,0:0|0:0,0:0:0:0:
320,264,51852,2,0,P|356:224|356:196,1,82.5000031471254,2|0,0:0|0:0,0:0:0:0:
356,197,52199,2,0,L|304:121,1,82.5000031471254
240,60,52546,2,0,P|204:40|160:40,1,82.5000031471254
180,136,52893,1,0,0:0:0:0:
316,32,53066,2,0,B|352:64|332:108|332:108|364:136|348:184,1,165.000006294251
208,344,53586,2,0,B|141:331|129:258|129:258|52:248|44:176,1,247.500009441376,2|0,0:0|0:0,0:0:0:0:
212,8,54280,2,0,B|278:20|290:93|290:93|360:96|384:164,1,247.500009441376
276,184,54974,1,8,0:1:0:0:
204,104,55147,1,0,0:0:0:0:
96,100,55320,1,0,0:0:0:0:
164,184,55494,1,0,0:0:0:0:
64,216,55667,5,4,0:0:0:0:
168,280,55841,1,0,0:0:0:0:
304,332,56014,2,0,B|360:320|360:320|392:248,1,110
381,271,56361,2,0,L|388:160,1,110
392,28,56707,1,2,0:0:0:0:
308,116,56881,2,0,L|232:204,1,110,4|2,0:3|0:0,0:0:0:0:
52,352,57401,2,0,L|24:220,1,110
29,244,57748,2,0,L|136:196,1,110
260,148,58095,1,4,0:3:0:0:
268,36,58268,1,2,0:0:0:0:
152,32,58442,6,0,B|139:85|139:85|159:141,1,110,4|0,0:3|0:0,0:0:0:0:
184,296,58789,2,0,L|132:200,1,110
44,32,59135,2,0,L|96:132,1,110
184,296,59482,1,2,0:0:0:0:
72,340,59656,2,0,P|60:296|84:228,1,110,4|2,0:3|0:0,0:0:0:0:
264,80,60176,2,0,L|364:16,1,110
472,52,60523,2,0,L|376:116,1,110
252,184,60870,1,4,0:3:0:0:
132,184,61043,1,2,0:0:0:0:
132,64,61216,5,4,0:3:0:0:
252,64,61390,1,0,0:0:0:0:
380,64,61563,2,0,P|432:72|476:128,1,110
472,112,61910,2,0,P|474:173|450:213,1,110
344,296,62256,1,2,0:0:0:0:
204,332,62430,2,0,P|152:336|108:296,1,110,4|2,0:3|0:0,0:0:0:0:
84,60,62950,2,0,L|-8:144,1,110
164,80,63297,2,0,L|240:164,1,110
116,152,63644,2,0,L|32:228,1,110
192,224,63991,5,4,0:3:0:0:
344,192,64164,2,0,P|400:176|460:188,2,110,4|0|0,0:3|0:1|0:0,0:0:0:0:
192,224,64685,2,0,P|144:244|112:292,1,110
252,328,65031,2,0,P|305:298|327:243,1,110
360,120,65378,2,0,B|368:64|368:64|316:36,1,110
192,64,65725,1,0,0:0:0:0:
104,160,65898,1,0,0:0:0:0:
8,252,66072,1,0,0:0:0:0:
44,284,66158,1,0,0:0:0:0:
92,296,66245,1,0,0:0:0:0:
140,286,66332,1,0,0:0:0:0:
178,255,66418,1,0,0:0:0:0:
276,164,66592,1,0,0:0:0:0:
376,248,66765,1,8,0:1:0:0:
376,248,67633,1,0,0:0:0:0:
500,204,67806,1,0,0:0:0:0:
376,164,67979,1,0,0:0:0:0:
248,128,68153,6,0,L|140:96,2,110,4|0|2,0:3|0:1|0:0,0:0:0:0:
376,164,68673,1,0,0:1:0:0:
500,204,68846,2,0,L|396:240,1,110,0|0,0:0|0:0,0:0:0:0:
268,280,69193,1,2,0:0:0:0:
140,308,69367,1,0,0:0:0:0:
40,220,69540,2,0,P|12:172|12:108,2,110,0|0|2,0:1|0:1|0:0,0:0:0:0:
140,308,70060,1,0,0:1:0:0:
268,280,70234,2,0,P|320:256|352:208,1,110
340,80,70581,2,0,P|285:96|256:140,1,110,2|0,0:2|0:0,0:0:0:0:
268,280,70927,5,4,0:3:0:0:
400,300,71101,1,0,0:1:0:0:
344,180,71274,1,2,0:0:0:0:
228,120,71448,2,0,P|176:96|120:104,1,110
124,101,71794,1,0,0:0:0:0:
240,184,71968,2,0,B|291:222|291:222|307:220|307:220|310:236|310:236|293:239|293:239|291:222|291:222|361:275,1,220
361,275,72488,1,0,0:1:0:0:
256,308,72661,1,2,0:0:0:0:
344,176,72835,1,0,0:1:0:0:
352,360,73008,1,0,0:1:0:0:
164,264,73182,1,0,0:0:0:0:
260,212,73355,2,0,L|164:264,1,110,2|0,0:0|0:0,0:0:0:0:
160,260,73702,6,0,L|64:192,1,110,4|0,0:3|0:0,0:0:0:0:
68,64,74049,2,0,L|160:128,1,110,2|0,0:0|0:0,0:0:0:0:
288,96,74396,2,4,L|196:32,2,110,0|0|2,0:1|0:1|0:0,0:0:0:0:
408,176,74916,1,0,0:0:0:0:
296,248,75089,2,0,P|240:272|184:264,1,110
76,332,75436,2,0,P|56:276|68:224,1,110,2|0,0:0|0:0,0:0:0:0:
20,104,75783,2,0,P|72:88|128:112,1,110
244,60,76130,2,0,P|264:112|240:176,1,110,2|0,0:0|0:0,0:0:0:0:
192,268,76476,5,4,0:3:0:0:
316,188,76650,1,0,0:0:0:0:
244,60,76823,1,2,0:0:0:0:
51,338,77170,2,0,L|120:248,1,110,0|0,0:1|0:1,0:0:0:0:
117,250,77517,2,0,L|232:248,1,110,2|0,0:0|0:1,0:0:0:0:
416,244,77864,5,0,0:0:0:0:
324,144,78037,1,0,0:1:0:0:
188,168,78211,1,2,0:0:0:0:
64,248,78384,2,0,P|108:292|176:300,2,131.99999597168,0|0|2,0:0|0:0|0:0,0:0:0:0:
64,116,78904,1,0,0:1:0:0:
188,116,79078,1,0,0:1:0:0:
188,116,79251,6,0,L|240:228,1,110,4|0,0:3|0:0,0:0:0:0:
328,156,79598,2,0,L|232:216,1,110
108,256,79945,1,0,0:0:0:0:
236,284,80118,1,0,0:0:0:0:
112,328,80291,1,0,0:0:0:0:
200,228,80465,1,0,0:0:0:0:
356,144,80638,2,0,L|244:150,1,110
292,252,80985,2,0,L|248:152,1,110
196,28,81332,1,0,0:0:0:0:
92,120,81505,1,0,0:0:0:0:
128,20,81679,1,0,0:0:0:0:
156,148,81852,1,0,0:0:0:0:
220,260,82026,6,0,L|304:340,1,110,4|0,0:3|0:0,0:0:0:0:
188,356,82372,2,0,L|300:336,1,110
432,268,82719,1,0,0:0:0:0:
300,276,82893,1,0,0:0:0:0:
424,324,83066,1,0,0:0:0:0:
340,224,83239,1,0,0:0:0:0:
240,136,83413,2,0,L|132:104,1,110
216,32,83760,2,0,L|132:108,1,110
32,188,84107,1,0,0:0:0:0:
136,104,84280,1,0,0:0:0:0:
228,200,84453,1,0,0:0:0:0:
124,284,84627,1,0,0:0:0:0:
124,284,84800,6,0,L|236:304,1,110,4|0,0:3|0:0,0:0:0:0:
388,324,85147,2,0,L|440:224,1,110
440,52,85494,2,0,L|384:160,1,110
312,260,85841,2,0,L|192:236,1,110
80,288,86187,2,0,L|186:315,1,110
280,192,86534,2,0,L|173:164,1,110
68,88,86881,1,8,0:3:0:0:
192,44,87054,1,0,0:0:0:0:
324,64,87228,1,8,0:3:0:0:
408,168,87401,1,0,0:0:0:0:
424,300,87575,5,4,0:0:0:0:
164,264,87922,1,2,0:0:0:0:
408,168,88268,1,0,0:0:0:0:
408,168,88442,1,0,0:0:0:0:
324,64,88615,1,2,0:0:0:0:
232,312,88962,1,0,0:0:0:0:
232,312,89135,1,0,0:0:0:0:
256,180,89309,1,2,0:0:0:0:
352,268,89482,2,0,P|380:320|360:372,2,110,0|0|0,0:0|0:0|0:0,0:0:0:0:
256,180,90002,1,2,0:0:0:0:
160,92,90176,6,0,P|260:52|364:96,1,220
359,91,90696,1,2,0:0:0:0:
452,336,91043,1,0,0:0:0:0:
452,336,91216,1,0,0:0:0:0:
404,212,91390,1,2,0:0:0:0:
172,340,91737,1,0,0:0:0:0:
172,340,91910,1,0,0:0:0:0:
220,216,92083,2,0,L|344:280,1,110,2|0,0:0|0:0,0:0:0:0:
444,232,92430,2,0,L|340:180,1,110
204,120,92777,1,2,0:0:0:0:
144,228,92950,6,0,B|144:276|204:312|226:289|248:268|311:303|312:356,1,220
309,340,93471,1,2,0:0:0:0:
148,132,93817,2,0,P|96:140|56:180,2,110,0|0|2,0:0|0:0|0:2,0:0:0:0:
280,128,94338,2,0,P|332:128|376:88,1,110
374,91,94685,1,0,0:0:0:0:
304,204,94858,1,2,0:0:0:0:
408,124,95031,1,0,0:0:0:0:
388,256,95205,1,0,0:0:0:0:
448,140,95378,1,0,0:0:0:0:
488,268,95552,1,2,0:0:0:0:
488,136,95725,1,4,0:0:0:0:
256,192,95898,12,0,97979,0:0:0:0:
276,288,112893,5,4,0:3:0:0:
424,48,113240,1,8,0:1:0:0:
132,116,113586,1,2,0:0:0:0:
132,116,113673,1,0,0:0:0:0:
132,116,113760,2,0,L|248:124,1,110,0|2,0:0|0:0,0:0:0:0:
356,136,114280,1,4,0:3:0:0:
424,220,114453,2,0,P|460:188|456:116,1,110,0|2,0:0|0:0,0:0:0:0:
272,48,114800,1,0,0:0:0:0:
272,48,114887,1,0,0:0:0:0:
272,48,114974,2,0,P|240:104|248:196,1,110,0|2,0:0|0:0,0:0:0:0:
244,196,115234,1,0,0:0:0:0:
268,240,115320,1,0,0:0:0:0:
360,304,115494,1,0,0:0:0:0:
464,264,115667,5,4,0:3:0:0:
400,44,116014,1,8,0:1:0:0:
64,172,116360,1,2,0:0:0:0:
60,284,116534,2,0,P|120:276|168:244,1,110,0|2,0:0|0:0,0:0:0:0:
244,160,116881,1,0,0:0:0:0:
156,60,117054,1,0,0:0:0:0:
304,72,117228,2,0,P|340:92|368:164,1,110
376,200,117488,1,0,0:0:0:0:
368,248,117575,1,0,0:0:0:0:
312,328,117748,1,0,0:0:0:0:
268,352,117835,1,0,0:0:0:0:
220,360,117922,2,0,P|164:360|120:324,1,110,2|0,0:0|0:0,0:0:0:0:
44,192,118268,1,0,0:0:0:0:
84,64,118442,5,4,0:3:0:0:
388,60,118789,1,8,0:1:0:0:
456,148,118962,1,0,0:0:0:0:
472,193,119048,1,0,0:0:0:0:
460,240,119135,1,2,0:0:0:0:
356,300,119309,1,0,0:0:0:0:
339,254,119395,1,0,0:0:0:0:
351,207,119482,1,0,0:0:0:0:
388,60,119656,1,0,0:0:0:0:
256,44,119829,1,4,0:3:0:0:
132,84,120002,2,0,P|84:116|68:164,1,110,0|2,0:0|0:0,0:0:0:0:
168,176,120349,1,0,0:0:0:0:
176,224,120436,1,0,0:0:0:0:
208,264,120523,1,0,0:0:0:0:
284,328,120696,1,0,0:0:0:0:
328,348,120783,1,0,0:0:0:0:
376,356,120870,6,0,B|444:308|444:308|460:296|460:278|460:278|460:168,1,220,2|0,0:0|0:0,0:0:0:0:
236,32,121563,1,8,0:1:0:0:
312,112,121737,2,0,L|356:160,2,55,0|2|0,0:0|0:0|0:0,0:0:0:0:
192,148,122083,1,0,0:0:0:0:
172,192,122170,1,0,0:0:0:0:
152,240,122257,1,4,0:3:0:0:
32,68,122604,1,0,0:0:0:0:
40,296,122950,1,0,0:0:0:0:
78,326,123036,1,0,0:0:0:0:
123,346,123123,1,0,0:0:0:0:
172,353,123210,1,0,0:0:0:0:
221,346,123296,1,0,0:0:0:0:
267,328,123383,1,0,0:0:0:0:
306,298,123470,1,0,0:0:0:0:
336,258,123556,1,0,0:0:0:0:
354,212,123643,5,4,0:3:0:0:
168,24,123991,1,2,0:0:0:0:
448,76,124338,1,4,0:3:0:0:
204,168,124684,1,2,0:0:0:0:
300,144,124858,2,0,P|272:96|216:72,1,110,4|2,0:3|0:0,0:0:0:0:
128,100,125205,2,0,P|100:152|104:208,1,110,4|2,0:3|0:0,0:0:0:0:
184,348,125552,1,0,0:0:0:0:
200,252,125725,1,2,0:0:0:0:
280,308,125898,1,0,0:0:0:0:
296,208,126072,1,4,0:3:0:0:
376,268,126245,1,2,0:0:0:0:
296,208,126419,5,4,0:3:0:0:
388,172,126592,1,0,0:0:0:0:
312,112,126765,1,2,0:0:0:0:
216,148,126939,1,0,0:0:0:0:
296,208,127113,1,4,0:3:0:0:
200,252,127286,1,0,0:0:0:0:
120,192,127459,1,2,0:0:0:0:
24,168,127633,2,0,P|45:119|100:100,1,110,4|2,0:3|0:0,0:0:0:0:
188,64,127979,2,0,P|240:56|296:92,1,110,4|2,0:3|0:0,0:0:0:0:
384,220,128326,1,0,0:0:0:0:
228,316,128500,1,0,0:0:0:0:
196,314,128586,1,0,0:0:0:0:
164,307,128673,1,0,0:0:0:0:
135,294,128760,1,0,0:0:0:0:
109,276,128846,1,0,0:0:0:0:
86,253,128933,1,0,0:0:0:0:
68,227,129020,1,0,0:0:0:0:
55,198,129106,1,0,0:0:0:0:
47,167,129193,5,0,0:0:0:0:
108,88,129367,1,0,0:0:0:0:
196,40,129540,1,2,0:0:0:0:
284,84,129713,1,0,0:0:0:0:
200,136,129887,1,4,0:3:0:0:
288,180,130060,1,0,0:0:0:0:
372,132,130233,1,2,0:0:0:0:
460,88,130407,2,0,P|480:140|444:196,1,110,4|2,0:3|0:0,0:0:0:0:
384,280,130754,2,0,P|340:324|280:320,1,110,4|2,0:3|0:0,0:0:0:0:
96,308,131101,1,0,0:0:0:0:
188,344,131274,1,2,0:0:0:0:
96,308,131448,1,0,0:0:0:0:
84,192,131621,1,0,0:0:0:0:
116,228,131707,1,0,0:0:0:0:
160,252,131794,1,0,0:0:0:0:
208,268,131881,1,0,0:0:0:0:
256,280,131968,5,0,0:0:0:0:
364,288,132141,1,0,0:0:0:0:
452,220,132315,1,0,0:0:0:0:
428,112,132488,1,0,0:0:0:0:
344,184,132661,1,2,0:2:0:0:
256,256,132835,2,0,P|224:212|232:152,1,110,4|0,0:3|0:1,0:0:0:0:
312,72,133182,2,0,P|264:36|212:36,1,110,4|0,0:3|0:1,0:0:0:0:
88,68,133528,1,0,0:0:0:0:
16,180,133702,1,0,0:0:0:0:
216,352,134049,1,4,0:0:0:0:
247,346,134136,1,0,0:0:0:0:
277,334,134222,1,0,0:0:0:0:
303,315,134309,1,0,0:0:0:0:
324,292,134396,1,0,0:0:0:0:
380,200,134569,1,0,0:0:0:0:
400,92,134742,5,0,0:0:0:0:
156,192,135089,1,0,0:0:0:0:
156,192,135263,1,0,0:0:0:0:
224,108,135436,1,0,0:0:0:0:
268,208,135609,1,0,0:0:0:0:
204,296,135783,1,0,0:0:0:0:
96,280,135956,1,0,0:0:0:0:
64,240,136043,1,0,0:0:0:0:
60,192,136130,1,0,0:0:0:0:
76,84,136303,1,0,0:0:0:0:
176,40,136476,1,0,0:0:0:0:
280,76,136650,1,0,0:0:0:0:
472,336,136997,1,0,0:0:0:0:
452,228,137170,1,0,0:0:0:0:
392,136,137343,1,0,0:0:0:0:
280,76,137517,6,0,P|220:56|140:64,2,110,4|0|2,0:3|0:1|0:0,0:0:0:0:
392,136,138037,2,0,P|436:168|448:228,1,110
396,328,138384,1,0,0:1:0:0:
332,228,138557,1,2,0:0:0:0:
268,332,138731,1,0,0:0:0:0:
208,228,138904,2,0,L|156:128,2,110,0|0|2,0:1|0:1|0:0,0:0:0:0:
268,332,139424,1,0,0:0:0:0:
332,228,139598,2,0,L|384:132,1,110
328,24,139945,2,0,L|276:120,1,110,2|0,0:0|0:0,0:0:0:0:
208,228,140291,5,4,0:3:0:0:
128,136,140465,1,0,0:1:0:0:
208,228,140638,1,2,0:0:0:0:
280,324,140812,2,0,B|328:352|328:352|380:328,1,110,0|0,0:1|0:1,0:0:0:0:
476,260,141159,1,0,0:0:0:0:
384,180,141332,2,0,B|332:156|332:156|280:180,1,110,2|0,0:1|0:1,0:0:0:0:
284,178,141679,2,0,L|175:176,1,110
40,52,142025,1,2,0:0:0:0:
176,176,142199,1,0,0:1:0:0:
16,176,142372,1,0,0:1:0:0:
176,176,142546,1,0,0:0:0:0:
40,304,142719,2,0,L|124:228,1,110,2|0,0:0|0:0,0:0:0:0:
224,132,143066,5,4,0:3:0:0:
340,32,143239,1,0,0:1:0:0:
188,76,143413,1,2,0:0:0:0:
348,96,143586,1,0,0:0:0:0:
348,96,143760,2,4,P|416:120|452:168,1,110,0|0,0:1|0:1,0:0:0:0:
476,276,144107,1,2,0:0:0:0:
476,276,144280,2,0,P|444:332|396:352,1,110
360,228,144627,1,0,0:0:0:0:
272,128,144800,1,2,0:0:0:0:
180,224,144973,1,0,0:0:0:0:
268,324,145147,2,0,L|344:244,1,110
352,128,145494,2,0,L|272:212,1,110,2|0,0:0|0:0,0:0:0:0:
124,280,145840,5,4,0:3:0:0:
212,152,146014,1,0,0:0:0:0:
216,284,146187,1,2,0:0:0:0:
304,156,146361,1,0,0:0:0:0:
304,288,146534,2,0,L|368:196,1,110,0|0,0:1|0:1,0:0:0:0:
428,20,146881,2,0,L|368:112,1,110,2|0,0:0|0:0,0:0:0:0:
468,136,147228,2,0,L|404:228,1,110
312,348,147575,1,2,0:0:0:0:
264,168,147748,2,0,P|204:180|156:232,2,131.99999597168,0|0|2,0:0|0:0|0:0,0:0:0:0:
416,184,148268,1,0,0:1:0:0:
324,308,148442,1,0,0:1:0:0:
176,352,148615,6,0,L|64:332,1,110,4|0,0:0|0:0,0:0:0:0:
67,332,148962,2,0,L|40:224,1,110,0|0,0:0|0:0,0:0:0:0:
28,72,149309,1,0,0:0:0:0:
176,32,149482,1,0,0:0:0:0:
320,88,149656,2,0,L|416:152,1,110
456,48,150002,2,0,L|412:148,1,110,0|0,0:0|0:0,0:0:0:0:
336,284,150349,2,0,L|244:344,1,110
88,344,150696,1,0,0:0:0:0:
240,344,150869,1,0,0:0:0:0:
112,276,151043,1,0,0:0:0:0:
264,280,151216,1,0,0:0:0:0:
144,208,151390,6,0,L|252:176,1,110,4|0,0:0|0:0,0:0:0:0:
376,144,151737,2,0,L|316:48,1,110
448,48,152083,1,0,0:0:0:0:
500,172,152257,1,0,0:0:0:0:
444,292,152430,2,0,P|408:336|356:348,1,110
358,348,152777,2,0,L|249:347,1,110
116,344,153124,2,0,L|52:236,1,110
59,249,153471,1,0,0:0:0:0:
112,116,153644,1,0,0:0:0:0:
156,252,153817,1,0,0:0:0:0:
204,116,153991,1,0,0:0:0:0:
252,252,154164,6,0,L|304:152,1,110,4|0,0:0|0:0,0:0:0:0:
302,154,154511,2,0,L|252:56,1,110
112,20,154858,1,0,0:0:0:0:
140,160,155031,1,0,0:0:0:0:
208,32,155205,1,0,0:0:0:0:
236,172,155378,1,0,0:0:0:0:
308,48,155552,2,0,L|376:140,1,110
373,136,155898,2,0,L|316:232,1,110
192,344,156245,1,8,0:3:0:0:
264,220,156419,1,0,0:0:0:0:
192,344,156592,1,8,0:3:0:0:
88,248,156765,1,0,0:0:0:0:
112,96,156939,5,8,0:1:0:0:
216,108,157112,1,0,0:0:0:0:
216,108,157286,1,0,0:0:0:0:
280,24,157459,1,8,0:1:0:0:
321,120,157632,1,0,0:0:0:0:
321,120,157806,1,0,0:0:0:0:
424,132,157979,1,8,0:1:0:0:
361,215,158152,1,0,0:0:0:0:
361,215,158326,1,0,0:0:0:0:
400,312,158500,1,8,0:1:0:0:
296,298,158673,1,0,0:0:0:0:
296,298,158847,1,0,0:0:0:0:
248,200,159020,6,0,L|200:100,1,110
60,76,159367,2,0,L|108:176,1,110
176,300,159713,1,0,0:0:0:0:
256,192,159887,12,0,163182,0:0:0:0:
256,112,170812,6,0,L|148:76,1,110,4|0,0:3|0:0,0:0:0:0:
28,32,171159,1,0,0:0:0:0:
256,144,171505,2,0,L|360:108,1,110,8|0,0:1|0:0,0:0:0:0:
484,64,171852,1,0,0:0:0:0:
256,180,172199,2,0,L|152:144,1,110
28,100,172546,1,0,0:0:0:0:
256,216,172893,2,0,L|360:176,1,110,8|0,0:1|0:0,0:0:0:0:
484,132,173240,1,0,0:0:0:0:
256,108,173586,2,0,L|196:200,1,110
140,308,173933,2,0,L|252:308,1,110
368,308,174280,2,0,L|320:208,1,110,8|0,0:1|0:0,0:0:0:0:
256,108,174627,1,0,0:0:0:0:
148,132,174800,2,0,P|168:188|228:216,1,110
320,208,175147,1,0,0:0:0:0:
364,108,175320,1,0,0:0:0:0:
276,28,175494,1,0,0:0:0:0:
164,56,175667,1,8,0:1:0:0:
36,240,176014,1,0,0:0:0:0:
248,68,176361,6,0,B|280:102|299:145|299:145|311:135|311:135|323:123|323:123|342:166|375:201,1,220,4|0,0:3|0:0,0:0:0:0:
168,336,177054,1,8,0:1:0:0:
128,232,177228,1,0,0:0:0:0:
236,256,177401,2,0,P|276:296|332:300,1,110
456,328,177748,2,0,P|464:272|432:220,1,110
400,100,178095,2,0,P|348:132|328:176,1,110
292,336,178442,1,8,0:1:0:0:
52,316,178789,1,0,0:0:0:0:
40,188,178962,1,0,0:0:0:0:
120,72,179135,5,8,0:1:0:0:
144,164,179309,1,0,0:0:0:0:
144,164,179482,1,0,0:0:0:0:
198,20,179656,1,8,0:1:0:0:
173,111,179830,1,0,0:0:0:0:
173,111,180003,1,0,0:0:0:0:
291,14,180176,1,8,0:1:0:0:
224,81,180350,1,0,0:0:0:0:
224,81,180523,1,0,0:0:0:0:
376,55,180696,1,8,0:1:0:0:
284,80,180870,1,0,0:0:0:0:
284,80,181043,1,0,0:0:0:0:
427,134,181216,1,4,0:3:0:0:
296,360,181563,1,4,0:3:0:0:
396,316,181737,1,0,0:0:0:0:
304,248,181910,6,0,L|136:248,1,165.000006294251
104,168,182430,1,0,0:0:0:0:
68,76,182604,2,0,L|236:76,1,165.000006294251
336,132,183124,1,0,0:0:0:0:
432,184,183297,2,0,L|264:184,1,165.000006294251
144,224,183817,1,0,0:0:0:0:
32,272,183991,2,0,L|199:271,1,165.000006294251
128,108,184685,5,0,0:0:0:0:
48,180,184858,1,0,0:0:0:0:
156,208,185031,1,0,0:0:0:0:
240,136,185205,1,0,0:0:0:0:
268,240,185378,1,0,0:0:0:0:
184,312,185552,1,0,0:0:0:0:
72,284,185725,2,0,L|236:248,1,165.000006294251
396,300,186419,1,0,0:0:0:0:
212,112,186765,1,0,0:0:0:0:
436,252,187112,1,0,0:0:0:0:
184,172,187459,6,0,L|352:196,1,165.000006294251
347,195,187979,1,0,0:0:0:0:
436,56,188153,2,0,L|348:196,1,165.000006294251
347,195,188673,1,0,0:0:0:0:
228,312,188846,2,0,L|348:196,1,165.000006294251
347,195,189367,1,0,0:0:0:0:
296,44,189540,2,0,L|348:200,1,165.000006294251
347,195,190060,1,0,0:0:0:0:
396,92,190234,5,0,0:0:0:0:
132,124,190581,1,0,0:0:0:0:
396,160,190927,1,0,0:0:0:0:
128,192,191274,1,0,0:0:0:0:
396,228,191621,1,0,0:0:0:0:
128,260,191968,1,0,0:0:0:0:
396,296,192315,1,0,0:0:0:0:
128,328,192661,1,8,0:1:0:0:
336,44,193008,6,0,L|336:216,1,165.000006294251
264,128,193528,1,0,0:0:0:0:
192,44,193702,2,0,L|192:212,1,165.000006294251
116,124,194222,1,0,0:0:0:0:
44,40,194396,2,0,L|44:208,1,165.000006294251
124,268,194916,1,0,0:0:0:0:
208,328,195089,1,0,0:0:0:0:
208,328,195436,1,0,0:0:0:0:
380,132,195783,5,0,0:0:0:0:
336,232,195956,1,0,0:0:0:0:
272,144,196130,1,0,0:0:0:0:
196,224,196303,2,0,P|160:152|192:76,1,165.000006294251
189,78,196823,1,0,0:0:0:0:
336,232,197170,1,0,0:0:0:0:
92,304,197517,1,0,0:0:0:0:
92,304,197864,1,0,0:0:0:0:
316,312,198211,1,0,0:0:0:0:
252,188,198557,6,0,L|148:208,1,82.5000031471254
252,188,198904,2,0,L|180:136,1,82.5000031471254
80,68,199251,2,0,L|172:56,1,88
80,68,199598,2,0,L|156:124,1,88
96,228,199945,2,0,B|84:280|84:280|120:316,1,98.9999969787599
212,260,200291,2,0,B|228:304|228:304|284:328,1,98.9999969787599
316,224,200638,2,0,B|363:260|363:260|443:242,1,110
400,140,200985,2,0,B|460:148|460:148|520:92,1,110
416,40,201332,5,0,0:0:0:0:
156,168,201679,1,0,0:0:0:0:
220,136,201852,1,0,0:0:0:0:
268,224,202026,1,0,0:0:0:0:
284,104,202199,1,0,0:0:0:0:
332,256,202372,1,0,0:0:0:0:
348,72,202546,1,0,0:0:0:0:
396,288,202719,1,0,0:0:0:0:
396,288,204107,6,0,L|484:208,1,110,4|0,0:3|0:1,0:0:0:0:
468,84,204453,2,0,L|384:160,1,110,2|0,0:0|0:0,0:0:0:0:
272,248,204800,1,0,0:0:0:0:
248,96,204974,1,0,0:1:0:0:
388,160,205147,1,2,0:0:0:0:
248,96,205320,1,0,0:0:0:0:
100,60,205494,2,0,B|48:88|48:88|24:148,1,110,0|0,0:1|0:1,0:0:0:0:
29,135,205841,2,0,L|29:247,1,110,2|0,0:0|0:0,0:0:0:0:
160,164,206187,2,0,L|160:280,1,110
160,274,206534,2,0,B|184:320|184:320|240:336,1,110,2|0,0:0|0:0,0:0:0:0:
388,336,206881,5,4,0:3:0:0:
388,204,207055,1,0,0:1:0:0:
256,204,207228,1,2,0:0:0:0:
388,204,207401,2,0,L|464:124,1,110,0|0,0:1|0:1,0:0:0:0:
380,20,207748,1,0,0:0:0:0:
464,124,207922,2,0,L|352:124,1,110,2|0,0:0|0:0,0:0:0:0:
200,124,208269,1,0,0:1:0:0:
200,124,208442,1,0,0:1:0:0:
120,20,208615,1,2,0:0:0:0:
36,120,208789,1,0,0:1:0:0:
36,120,208962,1,0,0:1:0:0:
116,224,209136,1,0,0:0:0:0:
116,224,209309,2,0,L|216:284,1,110,2|0,0:0|0:0,0:0:0:0:
336,328,209656,6,0,L|440:280,1,110,4|0,0:3|0:0,0:0:0:0:
456,152,210002,2,0,L|352:196,1,110,2|0,0:0|0:0,0:0:0:0:
248,116,210350,2,4,L|352:72,2,110,0|0|2,0:1|0:1|0:0,0:0:0:0:
128,168,210870,1,0,0:0:0:0:
32,296,211043,2,0,L|132:252,1,110
252,200,211390,1,2,0:0:0:0:
384,184,211563,1,0,0:0:0:0:
504,236,211737,2,0,L|392:256,1,110
395,255,212083,2,0,L|352:148,1,110,2|0,0:0|0:0,0:0:0:0:
316,24,212430,5,4,0:3:0:0:
460,80,212604,1,0,0:0:0:0:
316,136,212777,1,2,0:0:0:0:
460,188,212950,1,0,0:0:0:0:
316,244,213124,2,0,L|416:296,2,110,0|0|2,0:1|0:1|0:0,0:0:0:0:
316,244,213644,1,0,0:0:0:0:
176,312,213818,1,0,0:1:0:0:
40,240,213991,1,0,0:1:0:0:
176,168,214165,1,2,0:0:0:0:
176,168,214338,2,0,L|296:108,2,131.99999597168,0|0|2,0:0|0:0|0:0,0:0:0:0:
176,168,214858,1,0,0:1:0:0:
40,240,215032,1,0,0:1:0:0:
176,312,215205,6,0,L|292:312,1,110,4|0,0:3|0:0,0:0:0:0:
440,312,215552,2,0,L|400:208,1,110,0|0,0:0|0:0,0:0:0:0:
348,64,215899,1,0,0:0:0:0:
400,208,216072,1,0,0:0:0:0:
264,136,216245,1,0,0:0:0:0:
40,348,216592,2,0,L|44:232,1,110
48,68,216939,2,0,L|136:136,1,110
264,224,217286,1,0,0:0:0:0:
136,136,217459,1,0,0:0:0:0:
288,144,217633,1,0,0:0:0:0:
136,136,217806,1,0,0:0:0:0:
276,72,217979,6,0,L|384:40,1,110,0|0,0:0|0:0,0:0:0:0:
492,112,218326,2,0,L|380:144,1,110
240,188,218673,1,0,0:0:0:0:
92,232,218847,1,0,0:0:0:0:
240,188,219020,1,0,0:0:0:0:
480,256,219367,2,0,L|380:300,1,110
232,344,219713,2,0,L|120:344,1,110
122,344,220061,1,0,0:0:0:0:
188,228,220234,1,0,0:0:0:0:
320,228,220407,1,0,0:0:0:0:
392,340,220581,1,0,0:0:0:0:
260,352,220754,6,0,L|356:280,1,110
260,352,221101,2,0,L|164:292,1,110
36,292,221448,1,0,0:0:0:0:
168,292,221621,1,0,0:0:0:0:
100,180,221795,1,0,0:0:0:0:
168,292,221968,1,0,0:0:0:0:
240,180,222141,1,0,0:0:0:0:
36,292,222488,1,0,0:0:0:0:
240,180,222835,1,8,0:3:0:0:
328,80,223009,1,0,0:0:0:0:
240,180,223182,1,8,0:3:0:0:
316,244,223355,1,0,0:0:0:0:
308,268,223442,1,0,0:0:0:0:
296,293,223528,5,0,0:0:0:0:
279,315,223615,1,0,0:0:0:0:
258,333,223702,1,0,0:0:0:0:
233,346,223788,1,0,0:0:0:0:
206,352,223875,1,8,0:3:0:0:
178,353,223962,1,0,0:0:0:0:
150,347,224048,1,0,0:0:0:0:
125,336,224135,1,0,0:0:0:0:
103,319,224222,1,0,0:0:0:0:
85,297,224309,1,0,0:0:0:0:
72,272,224395,1,0,0:0:0:0:
65,245,224482,1,0,0:0:0:0:
64,212,224569,2,0,L|96:160,11,55,0|0|0|0|0|0|0|0|8|0|0|0,0:0|0:0|0:0|0:0|0:0|0:0|0:0|0:0|0:3|0:0|0:0|0:0,0:0:0:0:
116,144,225609,1,0,0:0:0:0:
142,127,225696,1,0,0:0:0:0:
172,116,225783,1,0,0:0:0:0:
204,112,225869,1,0,0:0:0:0:
236,115,225956,1,8,0:3:0:0:
428,88,226303,5,4,0:3:0:0:
256,228,226650,1,0,0:0:0:0:
452,328,226997,1,8,0:1:0:0:
60,328,227344,1,0,0:0:0:0:
256,228,227691,1,0,0:0:0:0:
84,88,228038,1,8,0:1:0:0:
336,80,228384,1,0,0:0:0:0:
436,124,228557,1,0,0:0:0:0:
344,188,228731,1,8,0:1:0:0:
68,264,229078,1,0,0:0:0:0:
328,300,229424,1,0,0:0:0:0:
404,76,229771,1,8,0:3:0:0:
328,300,230118,1,0,0:0:0:0:
140,140,230465,5,4,0:3:0:0:
404,156,230812,1,2,0:2:0:0:
224,128,231159,1,0,0:0:0:0:
257,114,231245,1,0,0:0:0:0:
292,110,231332,1,0,0:0:0:0:
328,118,231419,1,0,0:0:0:0:
359,134,231505,1,2,0:2:0:0:
480,256,231852,1,0,0:0:0:0:
224,328,232199,1,2,0:2:0:0:
64,116,232546,1,0,0:0:0:0:
132,28,232719,1,0,0:0:0:0:
184,124,232893,1,2,0:2:0:0:
372,236,233239,1,0,0:0:0:0:
464,72,233586,1,2,0:2:0:0:
320,336,233933,1,0,0:0:0:0:
287,320,234019,1,0,0:0:0:0:
264,293,234106,1,0,0:0:0:0:
253,259,234193,1,0,0:0:0:0:
256,223,234279,1,4,0:2:0:0:
424,40,234627,5,0,0:0:0:0:
396,35,234713,1,0,0:0:0:0:
368,32,234800,1,0,0:0:0:0:
340,31,234887,1,0,0:0:0:0:
312,32,234973,1,8,0:3:0:0:
284,34,235060,1,0,0:0:0:0:
257,39,235147,1,8,0:1:0:0:
230,46,235233,1,0,0:0:0:0:
203,56,235320,1,0,0:0:0:0:
178,69,235407,1,0,0:0:0:0:
155,84,235494,1,8,0:3:0:0:
133,102,235580,1,0,0:0:0:0:
116,128,235667,2,8,L|104:184,11,55,0|0|0|0|0|0|8|0|4|0|4|0,0:0|0:0|0:0|0:0|0:0|0:0|0:1|0:0|0:3|0:0|0:3|0:0,0:3:0:0:
102,205,236708,5,0,0:0:0:0:
100,232,236794,1,0,0:0:0:0:
103,260,236881,1,0,0:0:0:0:
110,287,236968,1,0,0:0:0:0:
122,313,237054,1,8,0:3:0:0:
139,335,237141,1,0,0:0:0:0:
164,348,237228,1,8,0:3:0:0:
188,360,237314,1,0,0:0:0:0:
216,364,237401,1,0,0:0:0:0:
244,368,237488,1,0,0:0:0:0:
272,368,237575,1,8,0:3:0:0:
300,364,237661,1,0,0:0:0:0:
328,360,237748,2,0,L|380:344,11,55,8|0|0|0|0|0|8|0|4|0|4|0,0:3|0:0|0:0|0:0|0:0|0:0|0:1|0:0|0:3|0:0|0:3|0:0,0:0:0:0:
408,332,238789,5,0,0:0:0:0:
433,321,238875,1,0,0:0:0:0:
455,304,238962,1,0,0:0:0:0:
472,282,239049,1,0,0:0:0:0:
485,257,239135,1,4,0:3:0:0:
493,230,239222,1,0,0:0:0:0:
496,202,239309,1,4,0:3:0:0:
495,174,239395,1,0,0:0:0:0:
491,147,239482,1,0,0:0:0:0:
482,120,239569,1,0,0:0:0:0:
469,95,239656,1,4,0:3:0:0:
452,73,239742,1,0,0:0:0:0:
432,56,239829,2,4,L|364:20,11,55,0|0|0|0|0|0|4|0|8|0|0|0,0:0|0:0|0:0|0:0|0:0|0:0|0:3|0:0|0:3|0:0|0:0|0:0,0:3:0:0:
340,32,240870,5,4,0:2:0:0:
244,88,241043,1,4,0:2:0:0:
340,144,241216,1,4,0:2:0:0:
128,200,241563,1,4,0:2:0:0:
336,268,241910,1,4,0:3:0:0:
