osu file format v12

[General]
AudioFilename: Throve Keys.mp3
AudioLeadIn: 0
PreviewTime: 60510
Countdown: 0
SampleSet: Soft
StackLeniency: 0.7
Mode: 0
LetterboxInBreaks: 0
EpilepsyWarning: 1
WidescreenStoryboard: 0

[Editor]
DistanceSpacing: 1.4
BeatDivisor: 4
GridSize: 4
TimelineZoom: 1

[Metadata]
Title:Throve Keys
TitleUnicode:Throve Keys
Artist:Foreground Eclipse
ArtistUnicode:Foreground Eclipse
Creator:Alternative
Version:Hard
Source:
Tags:Merami teto suzuori keeeeeeko Missing,Loving...and Suffering EP M3-23 emotional BluOxy
BeatmapID:354089
BeatmapSetID:142092

[Difficulty]
HPDrainRate:5
CircleSize:4
OverallDifficulty:6
ApproachRate:8
SliderMultiplier:1.42
SliderTickRate:1

[Events]
//Background and Video events
0,0,"rika1.jpg",0,0
//Break Periods
2,57924,59832
2,118496,126689
//Storyboard Layer 0 (Background)
//Storyboard Layer 1 (Fail)
//Storyboard Layer 2 (Pass)
//Storyboard Layer 3 (Foreground)
//Storyboard Sound Samples
//Background Colour Transformations
3,100,163,162,255

[TimingPoints]
8582,285.714285714286,4,2,1,25,1,0
9724,-200,4,2,2,30,0,0
17653,-200,4,2,3,40,0,0
17796,-200,4,2,2,40,0,0
18796,-200,4,3,2,40,0,0
19939,-200,4,3,2,15,0,0
20010,-100,4,2,1,60,0,1
20082,-100,4,2,1,60,0,0
24010,-100,4,3,1,60,0,0
24582,-100,4,2,1,60,0,0
28510,-100,4,3,2,60,0,0
28653,-100,4,2,1,60,0,0
29010,-100,4,2,1,60,0,1
29082,-100,4,2,1,60,0,0
33367,-100,4,2,2,60,0,0
33510,-100,4,2,1,60,0,0
35439,-166.666666666667,4,2,2,40,0,0
35653,-166.666666666667,4,2,2,15,0,0
35724,-166.666666666667,4,2,2,40,0,0
35867,-166.666666666667,4,2,1,50,0,0
36010,-111.111111111111,4,2,1,60,0,0
38296,-133.333333333333,4,3,2,45,0,0
46296,-133.333333333333,4,2,1,45,0,0
47439,-111.111111111111,4,2,1,50,0,0
48224,-111.111111111111,4,2,1,30,0,0
48367,-111.111111111111,4,2,1,50,0,0
50510,-111.111111111111,4,2,1,30,0,0
50653,-111.111111111111,4,2,1,50,0,0
51439,-111.111111111111,4,3,1,50,0,0
52010,-111.111111111111,4,2,1,50,0,0
57653,-111.111111111111,4,2,1,15,0,0
57796,-111.111111111111,4,2,1,50,0,0
60582,-125,4,2,1,50,0,0
61153,-99.9999999999999,4,2,1,60,0,0
61439,-99.9999999999999,4,2,1,60,0,1
62939,-99.9999999999999,4,1,2,60,0,1
63082,-99.9999999999999,4,2,1,60,0,1
70296,-99.9999999999999,4,2,1,60,0,0
70582,-99.9999999999999,4,2,1,60,0,1
71082,-99.9999999999999,4,2,2,60,0,1
71224,-99.9999999999999,4,2,1,60,0,1
75653,-99.9999999999999,4,2,2,60,0,1
75796,-99.9999999999999,4,2,1,60,0,1
79439,-142.857142857143,4,2,2,40,0,0
81153,-142.857142857143,4,2,1,40,0,0
81724,-125,4,2,1,45,0,0
83439,-125,4,1,1,45,0,0
83724,-125,4,2,1,45,0,0
88010,-125,4,1,1,45,0,0
88296,-125,4,2,1,55,0,0
88582,-125,4,2,1,45,0,0
90439,-166.666666666667,4,2,1,45,0,0
90653,-166.666666666667,4,2,1,5,0,0
90796,-133.333333333333,4,2,1,15,0,0
90867,-111.111111111111,4,2,1,50,0,0
92582,-111.111111111111,4,1,1,50,0,0
92867,-111.111111111111,4,2,1,50,0,0
94867,-111.111111111111,4,1,1,50,0,0
95153,-111.111111111111,4,2,1,50,0,0
97153,-111.111111111111,4,1,1,50,0,0
97439,-111.111111111111,4,2,1,50,0,0
99296,-111.111111111111,4,2,1,30,0,0
99439,-111.111111111111,4,2,1,50,0,0
99582,-111.111111111111,4,2,1,30,0,0
99724,-111.111111111111,4,2,1,50,0,0
99867,-111.111111111111,4,2,1,30,0,0
100010,-133.333333333333,4,2,1,50,0,0
118296,-166.666666666666,4,2,1,50,0,0
127439,-142.857142857143,4,2,1,40,0,0
136582,-117.647058823529,4,2,1,50,0,0
146010,-100,4,2,1,60,0,1
154224,-100,4,2,2,60,0,1
154510,-100,4,2,1,60,0,1
154867,-100,4,2,1,60,0,0
155653,-100,4,2,2,60,0,0
155796,-100,4,2,1,60,0,0
158867,-100,4,3,1,60,0,0
159439,-100,4,2,1,60,0,0
162510,-100,4,2,2,60,0,0
162653,-100,4,2,1,60,0,0
170296,-133.333333333333,4,2,2,35,0,0
170510,-133.333333333333,4,2,2,15,0,0
170582,-133.333333333333,4,2,2,35,0,0
170796,-133.333333333333,4,2,2,15,0,0
170867,-100,4,2,1,60,0,0
173153,-100,4,2,1,60,0,0
174296,-100,4,2,1,50,0,0
175439,-100,4,2,1,40,0,0
176582,-100,4,2,1,30,0,0
177724,-100,4,2,1,20,0,0
178867,-100,4,2,1,10,0,0
179939,-100,4,2,1,5,0,0

[Colours]
Combo1 : 192,192,192
Combo2 : 0,255,128
Combo3 : 0,255,255
Combo4 : 255,128,255
Combo5 : 255,255,128

[HitObjects]
256,264,9724,6,0,L|256:120,1,142
152,24,10867,6,0,P|132:52|124:88,1,71,4|0,0:0|0:0,0:0:0:0:
116,192,11439,2,0,L|116:268,1,71,2|0,0:0|0:0,0:0:0:0:
116,312,11867,2,0,P|164:336|216:344,1,106.5,2|0,0:0|0:0,0:0:0:0:
344,336,12581,1,2,0:0:0:0:
344,336,12724,1,0,0:0:0:0:
420,236,13010,1,0,0:0:0:0:
420,236,13153,6,0,L|420:88,1,142,2|0,0:0|0:0,0:0:0:0:
336,40,14010,1,0,0:0:0:0:
256,96,14296,2,0,L|256:244,1,142,2|2,0:0|0:0,0:0:0:0:
256,238,15439,6,0,P|232:304|168:332,1,142,2|2,0:0|0:0,0:0:0:0:
120,140,16582,2,0,L|120:60,2,71,2|0|2,0:0|0:0|0:0,0:0:0:0:
120,140,17724,1,2,0:0:0:0:
256,192,17796,12,2,18867,0:0:0:0:
256,192,19153,6,0,L|256:272,2,71,2|2|10,0:0|0:0|0:0,0:0:0:0:
256,48,20010,6,0,P|220:40|184:48,1,71,4|0,1:2|1:0,0:0:0:0:
124,84,20296,2,0,L|124:160,1,71,10|0,0:1|1:0,0:0:0:0:
124,228,20582,1,10,0:1:0:0:
184,268,20724,1,0,1:0:0:0:
192,272,21010,6,0,L|344:272,1,142,10|0,0:1|1:0,0:0:0:0:
420,264,21439,2,0,P|448:236|452:204,1,71,10|0,0:1|0:0,0:0:0:0:
440,120,21724,1,2,1:0:0:0:
360,156,21867,1,0,1:0:0:0:
288,112,22010,1,12,0:1:0:0:
156,224,22296,6,0,P|148:188|152:152,1,71,2|0,1:2|1:0,0:0:0:0:
180,72,22582,1,10,0:1:0:0:
256,32,22724,1,0,1:0:0:0:
288,112,22867,2,0,P|324:116|360:112,1,71,10|0,0:1|1:0,0:0:0:0:
358,112,23296,6,0,P|394:172|394:248,1,142,10|0,0:1|1:0,0:0:0:0:
368,324,23724,2,0,P|344:352|312:364,1,71,10|0,0:1|0:0,0:0:0:0:
228,368,24010,2,0,L|168:368,3,35.5,8|8|8|8,0:2|0:2|0:2|0:2,0:0:0:0:
160,340,24296,2,0,L|136:308,3,35.5,8|8|4|4,0:0|0:0|0:0|0:0,0:0:0:0:
132,268,24582,6,0,L|132:180,1,71,4|0,1:2|1:0,0:0:0:0:
204,120,24867,2,0,L|204:208,1,71,12|0,0:1|1:0,0:0:0:0:
220,296,25153,2,0,P|256:300|292:296,2,71,12|0|0,0:1|1:0|0:0,0:0:0:0:
132,268,25582,6,0,P|84:220|68:148,1,142,10|0,0:1|1:0,0:0:0:0:
124,76,26010,1,10,0:1:0:0:
124,76,26153,1,0,0:0:0:0:
204,120,26296,1,2,1:0:0:0:
204,120,26439,1,0,1:0:0:0:
296,120,26582,2,0,L|376:120,1,71,12|0,0:1|0:0,0:0:0:0:
456,88,26867,6,0,P|464:124|456:160,1,71,4|0,1:2|1:0,0:0:0:0:
416,232,27153,1,10,0:0:0:0:
340,268,27296,1,0,1:0:0:0:
256,268,27439,2,0,L|172:268,2,71,10|0|0,0:0|1:0|0:0,0:0:0:0:
340,268,27867,6,0,B|352:232|324:160|340:128,1,142,10|0,0:1|1:0,0:0:0:0:
396,64,28296,1,10,0:1:0:0:
396,64,28439,1,8,0:3:0:0:
452,128,28582,1,8,2:3:0:0:
460,136,29010,6,0,L|460:300,1,142,4|0,1:2|1:0,0:0:0:0:
396,332,29439,1,10,0:1:0:0:
340,268,29582,1,0,1:0:0:0:
340,184,29724,2,0,P|316:156|284:144,1,71,2|0,1:0|1:0,0:0:0:0:
200,140,30010,1,10,0:1:0:0:
132,192,30153,1,0,0:0:0:0:
128,276,30296,6,0,L|128:360,1,71,2|0,1:2|1:0,0:0:0:0:
28,312,30582,2,0,L|28:228,1,71,10|8,0:1|0:1,0:0:0:0:
52,160,30867,2,0,L|52:108,4,35.5,2|0|8|8|8,1:0|1:0|0:0|0:0|0:0,0:0:0:0:
132,192,31296,1,0,1:0:0:0:
200,140,31439,5,2,1:2:0:0:
200,140,31582,1,0,1:0:0:0:
284,140,31724,2,0,L|364:140,1,71,10|0,0:1|0:0,0:0:0:0:
428,96,32010,2,0,L|428:16,2,71,2|0|10,1:0|1:0|0:1,0:0:0:0:
456,176,32439,1,0,0:0:0:0:
428,256,32582,6,0,P|404:284|372:296,1,71,2|0,1:2|0:0,0:0:0:0:
344,216,32867,2,0,P|311:228|288:255,1,71,10|0,0:1|0:0,0:0:0:0:
256,332,33153,1,8,3:1:0:0:
256,332,33296,1,8,3:3:0:0:
200,268,33439,1,8,2:3:0:0:
200,268,33582,1,4,3:3:0:0:
152,336,33724,6,0,P|124:308|116:276,1,71,4|0,1:2|1:0,0:0:0:0:
116,192,34010,1,10,0:1:0:0:
180,136,34153,1,0,0:0:0:0:
264,120,34296,2,0,L|344:120,1,71,2|0,1:0|1:0,0:0:0:0:
416,192,34582,2,0,L|332:192,1,71,10|0,0:1|0:0,0:0:0:0:
256,192,34867,5,8,0:2:0:0:
200,268,35010,1,0,1:0:0:0:
256,344,35153,1,10,0:2:0:0:
256,344,35439,6,0,L|184:344,1,63.8999980499268,2|0,0:0|0:0,0:0:0:0:
148,340,35724,2,0,L|104:300,1,42.5999986999512,2|10,0:0|0:0,0:0:0:0:
64,256,36010,6,0,P|52:224|52:192,1,63.8999980499268,4|0,1:1|0:0,0:0:0:0:
100,120,36296,2,0,P|132:108|164:108,1,63.8999980499268,10|0,0:1|0:0,0:0:0:0:
252,116,36582,1,2,1:0:0:0:
296,192,36724,1,0,1:0:0:0:
296,280,36867,2,0,P|296:313|308:348,1,63.8999980499268,10|0,0:1|0:0,0:0:0:0:
384,300,37153,6,8,L|384:248,3,31.9499990249634,8|8|8|8,0:0|0:0|0:0|0:0,0:0:0:0:
384,236,37439,2,0,L|384:200,3,31.9499990249634,8|0|0|0,0:0|0:0|0:0|0:0,0:0:0:0:
384,172,37724,1,8,0:3:0:0:
384,172,37867,1,8,0:3:0:0:
256,76,38296,6,0,P|200:72|148:76,1,106.500004062653,4|0,1:2|0:0,0:0:0:0:
92,164,38867,2,0,P|148:168|200:164,1,106.500004062653,8|0,0:2|0:0,0:0:0:0:
304,152,39439,5,0,0:0:0:0:
304,152,39724,1,0,0:0:0:0:
364,240,40010,2,0,L|364:352,1,106.500004062653,8|0,0:2|0:0,0:0:0:0:
256,360,40582,6,0,P|228:364|204:360,1,53.2500020313264,4|0,0:0|1:0,0:0:0:0:
136,344,40867,1,0,0:0:0:0:
96,244,41153,2,0,L|96:120,1,106.500004062653,8|0,0:2|0:0,0:0:0:0:
144,44,41724,6,0,P|172:40|200:44,1,53.2500020313264,4|0,0:0|1:0,0:0:0:0:
332,76,42153,1,0,1:0:0:0:
332,76,42439,2,0,L|332:152,1,53.2500020313264,0|4,1:0|0:0,0:0:0:0:
332,236,42867,6,0,L|332:296,2,53.2500020313264,4|0|0,0:0|1:0|0:0,0:0:0:0:
256,160,43439,2,0,P|204:148|152:160,1,106.500004062653,8|0,0:2|0:0,0:0:0:0:
204,252,44010,5,0,0:0:0:0:
204,252,44296,1,0,0:0:0:0:
312,252,44582,2,0,P|352:216|372:168,1,106.500004062653,8|0,0:2|0:0,0:0:0:0:
308,80,45153,6,0,P|280:76|256:80,1,53.2500020313264,4|0,0:0|1:0,0:0:0:0:
192,108,45439,1,0,0:0:0:0:
192,108,45724,2,0,L|192:236,1,106.500004062653,8|0,0:2|0:0,0:0:0:0:
176,352,46296,6,0,B|208:356|250:336|283:340,1,106.500004062653,8|4,0:3|0:3,0:0:0:0:
420,356,46867,1,8,0:0:0:0:
420,356,47010,1,8,0:0:0:0:
484,116,47439,6,0,P|420:104|356:116,1,127.799996099854,4|8,1:2|0:0,0:0:0:0:
288,148,47867,1,0,1:0:0:0:
256,220,48010,2,0,L|256:308,2,63.8999980499268,8|0|0,0:0|1:0|0:0,0:0:0:0:
184,192,48439,6,0,B|144:168|136:128|88:108,1,127.799996099854,8|0,0:0|1:0,0:0:0:0:
16,84,48867,1,8,0:0:0:0:
16,84,49010,1,0,0:0:0:0:
16,160,49153,2,0,L|16:236,1,63.8999980499268,0|0,1:0|1:0,0:0:0:0:
40,296,49439,2,0,P|72:304|104:296,1,63.8999980499268,8|0,0:0|0:0,0:0:0:0:
176,276,49724,5,0,1:0:0:0:
244,236,49867,1,0,0:0:0:0:
256,160,50010,2,0,L|256:92,1,63.8999980499268,8|0,0:0|1:0,0:0:0:0:
312,36,50296,2,0,P|344:36|376:48,2,63.8999980499268,8|0|0,0:0|1:0|0:0,0:0:0:0:
204,36,50724,6,0,P|140:40|84:72,1,127.799996099854,8|0,0:0|1:0,0:0:0:0:
40,132,51153,1,8,0:0:0:0:
40,132,51439,2,0,L|40:184,3,31.9499990249634,8|8|8|8,3:2|0:2|0:2|0:2,0:0:0:0:
40,196,51724,2,0,L|68:244,3,31.9499990249634,8|8|4|4,0:0|0:0|0:0|0:0,0:0:0:0:
76,252,52010,6,0,L|148:252,1,63.8999980499268,4|0,1:2|1:0,0:0:0:0:
216,252,52296,1,8,0:0:0:0:
256,188,52439,1,0,1:0:0:0:
256,112,52582,2,0,L|256:40,1,63.8999980499268,8|0,0:0|1:0,0:0:0:0:
384,192,53010,6,0,L|384:324,1,127.799996099854,8|0,0:0|1:0,0:0:0:0:
320,376,53439,1,8,0:0:0:0:
256,324,53582,1,0,0:0:0:0:
216,252,53724,2,0,P|184:244|152:252,1,63.8999980499268,0|0,1:0|1:0,0:0:0:0:
76,280,54010,2,0,P|69:249|77:218,1,63.8999980499268,8|0,0:0|0:0,0:0:0:0:
116,152,54296,5,0,1:0:0:0:
180,112,54439,1,0,1:0:0:0:
256,104,54582,2,0,L|340:104,1,63.8999980499268,8|0,0:0|1:0,0:0:0:0:
396,104,54867,2,0,L|464:136,1,63.8999980499268,8|0,0:0|1:0,0:0:0:0:
432,296,55296,6,0,P|368:296|308:272,1,127.799996099854,8|0,0:0|1:0,0:0:0:0:
256,216,55724,1,10,0:0:0:0:
256,140,55867,1,0,0:0:0:0:
256,64,56010,2,0,L|256:12,4,31.9499990249634,8|8|8|8|8,0:0|0:0|0:0|0:0|0:0,0:0:0:0:
256,216,56582,1,4,0:0:0:0:
256,192,56653,12,0,57724,0:0:0:0:
256,192,60582,6,0,L|256:224,3,28.4,0|0|0|0,1:0|1:0|1:0|1:0,0:0:0:0:
256,248,60867,2,0,L|256:320,1,56.8,8|0,0:1|0:0,0:0:0:0:
312,348,61153,6,0,P|348:356|384:348,1,71,2|0,1:2|0:0,0:0:0:0:
348,272,61439,5,4,1:1:0:0:
348,272,61582,1,0,0:0:0:0:
348,188,61724,2,0,L|348:104,2,71,10|0|2,0:1|0:0|1:0,0:0:0:0:
276,232,62153,1,0,0:0:0:0:
204,276,62296,6,0,P|172:292|136:292,1,71,2|0,1:2|0:0,0:0:0:0:
76,204,62582,2,0,P|108:188|144:188,1,71,0|0,1:0|0:0,0:0:0:0:
228,192,62867,1,10,0:2:0:0:
256,112,63010,2,0,P|264:76|256:40,1,71,2|0,0:0|0:0,0:0:0:0:
180,76,63296,1,0,0:0:0:0:
256,112,63439,6,0,P|292:116|328:112,1,71,2|0,1:2|0:0,0:0:0:0:
412,96,63724,1,2,1:0:0:0:
412,96,63867,1,0,0:0:0:0:
468,160,64010,1,10,0:1:0:0:
468,160,64153,1,0,0:0:0:0:
468,244,64296,2,0,L|468:320,1,71,2|0,1:0|0:0,0:0:0:0:
396,364,64582,5,2,1:2:0:0:
396,364,64724,1,0,0:0:0:0:
328,312,64867,2,0,P|292:304|260:312,1,71,2|0,1:0|0:0,0:0:0:0:
192,364,65153,1,10,0:1:0:0:
124,316,65296,2,0,P|104:288|100:252,2,71,0|2|0,0:0|1:0|0:0,0:0:0:0:
188,260,65724,6,0,L|260:232,1,71,4|0,1:2|0:0,0:0:0:0:
340,232,66010,2,0,P|332:196|312:168,1,71,2|0,1:0|0:0,0:0:0:0:
256,104,66296,2,0,P|264:68|284:40,1,71,10|0,0:1|0:0,0:0:0:0:
368,24,66582,1,2,1:0:0:0:
424,88,66724,1,0,0:0:0:0:
448,168,66867,5,2,1:2:0:0:
424,248,67010,2,0,L|464:308,2,71,0|2|0,0:0|1:0|0:0,0:0:0:0:
340,232,67439,1,10,0:1:0:0:
256,232,67582,2,0,L|168:232,2,71,0|2|0,0:0|1:0|0:0,0:0:0:0:
340,232,68010,6,0,P|344:196|336:160,1,71,2|0,1:2|0:0,0:0:0:0:
292,88,68296,2,0,P|256:84|220:92,1,71,2|0,1:0|0:0,0:0:0:0:
180,164,68582,2,0,P|176:200|184:236,1,71,10|0,0:1|0:0,0:0:0:0:
220,312,68867,2,0,P|256:316|292:308,1,71,2|0,1:0|0:0,0:0:0:0:
340,232,69153,6,0,P|376:220|412:224,2,71,2|0|2,1:2|0:0|1:0,0:0:0:0:
290,309,69582,1,0,0:0:0:0:
256,224,69724,2,0,L|256:172,2,35.5,10|0|8,0:1|0:0|0:3,0:0:0:0:
220,312,70010,1,10,1:3:0:0:
168,236,70153,1,4,0:3:0:0:
168,144,70296,2,0,L|168:72,1,71,4|0,1:2|0:0,0:0:0:0:
96,16,70582,6,0,P|80:44|76:84,1,71,2|0,1:0|0:0,0:0:0:0:
72,176,70867,2,0,L|72:256,1,71,10|0,0:1|0:0,0:0:0:0:
72,332,71153,1,2,1:0:0:0:
152,360,71296,1,0,0:0:0:0:
220,312,71439,6,0,P|256:308|292:312,1,71,2|0,1:2|0:0,0:0:0:0:
376,248,71724,2,0,P|341:236|305:231,1,71,2|0,1:0|0:0,0:0:0:0:
220,232,72010,1,10,0:1:0:0:
156,176,72153,2,0,L|156:76,2,71,0|2|0,0:0|1:0|0:0,0:0:0:0:
92,232,72582,6,0,P|68:200|64:164,1,71,2|0,1:2|0:0,0:0:0:0:
72,84,72867,1,2,1:0:0:0:
136,28,73010,1,0,0:0:0:0:
220,28,73153,2,0,L|296:28,1,71,10|0,0:1|0:0,0:0:0:0:
368,104,73439,2,0,L|288:104,1,71,2|0,1:0|0:0,0:0:0:0:
212,104,73724,5,2,1:2:0:0:
140,148,73867,1,0,0:0:0:0:
140,232,74010,2,0,L|140:308,1,71,2|0,1:0|0:0,0:0:0:0:
232,360,74296,2,0,L|232:288,1,71,10|0,0:0|0:0,0:0:0:0:
232,204,74582,1,2,1:0:0:0:
300,156,74724,1,0,0:0:0:0:
368,208,74867,6,0,P|376:244|368:280,1,71,4|0,1:2|0:0,0:0:0:0:
312,344,75153,2,0,P|340:364|376:364,1,71,2|0,1:0|0:0,0:0:0:0:
460,352,75439,1,10,0:1:0:0:
492,272,75582,1,0,0:0:0:0:
492,188,75724,2,0,L|492:100,1,71,2|0,1:0|0:0,0:0:0:0:
436,52,76010,6,0,P|400:44|368:52,1,71,2|0,1:2|0:0,0:0:0:0:
308,116,76296,2,0,P|300:152|308:184,1,71,2|0,1:0|0:0,0:0:0:0:
384,220,76582,2,0,P|364:251|335:268,2,71,10|0|2,0:1|0:0|1:0,0:0:0:0:
436,152,77010,1,0,0:0:0:0:
384,84,77153,6,0,P|364:53|335:36,1,71,2|0,1:2|0:0,0:0:0:0:
248,36,77439,1,2,1:0:0:0:
180,88,77582,1,0,0:0:0:0:
180,172,77724,2,0,P|198:202|227:220,1,71,10|0,0:1|0:0,0:0:0:0:
308,252,78010,2,0,P|289:282|260:300,1,71,2|0,1:0|0:0,0:0:0:0:
176,300,78296,5,2,1:2:0:0:
92,300,78439,2,0,P|60:288|40:256,2,71,8|8|8,0:0|0:0|0:0,0:0:0:0:
156,328,78867,1,8,0:0:0:0:
224,344,79010,1,8,0:0:0:0:
296,348,79153,1,8,0:0:0:0:
364,328,79296,1,8,0:0:0:0:
432,296,79439,6,0,L|432:188,1,99.3999969665528,4|0,0:0|3:0,0:0:0:0:
344,76,80010,2,0,L|344:184,1,99.3999969665528,0|0,0:0|3:0,0:0:0:0:
256,296,80582,2,0,L|256:192,1,99.3999969665528,0|0,0:0|3:0,0:0:0:0:
180,80,81153,6,0,L|180:116,3,24.8499992416382,0|0|0|0,1:0|1:0|1:0|1:0,0:0:0:0:
180,128,81439,2,0,L|180:200,1,49.6999984832764,8|0,0:0|0:0,0:0:0:0:
180,244,81724,6,0,P|176:276|168:300,1,56.8,0|0,1:0|0:0,0:0:0:0:
100,300,82010,2,0,P|88:272|84:244,1,56.8,8|0,0:0|0:0,0:0:0:0:
84,176,82296,1,8,0:0:0:0:
84,176,82439,1,0,1:0:0:0:
84,108,82582,1,0,1:0:0:0:
84,108,82724,1,0,1:0:0:0:
256,72,83010,6,0,L|256:128,1,56.8,0|8,1:0|0:0,0:0:0:0:
256,264,83439,2,0,L|256:316,3,28.4
276,320,83724,2,0,L|304:336,3,28.4,8|8|8|0,0:0|0:0|0:0|0:0,0:0:0:0:
336,340,84010,6,0,L|412:340,1,56.8,0|0,1:0|1:0,0:0:0:0:
456,280,84296,2,0,L|400:256,1,56.8,8|0,0:0|1:0,0:0:0:0:
344,228,84582,1,8,0:0:0:0:
284,196,84724,1,0,1:0:0:0:
224,164,84867,2,0,L|152:128,1,56.8,0|0,1:0|1:0,0:0:0:0:
12,196,85296,6,0,L|64:224,1,56.8,0|8,1:0|0:0,0:0:0:0:
188,276,85724,2,0,L|232:276,3,28.4,8|8|8|8,0:0|0:0|0:0|0:0,0:0:0:0:
252,276,86010,2,0,L|332:276,1,56.8,8|0,0:0|0:0,0:0:0:0:
376,276,86296,5,0,1:0:0:0:
432,240,86439,1,0,1:0:0:0:
452,176,86582,1,8,0:0:0:0:
452,108,86724,1,0,1:0:0:0:
420,48,86867,2,0,P|392:60|380:84,1,56.8,8|0,0:0|0:0,0:0:0:0:
376,168,87153,2,0,P|362:192|336:202,1,56.8,0|0,0:0|1:0,0:0:0:0:
164,192,87582,6,0,P|178:168|204:158,1,56.8,0|8,1:0|0:0,0:0:0:0:
376,168,88010,2,0,L|416:172,3,28.4
440,176,88296,2,0,L|472:188,3,28.4,8|8|8|8,0:0|0:0|0:0|0:0,0:0:0:0:
488,216,88582,6,0,L|488:296,1,56.8,0|0,1:0|1:0,0:0:0:0:
488,340,88867,1,8,0:0:0:0:
488,340,89010,1,0,1:0:0:0:
420,340,89153,2,0,L|336:340,1,56.8,8|0,0:0|1:0,0:0:0:0:
296,340,89439,1,0,1:0:0:0:
296,340,89582,1,0,1:0:0:0:
256,176,89867,6,0,L|256:100,1,56.8,0|8,1:0|0:0,0:0:0:0:
112,28,90296,1,8,0:0:0:0:
112,28,90439,38,0,L|112:136,1,106.499996749878,8|0,0:0|0:0,0:0:0:0:
112,184,90867,6,0,P|140:200|172:200,1,63.8999980499268,4|0,1:1|0:0,0:0:0:0:
256,176,91153,2,0,P|287:176|315:192,1,63.8999980499268,10|0,0:0|0:0,0:0:0:0:
368,248,91439,1,2,1:2:0:0:
368,248,91582,1,0,1:0:0:0:
296,276,91724,2,0,P|265:276|237:260,1,63.8999980499268,10|0,0:0|1:0,0:0:0:0:
180,208,92010,5,2,1:2:0:0:
180,132,92153,1,0,1:0:0:0:
248,92,92296,2,0,P|278:85|309:94,1,63.8999980499268,10|0,0:0|1:0,0:0:0:0:
376,136,92582,2,0,L|416:168,3,31.9499990249634,2|0|0|0,0:2|0:0|0:0|0:0,0:0:0:0:
428,184,92867,2,0,L|428:264,1,63.8999980499268,10|0,0:0|0:0,0:0:0:0:
428,324,93153,5,2,1:2:0:0:
364,368,93296,1,0,1:0:0:0:
288,368,93439,2,0,L|208:368,1,63.8999980499268,10|0,0:0|0:0,0:0:0:0:
148,368,93724,1,2,1:2:0:0:
80,328,93867,1,0,1:0:0:0:
80,252,94010,2,0,L|80:184,1,63.8999980499268,10|0,0:0|1:0,0:0:0:0:
32,128,94296,6,0,P|60:112|96:112,1,63.8999980499268,2|0,1:2|1:0,0:0:0:0:
168,112,94582,2,0,P|199:120|224:145,1,63.8999980499268,10|0,0:0|0:0,0:0:0:0:
256,212,94867,2,0,L|256:264,3,31.9499990249634,2|0|0|0,1:2|0:0|0:0|0:0,0:0:0:0:
256,284,95153,2,0,L|256:368,1,63.8999980499268,10|0,0:0|0:0,0:0:0:0:
332,364,95439,5,2,1:2:0:0:
332,364,95582,1,0,1:0:0:0:
408,348,95724,2,0,L|408:264,1,63.8999980499268,10|0,0:0|0:0,0:0:0:0:
408,208,96010,1,2,1:2:0:0:
376,140,96153,1,0,1:0:0:0:
308,104,96296,2,0,L|224:104,1,63.8999980499268,10|0,0:0|1:0,0:0:0:0:
196,44,96582,6,0,P|176:68|168:104,1,63.8999980499268,2|0,1:2|1:0,0:0:0:0:
164,176,96867,1,10,0:0:0:0:
188,248,97010,1,0,1:0:0:0:
256,284,97153,2,0,L|296:284,3,31.9499990249634,2|0|0|0,0:2|0:0|0:0|0:0,0:0:0:0:
328,284,97439,2,0,L|404:284,1,63.8999980499268,10|0,0:0|0:0,0:0:0:0:
460,316,97724,6,0,P|468:284|460:252,1,63.8999980499268,2|0,1:2|1:0,0:0:0:0:
416,192,98010,2,0,P|408:160|416:128,1,63.8999980499268,10|0,0:0|0:0,0:0:0:0:
440,56,98296,1,2,1:2:0:0:
440,56,98439,1,0,1:0:0:0:
364,56,98582,2,0,L|280:56,1,63.8999980499268,10|0,0:0|1:0,0:0:0:0:
224,56,98867,5,2,1:2:0:0:
160,100,99010,1,0,1:0:0:0:
160,176,99153,2,0,L|160:240,1,63.8999980499268,10|0,0:0|0:0,0:0:0:0:
104,212,99439,2,0,L|104:276,1,63.8999980499268,2|0,1:2|0:0,0:0:0:0:
48,252,99724,2,0,L|48:328,1,63.8999980499268,10|0,0:0|0:0,0:0:0:0:
120,356,100010,6,0,P|172:364|224:356,1,106.500004062653,4|0,1:0|1:0,0:0:0:0:
288,316,100439,1,0,1:0:0:0:
288,316,100582,2,0,L|288:188,1,106.500004062653,10|0,0:0|1:0,0:0:0:0:
288,136,101010,1,0,1:0:0:0:
256,68,101153,6,0,P|284:60|312:64,1,53.2500020313264,2|8,1:2|0:0,0:0:0:0:
380,84,101439,1,0,1:0:0:0:
436,136,101582,2,0,L|436:208,1,53.2500020313264,0|10,1:0|0:0,0:0:0:0:
432,340,102010,1,0,1:0:0:0:
432,340,102153,1,0,1:0:0:0:
356,340,102296,6,0,P|304:336|260:304,1,106.500004062653,4|0,1:0|1:0,0:0:0:0:
256,232,102724,1,0,1:0:0:0:
256,156,102867,2,0,P|213:125|160:121,1,106.500004062653,10|0,0:0|1:0,0:0:0:0:
88,140,103296,1,0,1:0:0:0:
36,192,103439,5,2,1:2:0:0:
44,268,103582,2,0,P|49:295|67:318,1,53.2500020313264,8|0,0:0|1:0,0:0:0:0:
124,364,103867,1,0,1:0:0:0:
180,312,104010,2,0,B|196:284|172:236|184:204,1,106.500004062653,10|0,1:0|1:0,0:0:0:0:
224,144,104439,1,0,1:0:0:0:
256,232,104582,6,0,B|288:224|332:240|364:232,1,106.500004062653,4|0,1:0|1:0,0:0:0:0:
436,216,105010,1,0,1:0:0:0:
444,292,105153,2,0,P|400:328|352:332,1,106.500004062653,10|0,0:0|1:0,0:0:0:0:
280,304,105582,1,0,1:0:0:0:
256,232,105724,6,0,L|256:164,1,53.2500020313264,2|8,1:2|0:0,0:0:0:0:
236,108,106010,1,0,1:0:0:0:
168,72,106153,1,0,1:0:0:0:
108,112,106296,2,0,B|96:148|116:188|104:220,1,106.500004062653,10|0,0:0|1:0,0:0:0:0:
60,276,106724,1,0,1:0:0:0:
104,336,106867,6,0,P|156:348|208:348,1,106.500004062653,4|0,1:0|1:0,0:0:0:0:
284,332,107296,1,0,1:0:0:0:
316,264,107439,2,0,P|328:212|328:160,1,106.500004062653,10|0,0:0|1:0,0:0:0:0:
316,84,107867,1,0,1:0:0:0:
272,24,108010,5,2,1:2:0:0:
208,60,108153,2,0,L|144:60,2,53.2500020313264,8|0|0,0:3|1:0|1:0,0:0:0:0:
256,120,108582,2,0,L|256:192,1,53.2500020313264,8|0,0:3|0:0,0:0:0:0:
188,216,108867,2,0,L|188:144,1,53.2500020313264,4|0,0:3|0:0,0:0:0:0:
152,88,109153,6,0,P|109:119|78:161,1,106.500004062653,4|0,1:0|1:0,0:0:0:0:
132,224,109582,1,0,1:0:0:0:
132,224,109725,2,0,L|260:224,1,106.500004062653,10|0,0:0|1:0,0:0:0:0:
312,224,110153,1,0,1:0:0:0:
380,192,110296,6,0,P|388:220|384:248,1,53.2500020313264,2|8,1:2|0:0,0:0:0:0:
364,316,110582,1,0,1:0:0:0:
304,360,110725,2,0,L|232:360,1,53.2500020313264,0|10,1:0|0:0,0:0:0:0:
100,360,111153,2,0,L|100:300,1,53.2500020313264,0|0,1:0|1:0,0:0:0:0:
100,232,111439,6,0,P|104:180|136:136,1,106.500004062653,4|0,1:0|1:0,0:0:0:0:
200,100,111867,1,0,1:0:0:0:
282,72,112010,2,0,P|278:124|248:168,1,106.500004062653,10|0,0:0|1:0,0:0:0:0:
200,100,112439,1,0,1:0:0:0:
176,28,112582,5,2,1:2:0:0:
128,88,112725,2,0,P|112:111|108:140,1,53.2500020313264,8|0,0:0|1:0,0:0:0:0:
108,212,113010,1,0,1:0:0:0:
140,280,113153,2,0,B|168:296|216:272|248:284,1,106.500004062653,10|0,1:0|1:0,0:0:0:0:
316,308,113582,1,0,1:0:0:0:
384,336,113724,6,0,B|392:304|376:260|384:228,1,106.500004062653,4|0,1:0|1:0,0:0:0:0:
412,160,114153,1,0,1:0:0:0:
448,92,114296,2,0,P|484:136|488:184,1,106.500004062653,10|0,0:0|1:0,0:0:0:0:
460,256,114725,1,0,1:0:0:0:
384,256,114867,6,0,L|316:256,1,53.2500020313264,2|8,1:2|0:0,0:0:0:0:
256,252,115153,1,0,1:0:0:0:
196,204,115296,1,0,1:0:0:0:
196,128,115439,2,0,B|184:92|204:52|192:20,1,106.500004062653,10|0,0:0|1:0,0:0:0:0:
124,48,115867,1,0,1:0:0:0:
120,124,116010,6,0,P|119:177|131:228,1,106.500004062653,4|0,1:0|1:0,0:0:0:0:
164,296,116439,1,0,1:0:0:0:
224,340,116582,2,0,P|276:352|328:352,1,106.500004062653,10|0,0:0|1:0,0:0:0:0:
404,344,117010,1,0,1:0:0:0:
456,292,117153,5,0,1:0:0:0:
456,216,117296,2,0,L|456:152,2,53.2500020313264,8|8|8,0:0|0:0|0:0,0:0:0:0:
388,244,117724,1,8,0:3:0:0:
312,244,117867,1,8,0:3:0:0:
252,200,118010,1,4,0:3:0:0:
232,128,118153,1,4,0:3:0:0:
256,60,118296,1,4,0:1:0:0:
256,140,127439,6,0,P|272:236|340:312,1,198.799993933106,4|2,0:1|0:0,0:0:0:0:
432,340,128296,1,10,0:0:0:0:
460,244,128582,2,0,P|444:148|376:72,1,198.799993933106,2|2,0:0|0:0,0:0:0:0:
284,36,129439,1,10,0:0:0:0:
324,128,129724,6,0,B|260:156|184:120|128:136,1,198.799993933106,4|2,0:1|0:0,0:0:0:0:
44,192,130582,1,10,0:0:0:0:
124,248,130867,2,0,B|188:276|264:240|320:256,1,198.799993933106,2|2,0:0|0:0,0:0:0:0:
416,288,131724,1,10,0:0:0:0:
444,192,132010,6,0,P|440:96|372:24,1,198.799993933106,4|2,0:1|0:0,0:0:0:0:
356,124,132867,1,10,0:0:0:0:
344,224,133153,2,0,P|276:153|272:56,1,198.799993933106,2|2,0:0|0:0,0:0:0:0:
356,124,134010,1,10,0:0:0:0:
344,224,134296,6,0,P|264:284|168:292,1,198.799993933106,2|2,0:0|0:0,0:0:0:0:
72,272,135153,1,10,0:0:0:0:
16,192,135439,1,8,0:0:0:0:
180,80,136010,5,8,0:0:0:0:
180,80,136153,1,8,0:0:0:0:
180,80,136296,1,8,0:3:0:0:
344,240,136582,6,0,L|344:308,1,60.3500011510849,4|0,1:0|0:0,0:0:0:0:
400,356,136868,2,0,P|416:328|420:292,1,60.3500011510849,0|0,1:0|0:0,0:0:0:0:
420,224,137153,2,0,L|420:152,1,60.3500011510849,8|0,0:1|0:0,0:0:0:0:
420,84,137439,1,0,1:0:0:0:
356,36,137582,1,0,0:0:0:0:
288,76,137725,6,0,P|256:80|228:76,1,60.3500011510849,0|8,1:2|0:1,0:0:0:0:
136,136,138010,2,0,P|168:148|196:148,1,60.3500011510849,0|0,1:0|0:0,0:0:0:0:
272,152,138296,1,8,0:1:0:0:
340,192,138439,2,0,L|340:268,2,60.3500011510849,0|0|0,0:0|1:0|0:0,0:0:0:0:
392,132,138868,6,0,P|412:160|416:188,1,60.3500011510849,0|0,1:2|0:0,0:0:0:0:
416,264,139153,1,0,1:0:0:0:
376,332,139296,1,0,0:0:0:0:
296,336,139439,2,0,L|228:336,1,60.3500011510849,8|0,0:1|0:0,0:0:0:0:
172,264,139725,2,0,L|244:264,1,60.3500011510849,0|0,1:0|0:0,0:0:0:0:
304,264,140010,5,8,1:1:0:0:
368,228,140153,1,8,0:1:0:0:
372,156,140296,2,0,L|372:84,1,60.3500011510849,0|0,1:0|0:0,0:0:0:0:
304,36,140582,2,0,L|304:108,1,60.3500011510849,8|0,0:1|0:0,0:0:0:0:
300,176,140868,1,0,1:0:0:0:
232,216,141010,1,0,0:0:0:0:
156,192,141153,6,0,P|148:160|152:132,1,60.3500011510849,0|0,1:2|0:0,0:0:0:0:
204,72,141439,2,0,P|176:56|148:52,1,60.3500011510849,0|0,1:0|0:0,0:0:0:0:
68,44,141725,1,8,0:1:0:0:
24,108,141868,1,0,0:0:0:0:
24,184,142010,2,0,L|24:268,1,60.3500011510849,0|0,1:0|0:0,0:0:0:0:
68,308,142296,6,0,P|96:316|128:308,1,60.3500011510849,0|8,1:2|0:1,0:0:0:0:
184,252,142582,2,0,P|192:220|184:192,1,60.3500011510849,0|0,1:0|0:0,0:0:0:0:
116,160,142868,2,0,P|136:132|160:116,2,60.3500011510849,8|0|0,0:1|0:0|1:0,0:0:0:0:
80,228,143296,1,0,0:0:0:0:
108,300,143439,6,0,P|128:328|156:340,1,60.3500011510849,0|0,1:2|0:0,0:0:0:0:
228,348,143725,1,0,1:0:0:0:
288,296,143868,1,0,0:0:0:0:
300,220,144010,2,0,P|284:192|260:176,1,60.3500011510849,8|0,0:1|0:0,0:0:0:0:
184,160,144296,2,0,P|200:132|220:112,1,60.3500011510849,0|0,1:0|0:0,0:0:0:0:
296,88,144582,5,0,1:2:0:0:
372,100,144724,2,0,P|400:112|420:136,2,60.3500011510849,8|8|8,0:0|0:0|0:0,0:0:0:0:
300,64,145153,1,8,0:0:0:0:
224,52,145296,1,8,0:0:0:0:
148,68,145439,1,8,0:0:0:0:
88,120,145582,1,8,0:0:0:0:
72,196,145724,2,0,P|64:228|72:264,1,60.3500011510849,0|0,1:2|0:0,0:0:0:0:
144,296,146010,5,4,1:1:0:0:
144,296,146153,1,0,0:0:0:0:
228,296,146296,2,0,L|308:324,2,71,2|0|10,1:0|1:0|0:1,0:0:0:0:
188,220,146724,1,0,1:0:0:0:
164,136,146867,6,0,P|148:104|148:68,1,71,2|0,1:2|1:0,0:0:0:0:
244,12,147153,2,0,P|260:44|260:80,1,71,10|0,0:1|0:0,0:0:0:0:
256,164,147438,1,2,1:2:0:0:
336,192,147582,2,0,P|372:200|408:192,1,71,0|10,1:0|0:1,0:0:0:0:
372,116,147867,1,0,1:0:0:0:
336,192,148010,6,0,P|332:228|336:264,1,71,2|0,1:2|1:0,0:0:0:0:
372,340,148295,1,10,0:1:0:0:
372,340,148438,1,0,0:0:0:0:
288,364,148581,1,2,1:0:0:0:
288,364,148724,1,0,1:0:0:0:
212,320,148867,2,0,L|136:320,1,71,10|0,0:1|0:0,0:0:0:0:
56,320,149153,5,2,1:2:0:0:
56,320,149295,1,0,1:0:0:0:
100,248,149439,2,0,P|108:212|100:180,1,71,10|0,0:1|0:0,0:0:0:0:
60,104,149724,1,2,1:1:0:0:
132,56,149867,2,0,P|161:39|198:38,2,71,0|10|0,1:0|0:1|1:0,0:0:0:0:
188,124,150296,6,0,L|216:196,1,71,2|0,1:2|1:0,0:0:0:0:
216,276,150581,2,0,P|252:268|280:248,1,71,10|0,0:1|0:0,0:0:0:0:
344,192,150867,2,0,P|380:200|408:220,1,71,2|0,1:0|1:0,0:0:0:0:
428,304,151153,1,10,0:1:0:0:
364,360,151295,1,0,1:0:0:0:
280,360,151438,5,2,1:2:0:0:
196,360,151581,2,0,L|120:360,2,71,0|10|0,1:0|0:1|0:0,0:0:0:0:
216,276,152010,1,2,1:1:0:0:
216,192,152153,2,0,L|216:104,2,71,0|10|0,1:0|0:1|1:0,0:0:0:0:
216,276,152582,6,0,P|252:280|288:272,1,71,2|0,1:2|1:0,0:0:0:0:
360,228,152867,2,0,P|364:192|356:156,1,71,10|0,0:1|0:0,0:0:0:0:
284,116,153153,2,0,P|248:112|212:120,1,71,2|0,1:0|1:0,0:0:0:0:
136,156,153439,2,0,P|132:192|140:228,1,71,10|0,0:1|0:0,0:0:0:0:
216,276,153724,6,0,P|228:312|224:348,2,71,8|8|4,0:3|0:3|0:3,0:0:0:0:
176,216,154153,1,4,0:3:0:0:
116,176,154296,1,8,2:3:0:0:
48,200,154439,1,8,2:3:0:0:
32,268,154581,1,4,0:3:0:0:
92,308,154724,1,4,0:3:0:0:
160,284,154867,6,0,P|196:292|232:284,1,71,4|0,1:2|1:0,0:0:0:0:
296,264,155153,2,0,L|296:188,1,71,10|0,0:1|1:0,0:0:0:0:
340,136,155439,1,10,0:1:0:0:
280,96,155581,1,0,1:0:0:0:
280,96,155867,6,0,L|128:96,1,142,10|0,0:1|1:0,0:0:0:0:
48,104,156296,2,0,P|20:132|16:164,1,71,10|0,0:1|0:0,0:0:0:0:
28,248,156581,1,2,1:0:0:0:
108,212,156724,1,0,1:0:0:0:
180,256,156867,1,12,0:1:0:0:
312,144,157153,6,0,P|320:180|316:216,1,71,2|0,1:2|1:0,0:0:0:0:
288,296,157439,1,10,0:1:0:0:
212,336,157581,1,0,1:0:0:0:
180,256,157724,2,0,P|144:252|108:256,1,71,10|0,0:1|1:0,0:0:0:0:
110,256,158153,6,0,P|74:196|74:120,1,142,10|0,0:1|1:0,0:0:0:0:
92,56,158581,2,0,P|116:28|148:16,1,71,10|0,0:1|0:0,0:0:0:0:
220,12,158867,2,0,L|280:12,3,35.5,8|8|8|8,0:2|0:2|0:2|0:2,0:0:0:0:
288,24,159153,2,0,L|312:56,3,35.5,8|8|4|4,0:0|0:0|0:3|0:3,0:0:0:0:
328,84,159439,6,0,L|328:172,1,71,4|0,1:2|1:0,0:0:0:0:
272,248,159724,2,0,L|272:160,1,71,12|0,0:1|1:0,0:0:0:0:
248,72,160010,2,0,P|212:68|176:72,2,71,12|0|0,0:1|1:0|0:0,0:0:0:0:
328,84,160439,6,0,P|376:132|392:204,1,142,10|0,0:1|1:0,0:0:0:0:
360,296,160867,1,10,0:1:0:0:
360,296,161010,1,0,0:0:0:0:
272,248,161153,1,2,1:0:0:0:
272,248,161296,1,0,1:0:0:0:
172,248,161439,2,0,L|92:248,1,71,12|0,0:1|0:0,0:0:0:0:
12,280,161724,6,0,P|4:244|12:208,1,71,4|0,1:2|1:0,0:0:0:0:
52,136,162010,1,10,1:0:0:0:
128,100,162153,1,0,1:0:0:0:
212,100,162296,2,0,L|296:100,2,71,10|0|0,1:0|1:0|0:0,0:0:0:0:
128,100,162724,6,0,B|116:136|144:208|128:240,1,142,10|0,0:1|1:0,0:0:0:0:
72,304,163153,1,10,0:1:0:0:
72,304,163296,1,8,0:3:0:0:
16,240,163439,1,8,2:3:0:0:
16,240,163867,6,0,L|16:76,1,142,4|0,1:2|1:0,0:0:0:0:
72,36,164296,1,10,0:1:0:0:
128,100,164439,1,0,1:0:0:0:
128,184,164581,2,0,P|152:212|184:224,1,71,2|0,1:0|1:0,0:0:0:0:
268,228,164867,1,10,0:1:0:0:
336,176,165010,1,0,0:0:0:0:
340,92,165153,6,0,L|340:8,1,71,2|0,1:2|1:0,0:0:0:0:
440,56,165439,2,0,L|440:140,1,71,10|8,0:1|0:1,0:0:0:0:
416,208,165724,2,0,L|416:260,4,35.5,2|0|8|8|8,1:0|1:0|0:0|0:0|0:0,0:0:0:0:
336,176,166153,1,0,1:0:0:0:
268,228,166296,5,2,1:2:0:0:
268,228,166439,1,0,1:0:0:0:
184,228,166581,2,0,L|104:228,1,71,10|0,0:1|0:0,0:0:0:0:
40,272,166867,2,0,L|40:352,2,71,2|0|10,1:0|1:0|0:1,0:0:0:0:
12,192,167296,1,0,0:0:0:0:
40,112,167439,6,0,P|64:84|96:72,1,71,2|0,1:2|0:0,0:0:0:0:
124,152,167724,2,0,P|157:140|180:113,1,71,12|0,0:1|0:0,0:0:0:0:
212,36,168010,1,8,3:0:0:0:
212,36,168153,1,8,3:3:0:0:
268,100,168296,1,4,3:3:0:0:
268,100,168439,1,4,3:3:0:0:
316,32,168581,6,0,P|344:60|352:92,1,71,4|0,1:2|1:0,0:0:0:0:
352,176,168867,1,10,0:1:0:0:
288,232,169010,1,0,0:0:0:0:
204,248,169153,2,0,L|124:248,1,71,2|0,1:0|1:0,0:0:0:0:
52,176,169439,2,0,L|136:176,1,71,10|0,0:1|0:0,0:0:0:0:
212,176,169724,5,8,0:2:0:0:
268,100,169867,1,0,1:0:0:0:
212,24,170010,1,10,0:2:0:0:
212,24,170296,6,0,L|296:24,1,79.8750030469895,2|0,0:0|0:0,0:0:0:0:
324,32,170581,2,0,L|384:84,1,79.8750030469895,2|10,0:0|0:0,0:0:0:0:
404,112,170867,6,0,P|416:144|416:184,1,71,4|0,1:2|0:0,0:0:0:0:
368,248,171153,2,0,P|336:260|300:260,1,71,10|0,0:1|0:0,0:0:0:0:
216,252,171439,1,2,1:0:0:0:
172,176,171581,1,0,1:0:0:0:
172,88,171724,2,0,P|172:55|156:16,1,71,10|0,0:1|0:0,0:0:0:0:
84,68,172010,6,8,L|84:144,1,71,8|8,0:3|0:3,0:0:0:0:
84,212,172296,2,0,L|108:280,1,71,4|4,0:3|0:3,0:0:0:0:
140,340,172582,1,8,0:1:0:0:
208,364,172724,1,8,0:1:0:0:
280,364,172867,1,8,0:1:0:0:
348,344,173010,1,10,0:1:0:0:
388,284,173153,1,12,0:2:0:0:
256,192,173224,12,0,180010,0:0:0:0:
