osu file format v13

[General]
AudioFilename: Foreground Eclipse - Storytellers.mp3
AudioLeadIn: 0
PreviewTime: 74529
Countdown: 0
SampleSet: Soft
StackLeniency: 0.7
Mode: 0
LetterboxInBreaks: 0
WidescreenStoryboard: 0

[Editor]
Bookmarks: 32561,74529,95512,116496,126496,137479,158463,179447
DistanceSpacing: 2
BeatDivisor: 4
GridSize: 4
TimelineZoom: 2.1

[Metadata]
Title:Storytellers
TitleUnicode:Storytellers
Artist:Foreground Eclipse
ArtistUnicode:Foreground Eclipse
Creator:Laurier
Version:Insane
Source:
Tags:
BeatmapID:516052
BeatmapSetID:220512

[Difficulty]
HPDrainRate:7
CircleSize:4
OverallDifficulty:7
ApproachRate:9.3
SliderMultiplier:1.7
SliderTickRate:1

[Events]
//Background and Video events
0,0,"background.jpg",0,0
//Break Periods
//Storyboard Layer 0 (Background)
//Storyboard Layer 1 (Fail)
//Storyboard Layer 2 (Pass)
//Storyboard Layer 3 (Foreground)
//Storyboard Sound Samples

[TimingPoints]
-225,327.868852459016,4,2,0,100,1,0
1086,-142.857142857143,4,2,2,20,0,0
1250,-142.857142857143,4,2,2,30,0,0
10266,-142.857142857143,4,2,1,50,0,0
11250,-111.111111111111,4,2,1,50,0,0
11578,-100,4,2,1,60,0,0
74529,-100,4,2,1,70,0,0
84693,-100,4,2,1,60,0,0
85020,-100,4,2,1,70,0,0
95512,-100,4,2,1,60,0,0
158463,-100,4,2,1,70,0,0
179447,-100,4,2,1,60,0,0
224201,-100,4,2,1,30,0,0
227971,-100,4,2,1,20,0,0
230594,-100,4,2,1,5,0,0

[Colours]
Combo1 : 255,128,255
Combo2 : 147,255,147
Combo3 : 128,255,255
Combo4 : 255,128,64

[HitObjects]
14,154,1086,6,0,P|41:166|70:172,1,59.4999981842042,4|0,0:0|0:0,0:0:0:0:
171,135,1414,2,0,P|200:140|229:140,1,59.4999981842042
328,97,1742,1,0,0:0:0:0:
328,96,1906,2,0,P|387:93|446:87,1,118.999996368408
512,194,2397,6,0,P|452:197|393:203,1,118.999996368408,0|0,0:0|0:0,0:0:0:0:
309,237,2889,2,0,P|290:294|275:352,1,118.999996368408
191,260,3381,2,0,P|193:289|200:318,1,59.4999981842042
309,237,3709,6,0,P|328:180|343:122,2,118.999996368408,0|0|0,0:0|0:0|0:0,0:0:0:0:
231,169,4529,2,0,P|171:173|112:172,1,118.999996368408
44,62,5020,6,0,P|103:57|162:58,1,118.999996368408
230,168,5512,2,0,P|215:226|197:283,1,118.999996368408,0|0,0:0|0:0,0:0:0:0:
88,349,6004,2,0,P|78:321|73:291,1,59.4999981842042
76,164,6332,6,0,P|102:176|126:194,1,59.4999981842042,0|0,0:0|0:0,0:0:0:0:
198,284,6660,2,0,P|224:271|248:253,1,59.4999981842042,0|0,0:0|0:0,0:0:0:0:
344,192,6988,1,0,0:0:0:0:
344,191,7152,2,0,P|353:132|356:72,1,118.999996368408
235,0,7643,6,0,P|225:58|222:118,1,118.999996368408
345,191,8135,2,0,P|342:251|333:310,1,118.999996368408
245,383,8627,1,0,0:0:0:0:
245,383,8955,6,0,P|186:383|118:378,2,118.999996368408,0|0|0,0:0|0:0|0:0,0:0:0:0:
333,312,9774,2,0,P|392:304|451:299,1,118.999996368408
443,185,10266,6,0,P|428:158|422:129,1,59.4999981842042,8|2,0:0|0:0,0:0:0:0:
375,65,10512,1,2,0:0:0:0:
375,65,10594,2,0,P|359:90|337:110,1,59.4999981842042,8|2,0:0|0:0,0:0:0:0:
306,181,10840,1,2,0:0:0:0:
306,181,10922,2,0,P|335:181|363:190,1,59.4999981842042,8|2,0:0|0:0,0:0:0:0:
443,185,11168,1,2,0:0:0:0:
443,185,11250,2,0,P|448:240|449:309,1,114.749996498108,12|0,0:0|0:0,0:0:0:0:
381,346,11578,6,0,P|341:360|299:365,1,85,6|0,0:0|0:0,0:0:0:0:
120,258,11906,2,0,P|160:243|202:238,1,85,8|0,0:0|0:0,0:0:0:0:
361,269,12234,1,2,0:0:0:0:
257,146,12397,1,2,0:0:0:0:
121,258,12561,1,8,0:0:0:0:
284,384,12725,6,0,P|286:300|282:215,1,170,6|2,0:0|0:0,0:0:0:0:
256,53,13217,1,8,0:0:0:0:
172,193,13381,2,0,P|87:189|2:178,1,170,6|2,0:0|0:0,0:0:0:0:
172,49,13873,2,0,P|214:48|256:52,1,85,8|0,0:0|0:0,0:0:0:0:
452,145,14201,6,0,P|472:223|413:278,2,170,6|8|2,0:0|0:0|0:0,0:0:0:0:
332,83,15020,1,2,0:0:0:0:
310,309,15184,1,8,0:0:0:0:
400,198,15348,6,0,P|318:192|230:189,1,170,6|2,0:0|0:0,0:0:0:0:
83,192,15840,1,8,0:0:0:0:
16,359,16004,2,0,P|100:356|185:350,1,170,6|2,0:0|0:0,0:0:0:0:
315,192,16496,1,8,0:0:0:0:
395,301,16660,1,0,0:0:0:0:
187,351,16824,6,0,P|182:308|181:266,1,85,6|0,0:0|0:0,0:0:0:0:
314,192,17152,2,0,P|317:128|305:65,1,127.5,8|0,0:0|0:0,0:0:0:0:
293,25,17479,1,2,0:0:0:0:
202,137,17643,1,2,0:0:0:0:
410,211,17807,1,8,0:0:0:0:
463,36,17971,6,0,P|378:26|293:25,1,170,6|2,0:0|0:0,0:0:0:0:
127,67,18463,1,8,0:0:0:0:
162,247,18627,2,0,P|224:252|280:219,1,127.5,6|0,0:0|0:0,0:0:0:0:
315,192,18955,1,2,0:0:0:0:
241,35,19119,2,0,L|234:119,1,85,8|0,0:0|0:0,0:0:0:0:
312,361,19447,6,0,P|250:345|188:358,1,127.5,6|0,0:0|0:0,0:0:0:0:
112,358,19774,2,0,P|77:333|56:296,1,85,8|0,0:0|0:0,0:0:0:0:
127,68,20102,1,2,0:0:0:0:
154,192,20266,1,2,0:0:0:0:
0,149,20430,1,8,0:0:0:0:
177,85,20594,6,0,P|187:168|162:249,1,170,6|2,0:0|0:0,0:0:0:0:
81,349,21086,1,8,0:0:0:0:
241,331,21250,2,0,P|305:323|369:317,1,127.5,6|0,0:0|0:0,0:0:0:0:
407,333,21578,1,2,0:0:0:0:
339,118,21742,1,8,0:0:0:0:
287,234,21906,1,8,0:0:0:0:
484,175,22070,6,0,P|490:133|491:90,1,85,6|0,0:0|0:0,0:0:0:0:
347,34,22397,2,0,P|340:75|339:118,1,85,8|0,0:0|0:0,0:0:0:0:
407,333,22725,1,2,0:0:0:0:
505,251,22889,1,2,0:0:0:0:
339,118,23053,1,8,0:0:0:0:
202,231,23217,6,0,P|287:233|372:224,1,170,6|2,0:0|0:0,0:0:0:0:
504,147,23709,1,8,0:0:0:0:
403,31,23873,2,0,P|340:19|281:40,1,127.5,6|0,0:0|0:0,0:0:0:0:
253,72,24201,1,2,0:0:0:0:
299,234,24365,2,0,P|283:273|261:309,1,85,8|0,0:0|0:0,0:0:0:0:
60,275,24693,6,0,P|49:191|44:106,2,170,6|8|2,0:0|0:0|0:0,0:0:0:0:
175,363,25512,1,2,0:0:0:0:
199,195,25676,1,8,0:0:0:0:
60,276,25840,6,0,P|139:301|220:280,1,170,6|2,0:0|0:0,0:0:0:0:
302,150,26332,1,8,0:0:0:0:
501,266,26496,2,0,P|417:270|349:320,1,170,6|2,0:0|0:0,0:0:0:0:
199,362,26988,2,0,P|214:322|221:280,1,85,8|0,0:0|0:0,0:0:0:0:
140,43,27315,6,0,P|124:82|117:124,1,85,6|0,0:0|0:0,0:0:0:0:
279,231,27643,2,0,P|294:191|301:149,1,85,8|0,0:0|0:0,0:0:0:0:
258,28,27971,1,2,0:0:0:0:
201,142,28135,1,2,0:0:0:0:
411,91,28299,1,8,0:0:0:0:
258,28,28463,6,0,P|272:111|290:194,1,170,6|2,0:0|0:0,0:0:0:0:
411,91,28955,1,8,0:0:0:0:
200,142,29119,2,0,P|137:136|74:129,1,127.5,6|0,0:0|0:0,0:0:0:0:
31,122,29447,1,2,0:0:0:0:
61,324,29611,1,8,0:0:0:0:
138,223,29774,1,0,0:0:0:0:
31,122,29938,6,0,P|13:160|-1:200,1,85,6|0,0:0|0:0,0:0:0:0:
138,223,30266,2,0,P|155:262|171:302,1,85,8|0,0:0|0:0,0:0:0:0:
61,324,30594,1,2,0:0:0:0:
111,145,30758,1,2,0:0:0:0:
171,303,30922,1,8,0:0:0:0:
13,242,31086,6,0,P|75:230|139:223,1,127.5,6|0,0:0|0:0,0:0:0:0:
182,221,31414,1,2,0:0:0:0:
247,35,31578,2,0,P|218:65|199:103,1,85,8|0,0:0|0:0,0:0:0:0:
171,303,31906,2,0,P|212:312|254:311,1,85,8|0,0:0|0:0,0:0:0:0:
442,235,32234,2,0,P|429:194|407:158,1,85,8|0,0:0|0:0,0:0:0:0:
286,116,32561,6,0,P|202:107|107:101,2,170,6|2|8,0:0|0:0|0:0,0:0:0:0:
345,225,33381,1,0,0:0:0:0:
372,56,33545,1,2,0:0:0:0:
285,116,33709,1,0,0:0:0:0:
443,235,33873,6,0,P|456:191|464:152,1,85,2|0,0:0|0:0,0:0:0:0:
445,13,34201,2,0,P|404:34|371:56,1,85,2|0,0:0|0:0,0:0:0:0:
345,224,34529,2,0,P|284:241|224:222,1,127.5,8|0,0:0|0:0,0:0:0:0:
198,188,34856,1,2,0:0:0:0:
198,188,35184,6,0,P|179:269|172:358,2,170,2|2|8,0:0|0:0|0:0,0:0:0:0:
257,103,36004,1,0,0:0:0:0:
428,203,36168,2,0,P|388:217|346:225,1,85,2|0,0:0|0:0,0:0:0:0:
198,188,36496,6,0,P|114:180|28:178,1,170,2|2,0:0|0:0,0:0:0:0:
28,178,36988,1,0,0:0:0:0:
137,321,37152,2,0,P|178:329|220:333,1,85,8|0,0:0|0:0,0:0:0:0:
415,287,37479,2,0,P|423:245|427:203,1,85,2|0,0:0|0:0,0:0:0:0:
405,17,37807,5,2,0:0:0:0:
405,17,38135,1,2,0:0:0:0:
405,16,38463,2,0,P|385:54|357:89,1,85,8|0,0:0|0:0,0:0:0:0:
229,159,38791,2,0,P|255:191|275:229,1,85,2|0,0:0|0:0,0:0:0:0:
255,299,39037,1,0,0:0:0:0:
255,299,39119,5,2,0:0:0:0:
255,9,39447,1,2,0:0:0:0:
255,8,39774,2,0,P|207:50|146:67,1,127.5,8|0,0:0|0:0,0:0:0:0:
88,12,40102,2,0,P|71:51|70:93,1,85,2|0,0:0|0:0,0:0:0:0:
178,277,40430,6,0,P|262:277|346:262,1,170,2|2,0:0|0:0,0:0:0:0:
453,191,40922,1,0,0:0:0:0:
366,59,41086,2,0,P|349:91|333:141,1,85,8|0,0:0|0:0,0:0:0:0:
486,270,41414,2,0,P|473:229|453:191,1,85,2|0,0:0|0:0,0:0:0:0:
265,69,41742,6,0,P|204:85|142:73,1,127.5,2|0,0:0|0:0,0:0:0:0:
88,22,42070,1,2,0:0:0:0:
110,164,42234,1,2,0:0:0:0:
265,69,42397,1,8,0:0:0:0:
178,300,42561,1,2,0:0:0:0:
110,164,42725,2,0,P|152:164|197:166,1,85,12|0,0:0|0:0,0:0:0:0:
446,190,43053,5,6,0:0:0:0:
446,190,43381,1,8,0:0:0:0:
446,190,43709,1,2,0:0:0:0:
344,292,43873,1,2,0:0:0:0:
266,69,44037,1,8,0:0:0:0:
344,292,44201,6,0,L|365:167,1,127.5,2|0,0:0|0:0,0:0:0:0:
373,124,44529,1,2,0:0:0:0:
418,342,44693,2,0,P|383:365|342:378,1,85,8|0,0:0|0:0,0:0:0:0:
133,277,45020,1,2,0:0:0:0:
223,379,45184,1,2,0:0:0:0:
255,158,45348,2,0,P|213:147|171:140,1,85,8|0,0:0|0:0,0:0:0:0:
0,195,45676,5,2,0:0:0:0:
0,195,46004,1,8,0:0:0:0:
0,195,46332,1,2,0:0:0:0:
78,84,46496,1,2,0:0:0:0:
134,277,46660,1,8,0:0:0:0:
22,362,46824,2,0,L|7:235,1,127.5,2|0,0:0|0:0,0:0:0:0:
0,195,47152,5,2,0:0:0:0:
134,277,47315,2,0,P|175:285|217:288,1,85,8|0,0:0|0:0,0:0:0:0:
353,271,47643,1,2,0:0:0:0:
255,152,47807,1,2,0:0:0:0:
341,355,47971,2,0,P|349:313|352:270,1,85,8|0,0:0|0:0,0:0:0:0:
329,44,48299,5,6,0:0:0:0:
329,44,48627,1,8,0:0:0:0:
329,44,48955,1,2,0:0:0:0:
189,141,49119,1,2,0:0:0:0:
354,270,49283,1,8,0:0:0:0:
438,122,49447,6,0,P|399:133|352:142,1,85,2|0,0:0|0:0,0:0:0:0:
189,141,49774,1,2,0:0:0:0:
355,270,49938,1,8,0:0:0:0:
253,360,50102,1,0,0:0:0:0:
272,193,50266,2,0,L|278:109,1,85,2|2,0:0|0:0,0:0:0:0:
139,337,50594,2,0,L|145:253,1,85,8|0,0:0|0:0,0:0:0:0:
157,35,50922,6,0,P|101:65|38:62,1,127.5,2|0,0:0|0:0,0:0:0:0:
4,35,51250,1,8,0:0:0:0:
56,160,51414,1,0,0:0:0:0:
0,358,51578,1,2,0:0:0:0:
113,282,51742,1,2,0:0:0:0:
19,142,51906,1,8,0:0:0:0:
30,277,52070,6,0,P|112:284|192:250,1,170,2|2,0:0|0:0,0:0:0:0:
316,135,52561,2,0,L|322:42,1,85,8|0,0:0|0:0,0:0:0:0:
312,221,52889,1,2,0:0:0:0:
322,51,53053,1,2,0:0:0:0:
467,138,53217,1,8,0:0:0:0:
467,138,53299,1,8,0:0:0:0:
467,138,53381,1,8,0:0:0:0:
467,138,53463,1,8,0:0:0:0:
467,137,53545,6,0,P|406:156|344:145,1,127.5,6|0,0:0|0:0,0:0:0:0:
315,135,53873,2,0,P|275:145|240:170,1,85,8|0,0:0|0:0,0:0:0:0:
204,302,54201,1,2,0:0:0:0:
339,364,54365,2,0,P|363:285|313:221,1,170,2|8,0:0|0:0,0:0:0:0:
204,302,54856,5,2,0:0:0:0:
315,135,55020,1,2,0:0:0:0:
439,319,55184,2,0,P|399:309|364:284,1,85,8|0,0:0|0:0,0:0:0:0:
315,135,55512,1,2,0:0:0:0:
315,126,55676,1,2,0:0:0:0:
364,285,55840,1,8,0:0:0:0:
364,276,56004,1,2,0:0:0:0:
315,115,56168,6,0,P|374:107|446:104,1,127.5,2|0,0:0|0:0,0:0:0:0:
494,168,56496,2,0,P|455:178|410:178,1,85,8|0,0:0|0:0,0:0:0:0:
315,116,56824,1,2,0:0:0:0:
365,264,56988,2,0,L|352:361,1,85,2|0,0:0|0:0,0:0:0:0:
159,332,57315,1,8,0:0:0:0:
159,332,57397,1,8,0:0:0:0:
159,332,57479,5,2,0:0:0:0:
256,213,57643,1,2,0:0:0:0:
394,298,57807,2,0,L|381:395,1,85,8|0,0:0|0:0,0:0:0:0:
495,277,58135,1,2,0:0:0:0:
288,320,58299,1,2,0:0:0:0:
405,147,58463,1,8,0:0:0:0:
394,299,58627,1,2,0:0:0:0:
256,213,58791,6,0,P|213:213|171:210,1,85,6|0,0:0|0:0,0:0:0:0:
66,62,59119,2,0,P|108:61|150:64,1,85,8|0,0:0|0:0,0:0:0:0:
290,127,59447,1,2,0:0:0:0:
132,318,59611,2,0,P|122:233|116:148,1,170,2|8,0:0|0:0,0:0:0:0:
257,214,60102,5,2,0:0:0:0:
151,64,60266,1,2,0:0:0:0:
0,237,60430,2,0,P|62:248|123:233,1,127.5,8|0,0:0|0:0,0:0:0:0:
171,211,60758,1,2,0:0:0:0:
262,326,60922,1,2,0:0:0:0:
311,130,61086,1,8,0:0:0:0:
205,238,61250,1,2,0:0:0:0:
331,382,61414,6,0,P|343:341|341:299,1,85,2|0,0:0|0:0,0:0:0:0:
388,97,61742,2,0,P|346:107|311:129,1,85,8|0,0:0|0:0,0:0:0:0:
205,238,62070,1,2,0:0:0:0:
342,299,62234,2,0,B|396:289|476:278|476:278|445:248,1,170,2|8,0:0|0:0,0:0:0:0:
377,177,62725,5,2,0:0:0:0:
332,381,62889,1,2,0:0:0:0:
476,278,63053,2,0,P|480:235|482:193,1,85,8|0,0:0|0:0,0:0:0:0:
456,35,63381,1,2,0:0:0:0:
377,177,63545,1,2,0:0:0:0:
242,46,63709,1,8,0:0:0:0:
155,151,63873,1,2,0:0:0:0:
407,157,64037,6,0,P|344:168|282:156,1,127.5,6|0,0:0|0:0,0:0:0:0:
244,137,64365,1,8,0:0:0:0:
244,137,64693,1,2,0:0:0:0:
78,53,64856,2,0,P|96:135|99:230,1,170,2|8,0:0|0:0,0:0:0:0:
43,326,65348,5,2,0:0:0:0:
0,187,65512,1,2,0:0:0:0:
196,214,65676,2,0,P|187:255|175:296,1,85,8|0,0:0|0:0,0:0:0:0:
96,135,66004,1,2,0:0:0:0:
43,326,66168,1,2,0:0:0:0:
196,214,66332,1,8,0:0:0:0:
95,110,66496,1,2,0:0:0:0:
49,295,66660,6,0,P|108:300|176:298,1,127.5,2|0,0:0|0:0,0:0:0:0:
218,291,66988,1,8,0:0:0:0:
218,291,67315,1,2,0:0:0:0:
326,202,67479,2,0,P|410:193|492:211,1,170,2|8,0:0|0:0,0:0:0:0:
390,319,67971,5,2,0:0:0:0:
382,106,68135,1,2,0:0:0:0:
494,212,68299,2,0,P|487:253|478:299,1,85,8|0,0:0|0:0,0:0:0:0:
382,106,68627,1,2,0:0:0:0:
312,231,68791,1,2,0:0:0:0:
494,212,68955,1,8,0:0:0:0:
383,81,69119,1,2,0:0:0:0:
389,319,69283,6,0,P|352:339|311:350,1,85,6|0,0:0|0:0,0:0:0:0:
101,255,69611,2,0,P|138:234|179:223,1,85,8|0,0:0|0:0,0:0:0:0:
312,231,69938,1,2,0:0:0:0:
383,80,70102,2,0,P|346:101|305:112,1,85,2|0,0:0|0:0,0:0:0:0:
134,95,70430,1,8,0:0:0:0:
173,309,70594,5,2,0:0:0:0:
221,163,70758,1,2,0:0:0:0:
25,243,70922,2,0,P|89:240|151:227,1,127.5,8|0,0:0|0:0,0:0:0:0:
194,235,71250,1,2,0:0:0:0:
134,95,71414,1,2,0:0:0:0:
83,329,71578,1,8,0:0:0:0:
67,161,71742,1,0,0:0:0:0:
194,236,71906,6,0,P|257:233|319:220,1,127.5,6|0,0:0|0:0,0:0:0:0:
390,252,72234,2,0,P|378:288|367:335,1,85,8|0,0:0|0:0,0:0:0:0:
502,261,72561,1,2,0:0:0:0:
448,117,72725,2,0,P|370:149|284:138,1,170,2|8,0:0|0:0,0:0:0:0:
135,95,73217,5,2,0:0:0:0:
131,93,73299,1,2,0:0:0:0:
127,91,73381,1,2,0:0:0:0:
123,89,73463,1,2,0:0:0:0:
119,87,73545,2,0,L|79:67,2,42.5,12|0|2,0:0|0:0|0:0,0:0:0:0:
200,241,73873,1,8,0:0:0:0:
201,245,73955,1,8,0:0:0:0:
202,249,74037,1,8,0:0:0:0:
203,253,74119,1,8,0:0:0:0:
204,257,74201,2,0,L|214:303,1,42.5,8|0,0:0|0:0,0:0:0:0:
295,349,74365,2,0,L|305:303,1,42.5,8|0,0:0|0:0,0:0:0:0:
291,225,74529,6,0,P|280:141|278:56,2,170,6|8|2,0:0|0:0|0:0,0:0:0:0:
468,162,75348,1,2,0:0:0:0:
392,290,75512,1,8,0:0:0:0:
279,146,75676,6,0,P|216:159|153:151,1,127.5,2|0,0:0|0:0,0:0:0:0:
116,129,76004,1,2,0:0:0:0:
229,24,76168,2,0,P|271:19|313:19,1,85,8|2,0:0|0:0,0:0:0:0:
469,163,76496,2,0,P|426:168|384:168,1,85,0|2,0:0|0:0,0:0:0:0:
116,129,76824,1,8,0:0:0:0:
231,253,76988,1,0,0:0:0:0:
228,26,77152,6,0,P|217:66|210:108,1,85,6|0,0:0|0:0,0:0:0:0:
309,320,77479,2,0,P|320:279|327:237,1,85,8|0,0:0|0:0,0:0:0:0:
341,47,77807,1,2,0:0:0:0:
211,109,77971,1,2,0:0:0:0:
309,320,78135,1,8,0:0:0:0:
332,194,78299,6,0,P|249:193|162:183,1,170,2|2,0:0|0:0,0:0:0:0:
65,99,78791,1,8,0:0:0:0:
250,47,78955,2,0,P|332:47|419:57,1,170,2|2,0:0|0:0,0:0:0:0:
463,176,79447,2,0,P|463:219|454:260,1,85,8|0,0:0|0:0,0:0:0:0:
310,321,79774,6,0,P|226:312|152:352,2,170,6|8|2,0:0|0:0|0:0,0:0:0:0:
431,377,80594,1,2,0:0:0:0:
370,210,80758,1,8,0:0:0:0:
226,313,80922,6,0,P|142:321|68:281,1,170,2|2,0:0|0:0,0:0:0:0:
52,156,81414,1,8,0:0:0:0:
197,92,81578,2,0,P|228:167|183:234,1,170,2|2,0:0|0:0,0:0:0:0:
51,156,82070,2,0,P|94:155|136:158,1,85,8|0,0:0|0:0,0:0:0:0:
308,281,82397,6,0,P|389:296|454:246,1,170,6|8,0:0|0:0,0:0:0:0:
389,36,82889,2,0,P|377:120|371:204,1,170,2|2,0:0|0:0,0:0:0:0:
471,285,83381,1,8,0:0:0:0:
378,124,83545,1,2,0:0:0:0:
316,363,83709,5,2,0:0:0:0:
380,253,83873,1,2,0:0:0:0:
258,125,84037,1,8,0:0:0:0:
466,184,84201,2,0,P|391:222|310:203,1,170,2|2,0:0|0:0,0:0:0:0:
185,82,84693,1,8,0:0:0:0:
143,73,84774,1,8,0:0:0:0:
103,84,84856,1,8,0:0:0:0:
78,119,84938,1,8,0:0:0:0:
69,160,85020,6,0,P|68:203|72:252,1,85,6|0,0:0|0:0,0:0:0:0:
232,373,85348,2,0,P|233:330|229:288,1,85,8|0,0:0|0:0,0:0:0:0:
153,155,85676,1,2,0:0:0:0:
263,53,85840,1,2,0:0:0:0:
316,249,86004,1,8,0:0:0:0:
153,155,86168,6,0,P|237:141|321:133,1,170,2|2,0:0|0:0,0:0:0:0:
475,191,86660,1,8,0:0:0:0:
316,249,86824,2,0,B|292:306|277:368|277:368|265:338|255:320,1,170,2|2,0:0|0:0,0:0:0:0:
112,242,87315,2,0,P|99:282|93:324,1,85,8|0,0:0|0:0,0:0:0:0:
258,328,87643,6,0,P|322:327|386:312,1,127.5,6|0,0:0|0:0,0:0:0:0:
452,273,87971,2,0,P|467:233|475:191,1,85,8|0,0:0|0:0,0:0:0:0:
417,43,88299,1,2,0:0:0:0:
341,156,88463,1,2,0:0:0:0:
472,303,88627,1,8,0:0:0:0:
508,165,88791,6,0,P|445:178|383:167,1,127.5,2|0,0:0|0:0,0:0:0:0:
341,156,89119,1,2,0:0:0:0:
259,329,89283,1,8,0:0:0:0:
188,205,89447,2,0,P|271:202|341:155,1,170,2|2,0:0|0:0,0:0:0:0:
259,329,89938,1,8,0:0:0:0:
208,96,90102,1,2,0:0:0:0:
90,175,90266,6,0,P|89:217|96:259,1,85,6|0,0:0|0:0,0:0:0:0:
259,329,90594,2,0,P|259:286|252:244,1,85,8|0,0:0|0:0,0:0:0:0:
208,96,90922,1,2,0:0:0:0:
325,164,91086,1,2,0:0:0:0:
178,291,91250,1,8,0:0:0:0:
88,173,91414,6,0,P|150:190|213:188,1,127.5,2|0,0:0|0:0,0:0:0:0:
247,161,91742,1,2,0:0:0:0:
365,282,91906,1,8,0:0:0:0:
430,169,92070,2,0,P|439:84|447:0,1,170,2|2,0:0|0:0,0:0:0:0:
339,80,92561,2,0,P|331:120|326:164,1,85,8|0,0:0|0:0,0:0:0:0:
432,332,92889,6,0,P|352:308|281:350,2,170,6|8|2,0:0|0:0|0:0,0:0:0:0:
432,332,93709,1,2,0:0:0:0:
406,140,93873,1,8,0:0:0:0:
332,222,94037,6,0,P|248:217|157:203,1,170,2|2,0:0|0:0,0:0:0:0:
163,204,94447,1,2,0:0:0:0:
163,204,94529,1,8,0:0:0:0:
260,96,94693,1,0,0:0:0:0:
43,20,94856,1,2,0:0:0:0:
56,146,95020,1,2,0:0:0:0:
159,70,95184,1,10,0:0:0:0:
31,62,95348,1,2,0:0:0:0:
23,266,95512,6,0,P|86:262|138:226,1,127.5,6|0,0:0|0:0,0:0:0:0:
163,204,95840,2,0,L|148:295,1,85,8|0,0:0|0:0,0:0:0:0:
292,115,96168,2,0,L|277:206,1,85,2|2,0:0|0:0,0:0:0:0:
336,356,96496,1,8,0:0:0:0:
500,227,96660,6,0,P|419:208|344:246,1,170,2|0,0:0|0:0,0:0:0:0:
230,351,97152,1,8,0:0:0:0:
30,283,97315,2,0,P|111:266|163:201,1,170,2|2,0:0|0:0,0:0:0:0:
303,31,97807,2,0,P|292:71|293:114,1,85,8|0,0:0|0:0,0:0:0:0:
432,291,98135,5,6,0:0:0:0:
432,291,98463,2,0,L|354:325,1,85,8|0,0:0|0:0,0:0:0:0:
457,157,98791,2,0,L|379:191,1,85,2|2,0:0|0:0,0:0:0:0:
477,20,99119,2,0,L|399:54,1,85,8|0,0:0|0:0,0:0:0:0:
276,14,99447,5,2,0:0:0:0:
239,109,99611,2,0,P|205:126|159:137,1,85,2|8,0:0|0:0,0:0:0:0:
32,299,99938,2,0,P|110:275|183:314,1,170,2|2,0:0|0:0,0:0:0:0:
188,323,100348,1,0,0:0:0:0:
193,332,100430,2,0,P|180:291|172:249,1,85,8|0,0:0|0:0,0:0:0:0:
58,48,100758,6,0,P|50:89|37:130,1,85,6|0,0:0|0:0,0:0:0:0:
238,109,101086,2,0,P|270:136|298:167,1,85,8|0,0:0|0:0,0:0:0:0:
402,330,101414,1,2,0:0:0:0:
391,168,101578,1,2,0:0:0:0:
248,245,101742,1,8,0:0:0:0:
363,333,101906,6,0,P|390:253|391:168,1,170,2|2,0:0|0:0,0:0:0:0:
264,29,102397,2,0,P|246:67|237:109,1,85,8|0,0:0|0:0,0:0:0:0:
248,245,102725,1,2,0:0:0:0:
391,168,102889,1,2,0:0:0:0:
269,334,103053,1,8,0:0:0:0:
230,162,103217,1,0,0:0:0:0:
454,226,103381,6,0,P|375:248|312:194,2,170,6|8|2,0:0|0:0|0:0,0:0:0:0:
507,102,104201,1,2,0:0:0:0:
329,19,104365,1,8,0:0:0:0:
384,143,104529,1,0,0:0:0:0:
511,68,104693,6,0,P|462:60|414:55,1,85,2|2,0:0|0:0,0:0:0:0:
263,92,105020,1,8,0:0:0:0:
353,247,105184,2,0,P|333:308|293:372,1,127.5,2|0,0:0|0:0,0:0:0:0:
258,362,105512,1,2,0:0:0:0:
75,271,105676,1,8,0:0:0:0:
54,235,105757,1,8,0:0:0:0:
54,193,105839,1,8,0:0:0:0:
75,156,105921,1,8,0:0:0:0:
111,135,106004,6,0,P|194:139|263:91,1,170,6|8,0:0|0:0,0:0:0:0:
263,92,106496,1,0,0:0:0:0:
362,222,106660,1,2,0:0:0:0:
422,109,106824,1,2,0:0:0:0:
502,290,106988,1,8,0:0:0:0:
339,220,107152,6,0,P|253:222|166:236,1,170,2|2,0:0|0:0,0:0:0:0:
306,354,107643,2,0,P|348:353|390:348,1,85,8|0,0:0|0:0,0:0:0:0:
464,199,107971,1,2,0:0:0:0:
350,141,108135,1,2,0:0:0:0:
392,348,108299,1,8,0:0:0:0:
444,231,108463,1,0,0:0:0:0:
314,71,108627,6,0,P|272:139|312:209,1,170,6|8,0:0|0:0,0:0:0:0:
424,262,109119,1,0,0:0:0:0:
453,86,109283,1,2,0:0:0:0:
350,141,109447,1,2,0:0:0:0:
463,262,109611,1,8,0:0:0:0:
314,302,109774,6,0,B|272:322|257:361|257:361|229:329|182:325,1,170,2|2,0:0|0:0,0:0:0:0:
35,272,110266,2,0,P|29:228|25:186,1,85,8|0,0:0|0:0,0:0:0:0:
208,64,110594,1,2,0:0:0:0:
126,146,110758,1,2,0:0:0:0:
272,233,110922,1,8,0:0:0:0:
272,233,111004,1,0,0:0:0:0:
272,233,111086,1,0,0:0:0:0:
208,64,111250,6,0,L|198:202,1,127.5,6|0,0:0|0:0,0:0:0:0:
164,234,111578,2,0,L|171:148,1,85,8|0,0:0|0:0,0:0:0:0:
308,29,111906,1,2,0:0:0:0:
370,140,112070,1,2,0:0:0:0:
208,64,112234,2,0,L|161:58,2,42.5,8|0|0,0:0|0:0|0:0,0:0:0:0:
338,13,112561,5,2,0:0:0:0:
272,141,112725,1,2,0:0:0:0:
437,269,112889,1,8,0:0:0:0:
371,141,113053,1,0,0:0:0:0:
250,330,113217,1,2,0:0:0:0:
335,235,113381,1,2,0:0:0:0:
208,63,113545,1,8,0:0:0:0:
256,180,113709,1,0,0:0:0:0:
465,120,113873,6,0,P|381:106|296:101,2,170,6|8|2,0:0|0:0|0:0,0:0:0:0:
498,243,114693,1,2,0:0:0:0:
359,331,114856,1,8,0:0:0:0:
359,331,114938,1,0,0:0:0:0:
359,331,115020,1,0,0:0:0:0:
256,180,115184,5,8,0:0:0:0:
227,171,115265,1,8,0:0:0:0:
198,167,115347,1,8,0:0:0:0:
168,167,115429,1,8,0:0:0:0:
138,171,115511,1,8,0:0:0:0:
110,178,115593,1,8,0:0:0:0:
133,196,115675,1,8,0:0:0:0:
153,218,115757,1,8,0:0:0:0:
168,244,115840,2,0,P|173:264|175:285,1,42.5,2|0,0:0|0:0,0:0:0:0:
69,355,116004,2,0,P|64:334|62:313,1,42.5,2|0,0:0|0:0,0:0:0:0:
25,218,116168,2,0,P|21:175|31:134,1,85,8|2,0:0|0:0,0:0:0:0:
199,27,116496,5,6,0:0:0:0:
227,171,116660,1,0,0:0:0:0:
31,136,116824,1,8,0:0:0:0:
125,233,116988,1,0,0:0:0:0:
172,105,117152,1,2,0:0:0:0:
161,239,117315,1,2,0:0:0:0:
151,374,117479,1,8,0:0:0:0:
272,312,117643,1,0,0:0:0:0:
151,374,117807,5,2,0:0:0:0:
204,248,117971,1,2,0:0:0:0:
362,300,118135,2,0,P|356:341|334:378,1,85,8|0,0:0|0:0,0:0:0:0:
151,374,118463,2,0,L|63:368,1,85,8|0,0:0|0:0,0:0:0:0:
290,254,118791,2,0,L|202:248,1,85,8|2,0:0|0:0,0:0:0:0:
56,231,119119,5,6,0:0:0:0:
161,145,119283,1,0,0:0:0:0:
150,375,119447,1,8,0:0:0:0:
204,249,119611,1,0,0:0:0:0:
288,354,119774,1,2,0:0:0:0:
182,268,119938,1,2,0:0:0:0:
296,119,120102,1,8,0:0:0:0:
291,254,120266,1,0,0:0:0:0:
179,175,120430,5,2,0:0:0:0:
241,54,120594,1,2,0:0:0:0:
374,274,120758,1,8,0:0:0:0:
312,153,120922,1,0,0:0:0:0:
443,81,121086,2,0,P|441:123|432:165,1,85,8|0,0:0|0:0,0:0:0:0:
301,336,121414,2,0,P|292:294|290:251,1,85,8|2,0:0|0:0,0:0:0:0:
345,117,121742,5,6,0:0:0:0:
226,183,121906,1,0,0:0:0:0:
281,58,122070,1,8,0:0:0:0:
291,253,122234,1,0,0:0:0:0:
226,144,122397,1,2,0:0:0:0:
353,141,122561,1,2,0:0:0:0:
401,285,122725,1,8,0:0:0:0:
293,216,122889,1,0,0:0:0:0:
195,337,123053,6,0,P|154:350|112:355,1,85,2|2,0:0|0:0,0:0:0:0:
23,236,123381,2,0,P|63:223|105:218,1,85,8|0,0:0|0:0,0:0:0:0:
292,215,123709,2,0,P|354:230|412:208,1,127.5,8|0,0:0|0:0,0:0:0:0:
442,176,124037,1,8,0:0:0:0:
352,63,124201,1,2,0:0:0:0:
281,242,124365,5,2,0:0:0:0:
206,138,124529,1,2,0:0:0:0:
439,84,124693,1,8,0:0:0:0:
355,179,124856,1,0,0:0:0:0:
250,33,125020,1,2,0:0:0:0:
283,156,125184,1,2,0:0:0:0:
316,279,125348,1,8,0:0:0:0:
316,279,125430,1,0,0:0:0:0:
316,279,125512,1,2,0:0:0:0:
316,279,125594,1,2,0:0:0:0:
316,279,125676,6,0,L|325:146,1,127.5,6|0,0:0|0:0,0:0:0:0:
355,75,126004,1,8,0:0:0:0:
355,75,126086,1,2,0:0:0:0:
355,75,126168,2,0,L|403:66,3,42.5,0|0|2|0,0:0|0:0|0:0|0:0,0:0:0:0:
273,75,126496,1,8,0:0:0:0:
256,73,126578,1,8,0:0:0:0:
239,71,126660,1,8,0:0:0:0:
222,70,126742,1,8,0:0:0:0:
205,69,126824,1,8,0:0:0:0:
188,68,126906,1,8,0:0:0:0:
166,68,126988,6,0,P|153:60|137:38,3,42.5,2|2|2|2,0:0|0:0|0:0|0:0,0:0:0:0:
99,124,127315,2,0,L|87:170,3,42.5,10|2|2|2,0:0|0:0|0:0|0:0,0:0:0:0:
155,216,127643,2,0,L|143:262,1,42.5,2|2,0:0|0:0,0:0:0:0:
217,308,127807,2,0,L|205:354,1,42.5,2|2,0:0|0:0,0:0:0:0:
117,361,127971,2,0,P|101:367|72:368,3,42.5,10|2|2|2,0:0|0:0|0:0|0:0,0:0:0:0:
38,293,128299,6,0,P|32:277|31:248,3,42.5,2|2|2|2,0:0|0:0|0:0|0:0,0:0:0:0:
71,182,128627,2,0,P|87:176|116:175,3,42.5,10|2|2|2,0:0|0:0|0:0|0:0,0:0:0:0:
197,211,128955,2,0,P|220:215|248:217,1,42.5,2|2,0:0|0:0,0:0:0:0:
328,209,129119,2,0,P|347:195|368:177,1,42.5,2|2,0:0|0:0,0:0:0:0:
388,104,129283,2,0,L|388:45,3,42.5,10|2|2|2,0:0|0:0|0:0|0:0,0:0:0:0:
470,146,129611,6,0,P|473:166|470:188,3,42.5,6|2|2|2,0:0|0:0|0:0|0:0,0:0:0:0:
419,264,129938,2,0,P|407:280|390:293,3,42.5,10|2|2|2,0:0|0:0|0:0|0:0,0:0:0:0:
298,288,130266,2,0,L|241:288,1,42.5,2|2,0:0|0:0,0:0:0:0:
190,351,130430,2,0,L|133:351,1,42.5,2|2,0:0|0:0,0:0:0:0:
53,327,130594,2,0,P|62:308|76:292,3,42.5,10|2|2|2,0:0|0:0|0:0|0:0,0:0:0:0:
119,219,130922,6,0,P|109:199|96:183,3,42.5,2|2|2|2,0:0|0:0|0:0|0:0,0:0:0:0:
131,98,131250,2,0,P|150:88|166:75,3,42.5,10|2|2|2,0:0|0:0|0:0|0:0,0:0:0:0:
262,85,131578,2,0,P|271:104|284:120,1,42.5,2|2,0:0|0:0,0:0:0:0:
377,136,131742,2,0,L|430:129,1,42.5,2|2,0:0|0:0,0:0:0:0:
462,212,131906,2,0,L|515:205,3,42.5,14|2|2|2,0:0|0:0|0:0|0:0,0:0:0:0:
395,264,132234,6,0,P|379:286|372:308,3,42.5,6|2|2|2,0:0|0:0|0:0|0:0,0:0:0:0:
305,225,132561,2,0,P|289:203|282:181,3,42.5,10|2|2|2,0:0|0:0|0:0|0:0,0:0:0:0:
236,283,132889,2,0,P|220:305|213:327,1,42.5,2|2,0:0|0:0,0:0:0:0:
154,236,133053,2,0,P|138:214|131:192,1,42.5,2|2,0:0|0:0,0:0:0:0:
177,119,133217,2,0,P|183:99|186:78,3,42.5,10|2|2|2,0:0|0:0|0:0|0:0,0:0:0:0:
99,27,133545,6,0,P|92:47|89:68,3,42.5,2|2|2|2,0:0|0:0|0:0|0:0,0:0:0:0:
44,144,133873,2,0,P|41:165|34:186,3,42.5,10|2|2|2,0:0|0:0|0:0|0:0,0:0:0:0:
45,270,134201,2,0,L|59:317,1,42.5,2|2,0:0|0:0,0:0:0:0:
148,298,134365,2,0,L|162:345,1,42.5,2|2,0:0|0:0,0:0:0:0:
243,317,134529,2,0,L|257:364,3,42.5,10|2|0|2,0:0|0:0|0:0|0:0,0:0:0:0:
209,229,134856,6,0,L|209:172,3,42.5,6|2|2|2,0:0|0:0|0:0|0:0,0:0:0:0:
310,138,135184,2,0,L|310:81,3,42.5,10|2|2|2,0:0|0:0|0:0|0:0,0:0:0:0:
385,50,135512,2,0,P|401:63|421:69,1,42.5,2|2,0:0|0:0,0:0:0:0:
490,143,135676,2,0,P|469:149|453:162,1,42.5,2|2,0:0|0:0,0:0:0:0:
373,207,135840,2,0,P|355:219|335:227,3,42.5,10|2|2|2,0:0|0:0|0:0|0:0,0:0:0:0:
208,229,136168,6,0,L|154:221,3,42.5,2|2|2|2,0:0|0:0|0:0|0:0,0:0:0:0:
160,129,136496,2,0,L|106:121,3,42.5,10|2|2|2,0:0|0:0|0:0|0:0,0:0:0:0:
70,60,136824,2,0,P|55:74|43:91,1,42.5,2|2,0:0|0:0,0:0:0:0:
6,199,136988,2,0,P|18:216|34:230,1,42.5,6|2,0:0|0:0,0:0:0:0:
106,311,137152,1,8,0:0:0:0:
127,311,137234,1,8,0:0:0:0:
147,311,137315,1,8,0:0:0:0:
168,312,137397,1,8,0:0:0:0:
188,314,137479,6,0,P|249:295|313:293,1,127.5,6|0,0:0|0:0,0:0:0:0:
385,333,137807,1,8,0:0:0:0:
385,333,138135,1,2,0:0:0:0:
477,232,138299,2,0,P|395:239|338:179,1,170,2|8,0:0|0:0,0:0:0:0:
471,127,138791,5,2,0:0:0:0:
312,63,138955,1,2,0:0:0:0:
444,0,139119,2,0,P|446:84|421:171,1,170,8|2,0:0|0:0,0:0:0:0:
302,209,139611,1,2,0:0:0:0:
194,142,139774,1,8,0:0:0:0:
111,239,139938,1,2,0:0:0:0:
230,337,140102,6,0,P|245:255|219:175,2,170,2|8|2,0:0|0:0|0:0,0:0:0:0:
42,357,140922,1,2,0:0:0:0:
42,357,141250,1,8,0:0:0:0:
111,239,141414,5,2,0:0:0:0:
192,313,141578,1,2,0:0:0:0:
303,222,141742,2,0,P|367:223|430:214,1,127.5,8|0,0:0|0:0,0:0:0:0:
472,203,142070,1,2,0:0:0:0:
366,131,142234,1,2,0:0:0:0:
273,297,142397,1,8,0:0:0:0:
219,181,142561,1,2,0:0:0:0:
397,151,142725,6,0,P|394:236|376:319,2,170,6|8|2,0:0|0:0|0:0,0:0:0:0:
333,43,143545,2,0,B|295:60|275:102|275:102|241:77|193:86,1,170,2|8,0:0|0:0,0:0:0:0:
71,124,144037,5,2,0:0:0:0:
145,227,144201,1,2,0:0:0:0:
50,370,144365,2,0,P|23:312|30:250,1,127.5,8|0,0:0|0:0,0:0:0:0:
55,214,144693,1,2,0:0:0:0:
158,141,144856,1,2,0:0:0:0:
252,226,145020,1,8,0:0:0:0:
189,337,145184,1,2,0:0:0:0:
144,227,145348,6,0,P|206:210|270:205,1,127.5,6|0,0:0|0:0,0:0:0:0:
336,257,145676,2,0,P|346:216|342:173,1,85,8|0,0:0|0:0,0:0:0:0:
225,28,146004,1,2,0:0:0:0:
343,75,146168,2,0,P|426:79|491:28,1,170,2|8,0:0|0:0,0:0:0:0:
491,27,146660,5,2,0:0:0:0:
432,159,146824,1,2,0:0:0:0:
487,313,146988,1,8,0:0:0:0:
487,313,147315,1,2,0:0:0:0:
375,354,147479,1,2,0:0:0:0:
335,214,147643,1,8,0:0:0:0:
246,293,147807,1,2,0:0:0:0:
68,201,147971,6,0,P|149:215|216:166,2,170,6|8|2,0:0|0:0|0:0,0:0:0:0:
122,83,148791,2,0,P|188:34|270:48,1,170,2|8,0:0|0:0,0:0:0:0:
366,119,149283,5,0,0:0:0:0:
286,207,149447,1,0,0:0:0:0:
378,362,149611,2,0,P|390:299|397:236,1,127.5,8|0,0:0|0:0,0:0:0:0:
374,200,149938,1,2,0:0:0:0:
285,302,150102,1,2,0:0:0:0:
485,260,150266,2,0,P|490:217|489:175,1,85,8|2,0:0|0:0,0:0:0:0:
431,20,150594,5,2,0:0:0:0:
431,20,150922,1,8,0:0:0:0:
431,20,151250,1,2,0:0:0:0:
333,70,151414,2,0,P|326:155|332:240,1,170,2|8,0:0|0:0,0:0:0:0:
474,358,151906,5,2,0:0:0:0:
432,255,152070,1,2,0:0:0:0:
310,355,152234,2,0,P|267:356|225:352,1,85,8|0,0:0|0:0,0:0:0:0:
100,210,152561,2,0,P|142:208|184:212,1,85,2|2,0:0|0:0,0:0:0:0:
337,260,152889,1,8,0:0:0:0:
257,129,153053,1,2,0:0:0:0:
62,146,153217,6,0,P|25:217|74:280,2,170,6|8|2,0:0|0:0|0:0,0:0:0:0:
242,263,154037,2,0,P|246:305|239:346,1,85,2|0,0:0|0:0,0:0:0:0:
31,344,154365,1,8,0:0:0:0:
101,210,154529,5,2,0:0:0:0:
167,298,154693,1,2,0:0:0:0:
310,195,154856,2,0,P|316:131|305:68,1,127.5,8|0,0:0|0:0,0:0:0:0:
284,31,155184,1,2,0:0:0:0:
206,121,155348,1,2,0:0:0:0:
350,272,155512,2,0,P|379:241|394:202,1,85,12|0,0:0|0:0,0:0:0:0:
441,39,155840,5,8,0:0:0:0:
403,58,155921,1,8,0:0:0:0:
361,63,156003,1,8,0:0:0:0:
320,54,156085,1,8,0:0:0:0:
284,31,156168,2,0,L|232:20,2,42.5,8|8|8,0:0|0:0|0:0,0:0:0:0:
167,115,156496,1,8,0:0:0:0:
127,104,156577,1,8,0:0:0:0:
84,106,156659,1,8,0:0:0:0:
46,123,156741,1,8,0:0:0:0:
15,153,156824,2,0,L|-1:194,1,42.5,8|8,0:0|0:0,0:0:0:0:
82,260,156988,2,0,L|66:301,1,42.5,8|8,0:0|0:0,0:0:0:0:
169,353,157152,5,12,0:0:0:0:
169,353,157234,1,8,0:0:0:0:
169,353,157315,1,8,0:0:0:0:
169,353,157397,1,8,0:0:0:0:
169,353,157479,1,12,0:0:0:0:
100,182,157643,1,6,0:0:0:0:
199,248,157807,2,0,L|291:240,1,85,2|2,0:0|0:0,0:0:0:0:
351,200,158053,1,8,0:0:0:0:
351,200,158135,2,0,L|251:206,1,85,12|0,0:0|0:0,0:0:0:0:
99,182,158463,6,0,P|85:221|79:263,1,85,6|0,0:0|0:0,0:0:0:0:
255,369,158791,2,0,P|269:329|275:287,1,85,8|0,0:0|0:0,0:0:0:0:
297,98,159119,1,2,0:0:0:0:
201,168,159283,1,2,0:0:0:0:
354,277,159447,1,8,0:0:0:0:
457,183,159611,6,0,P|393:176|329:175,1,127.5,2|0,0:0|0:0,0:0:0:0:
288,183,159938,1,2,0:0:0:0:
421,94,160102,1,8,0:0:0:0:
354,277,160266,2,0,B|340:326|297:371|297:371|290:344,1,127.5,2|0,0:0|0:0,0:0:0:0:
256,331,160594,1,2,0:0:0:0:
88,240,160758,2,0,P|130:249|170:238,1,85,8|0,0:0|0:0,0:0:0:0:
288,183,161086,6,0,L|294:98,1,85,6|0,0:0|0:0,0:0:0:0:
421,95,161414,2,0,L|427:10,1,85,8|0,0:0|0:0,0:0:0:0:
476,171,161742,1,2,0:0:0:0:
427,10,161906,1,2,0:0:0:0:
288,182,162070,1,8,0:0:0:0:
421,95,162234,6,0,P|336:87|251:86,1,170,2|2,0:0|0:0,0:0:0:0:
108,105,162725,1,8,0:0:0:0:
77,249,162889,2,0,P|140:246|200:225,1,127.5,2|0,0:0|0:0,0:0:0:0:
236,202,163217,1,2,0:0:0:0:
192,49,163381,1,8,0:0:0:0:
159,163,163545,1,0,0:0:0:0:
295,323,163709,6,0,P|311:283|317:241,1,85,6|0,0:0|0:0,0:0:0:0:
298,47,164037,2,0,P|310:87|333:123,1,85,8|0,0:0|0:0,0:0:0:0:
480,188,164365,1,2,0:0:0:0:
419,85,164529,1,2,0:0:0:0:
318,242,164693,1,8,0:0:0:0:
474,349,164856,6,0,P|501:269|480:188,1,170,2|2,0:0|0:0,0:0:0:0:
334,124,165348,1,8,0:0:0:0:
295,322,165512,2,0,P|235:343|171:341,1,127.5,2|0,0:0|0:0,0:0:0:0:
134,320,165840,1,2,0:0:0:0:
69,182,166004,2,0,P|110:172|152:170,1,85,8|0,0:0|0:0,0:0:0:0:
374,189,166332,6,0,P|408:115|357:53,1,170,6|8,0:0|0:0,0:0:0:0:
228,232,166824,2,0,B|237:294|282:355|282:355|294:324,1,170,2|2,0:0|0:0,0:0:0:0:
134,320,167315,1,8,0:0:0:0:
254,204,167479,1,0,0:0:0:0:
282,355,167643,5,2,0:0:0:0:
168,279,167807,1,2,0:0:0:0:
347,168,167971,1,8,0:0:0:0:
270,280,168135,2,0,P|185:282|101:270,1,170,2|2,0:0|0:0,0:0:0:0:
43,130,168627,2,0,P|85:125|127:125,1,85,8|0,0:0|0:0,0:0:0:0:
347,167,168955,6,0,P|367:85|379:1,2,170,6|8|2,0:0|0:0|0:0,0:0:0:0:
272,75,169774,1,2,0:0:0:0:
463,35,169938,1,8,0:0:0:0:
410,216,170102,6,0,P|333:243|270:193,1,170,2|2,0:0|0:0,0:0:0:0:
368,87,170594,1,8,0:0:0:0:
502,172,170758,2,0,P|509:235|483:292,1,127.5,2|0,0:0|0:0,0:0:0:0:
449,318,171086,1,2,0:0:0:0:
242,299,171250,2,0,P|199:300|157:298,1,85,8|0,0:0|0:0,0:0:0:0:
64,127,171578,6,0,P|106:125|148:127,1,85,6|0,0:0|0:0,0:0:0:0:
368,86,171906,2,0,P|344:121|316:153,1,85,8|0,0:0|0:0,0:0:0:0:
151,216,172234,1,2,0:0:0:0:
242,94,172397,1,2,0:0:0:0:
329,281,172561,1,8,0:0:0:0:
180,200,172725,6,0,P|242:183|306:178,1,127.5,2|0,0:0|0:0,0:0:0:0:
347,188,173053,1,2,0:0:0:0:
382,352,173217,2,0,P|341:363|298:363,1,85,8|0,0:0|0:0,0:0:0:0:
188,316,173545,1,2,0:0:0:0:
54,378,173709,1,2,0:0:0:0:
96,211,173873,1,8,0:0:0:0:
187,346,174037,1,0,0:0:0:0:
18,258,174201,6,0,P|11:216|16:173,1,85,6|0,0:0|0:0,0:0:0:0:
201,18,174529,2,0,P|207:59|202:102,1,85,8|0,0:0|0:0,0:0:0:0:
96,295,174856,1,2,0:0:0:0:
175,195,175020,1,2,0:0:0:0:
218,367,175184,1,8,0:0:0:0:
41,355,175348,6,0,P|16:277|73:219,1,170,2|2,0:0|0:0,0:0:0:0:
234,272,175840,1,8,0:0:0:0:
408,234,176004,2,0,L|427:107,1,127.5,2|0,0:0|0:0,0:0:0:0:
434,65,176332,1,2,0:0:0:0:
325,235,176496,2,0,L|311:325,1,85,8|0,0:0|0:0,0:0:0:0:
96,295,176824,5,8,0:0:0:0:
96,295,176906,1,8,0:0:0:0:
96,295,176988,1,8,0:0:0:0:
96,295,177070,1,8,0:0:0:0:
96,295,177152,2,0,L|128:255,1,42.5,8|8,0:0|0:0,0:0:0:0:
177,192,177315,2,0,L|150:158,1,42.5,8|8,0:0|0:0,0:0:0:0:
104,98,177479,5,8,0:0:0:0:
104,98,177561,1,8,0:0:0:0:
104,98,177643,1,8,0:0:0:0:
104,98,177725,1,8,0:0:0:0:
104,98,177807,2,0,P|72:99|45:109,1,42.5,8|8,0:0|0:0,0:0:0:0:
21,203,177971,2,0,P|42:203|63:199,1,42.5,2|0,0:0|0:0,0:0:0:0:
177,192,178135,5,6,0:0:0:0:
189,190,178217,1,2,0:0:0:0:
201,188,178299,1,2,0:0:0:0:
213,186,178381,1,2,0:0:0:0:
225,184,178463,1,2,0:0:0:0:
237,182,178545,1,2,0:0:0:0:
249,180,178627,1,2,0:0:0:0:
261,179,178709,1,2,0:0:0:0:
273,178,178791,2,0,P|298:174|325:178,1,42.5,2|0,0:0|0:0,0:0:0:0:
357,282,178955,2,0,P|332:286|305:282,1,42.5,2|0,0:0|0:0,0:0:0:0:
222,275,179119,2,0,L|132:289,1,85,8|0,0:0|0:0,0:0:0:0:
96,295,179365,1,0,0:0:0:0:
96,295,179447,6,0,P|179:311|264:316,2,170,6|2|8,0:0|0:0|0:0,0:0:0:0:
27,118,180266,1,2,0:0:0:0:
134,192,180430,1,2,0:0:0:0:
277,99,180594,6,0,P|360:81|444:71,1,170,2|2,0:0|0:0,0:0:0:0:
348,222,181086,2,0,P|306:230|264:236,1,85,2|0,0:0|0:0,0:0:0:0:
27,119,181414,2,0,P|68:111|110:104,1,85,8|0,0:0|0:0,0:0:0:0:
277,99,181742,1,0,0:0:0:0:
134,192,181906,1,2,0:0:0:0:
226,354,182070,6,0,P|238:271|235:186,2,170,6|2|8,0:0|0:0|0:0,0:0:0:0:
113,294,182889,1,2,0:0:0:0:
236,186,183053,1,2,0:0:0:0:
324,277,183217,6,0,P|407:286|484:251,1,170,2|2,0:0|0:0,0:0:0:0:
496,123,183709,1,2,0:0:0:0:
496,123,184037,1,8,0:0:0:0:
398,41,184201,1,2,0:0:0:0:
367,164,184365,1,0,0:0:0:0:
473,93,184529,1,2,0:0:0:0:
313,104,184693,6,0,P|289:181|342:242,2,170,6|2|8,0:0|0:0|0:0,0:0:0:0:
454,175,185512,1,2,0:0:0:0:
398,41,185676,1,2,0:0:0:0:
366,164,185840,6,0,P|287:180|230:121,1,170,2|2,0:0|0:0,0:0:0:0:
74,74,186332,2,0,P|93:113|95:155,1,85,2|0,0:0|0:0,0:0:0:0:
194,322,186660,2,0,P|196:279|214:241,1,85,8|2,0:0|0:0,0:0:0:0:
310,108,186988,2,0,L|398:87,1,85,0|2,0:0|0:0,0:0:0:0:
437,272,187315,6,0,P|355:255|282:295,2,170,6|2|8,0:0|0:0|0:0,0:0:0:0:
496,102,188135,1,2,0:0:0:0:
421,173,188299,1,2,0:0:0:0:
311,108,188463,6,0,P|229:124|156:84,1,170,2|2,0:0|0:0,0:0:0:0:
98,0,188955,1,2,0:0:0:0:
98,0,189283,1,8,0:0:0:0:
5,87,189447,1,2,0:0:0:0:
112,211,189611,1,2,0:0:0:0:
26,305,189774,1,2,0:0:0:0:
167,367,189938,6,0,P|250:354|335:345,2,170,6|2|8,0:0|0:0|0:0,0:0:0:0:
112,211,190758,1,2,0:0:0:0:
224,271,190922,1,2,0:0:0:0:
351,183,191086,6,0,P|370:101|371:16,1,170,2|2,0:0|0:0,0:0:0:0:
226,98,191578,2,0,P|211:137|204:179,1,85,2|0,0:0|0:0,0:0:0:0:
255,354,191906,1,8,0:0:0:0:
425,384,192070,2,0,P|440:305|374:258,1,170,2|2,0:0|0:0,0:0:0:0:
254,354,192561,6,0,P|172:364|106:315,2,170,6|2|8,0:0|0:0|0:0,0:0:0:0:
329,217,193381,1,2,0:0:0:0:
375,331,193545,1,2,0:0:0:0:
200,276,193709,6,0,P|189:191|187:106,1,170,2|2,0:0|0:0,0:0:0:0:
346,26,194201,1,2,0:0:0:0:
346,26,194529,1,8,0:0:0:0:
441,110,194693,2,0,P|440:173|425:244,1,127.5,2|0,0:0|0:0,0:0:0:0:
405,272,195020,1,8,0:0:0:0:
254,346,195184,6,0,P|173:358|116:298,2,170,6|2|8,0:0|0:0|0:0,0:0:0:0:
310,231,196004,1,2,0:0:0:0:
211,149,196168,1,2,0:0:0:0:
347,27,196332,6,0,L|326:157,1,127.5
310,231,196660,2,0,L|320:283,2,42.5,8|0|2,0:0|0:0|0:0,0:0:0:0:
211,149,196988,1,2,0:0:0:0:
369,97,197152,1,8,0:0:0:0:
381,96,197234,1,8,0:0:0:0:
393,95,197315,1,8,0:0:0:0:
313,231,197479,1,8,0:0:0:0:
325,230,197561,1,8,0:0:0:0:
337,229,197642,1,8,0:0:0:0:
349,228,197725,1,8,0:0:0:0:
361,227,197807,6,0,L|451:221,1,85,6|0,0:0|0:0,0:0:0:0:
211,150,198135,2,0,L|301:144,1,85,8|0,0:0|0:0,0:0:0:0:
447,222,198463,1,2,0:0:0:0:
393,95,198627,1,2,0:0:0:0:
306,315,198791,1,8,0:0:0:0:
475,360,198955,6,0,P|497:301|483:240,1,127.5,2|0,0:0|0:0,0:0:0:0:
447,222,199283,1,6,0:0:0:0:
306,315,199447,2,0,P|263:328|210:326,1,85,8|0,0:0|0:0,0:0:0:0:
159,289,199693,1,8,0:0:0:0:
159,289,199774,1,8,0:0:0:0:
244,194,199938,1,2,0:0:0:0:
398,296,200102,1,2,0:0:0:0:
340,153,200266,1,2,0:0:0:0:
340,153,200348,1,0,0:0:0:0:
340,153,200430,6,0,L|314:285,1,127.5,6|0,0:0|0:0,0:0:0:0:
306,313,200758,1,8,0:0:0:0:
471,55,201086,1,2,0:0:0:0:
436,177,201250,1,2,0:0:0:0:
361,73,201414,1,8,0:0:0:0:
479,168,201578,6,0,P|466:251|443:333,1,170,2|2,0:0|0:0,0:0:0:0:
272,335,202070,1,8,0:0:0:0:
208,203,202234,2,0,P|126:194|56:239,1,170,2|2,0:0|0:0,0:0:0:0:
189,331,202725,2,0,P|230:339|272:335,1,85,8|0,0:0|0:0,0:0:0:0:
372,192,203053,6,0,P|393:111|381:27,2,170,6|8|2,0:0|0:0|0:0,0:0:0:0:
237,270,203873,1,2,0:0:0:0:
299,141,204037,1,8,0:0:0:0:
444,245,204201,6,0,P|388:275|325:272,1,127.5,2|0,0:0|0:0,0:0:0:0:
289,248,204529,1,2,0:0:0:0:
375,360,204693,1,8,0:0:0:0:
510,296,204856,2,0,P|524:214|497:134,1,170,2|2,0:0|0:0,0:0:0:0:
411,17,205348,2,0,P|386:51|372:91,1,85,8|0,0:0|0:0,0:0:0:0:
289,247,205676,6,0,P|225:250|163:237,1,127.5,6|0,0:0|0:0,0:0:0:0:
112,190,206004,1,8,0:0:0:0:
112,190,206332,1,2,0:0:0:0:
134,318,206496,1,2,0:0:0:0:
218,113,206660,1,8,0:0:0:0:
72,119,206824,6,0,P|29:187|67:259,1,170,2|2,0:0|0:0,0:0:0:0:
207,198,207315,1,8,0:0:0:0:
406,213,207479,2,0,P|386:274|351:327,1,127.5,2|0,0:0|0:0,0:0:0:0:
311,342,207807,1,2,0:0:0:0:
207,198,207971,2,0,P|207:160|218:108,1,85,8|0,0:0|0:0,0:0:0:0:
271,0,208299,6,0,P|303:27|329:60,1,85,6|0,0:0|0:0,0:0:0:0:
406,213,208627,2,0,P|363:216|321:211,1,85,8|0,0:0|0:0,0:0:0:0:
124,129,208955,1,2,0:0:0:0:
177,303,209119,1,2,0:0:0:0:
208,198,209283,1,8,0:0:0:0:
99,51,209447,6,0,P|45:112|70:189,1,170,6|2,0:0|0:0,0:0:0:0:
265,306,209938,2,0,L|356:297,1,85,8|0,0:0|0:0,0:0:0:0:
157,202,210266,2,0,L|248:193,1,85,2|2,0:0|0:0,0:0:0:0:
391,118,210594,1,8,0:0:0:0:
437,227,210758,1,0,0:0:0:0:
265,306,210922,6,0,P|180:310|95:301,2,170,6|8|2,0:0|0:0|0:0,0:0:0:0:
339,204,211742,1,2,0:0:0:0:
423,344,211906,1,8,0:0:0:0:
489,245,212070,6,0,P|500:158|504:71,1,170,2|2,0:0|0:0,0:0:0:0:
377,29,212561,1,8,0:0:0:0:
277,129,212725,2,0,P|213:133|150:127,1,127.5,2|0,0:0|0:0,0:0:0:0:
109,110,213053,1,2,0:0:0:0:
38,257,213217,2,0,P|81:251|123:248,1,85,8|0,0:0|0:0,0:0:0:0:
336,294,213545,6,0,P|419:291|488:243,2,170,6|8|2,0:0|0:0|0:0,0:0:0:0:
247,213,214365,1,2,0:0:0:0:
306,378,214529,1,8,0:0:0:0:
416,290,214693,6,0,L|425:162,1,127.5,2|0,0:0|0:0,0:0:0:0:
428,120,215020,1,0,0:0:0:0:
266,34,215184,1,8,0:0:0:0:
181,129,215348,1,2,0:0:0:0:
343,230,215512,1,2,0:0:0:0:
274,122,215676,1,2,0:0:0:0:
185,329,215840,1,8,0:0:0:0:
248,218,216004,1,0,0:0:0:0:
143,57,216168,6,0,P|100:126|136:199,2,170,6|8|2,0:0|0:0|0:0,0:0:0:0:
294,30,216988,1,2,0:0:0:0:
313,189,217152,1,8,0:0:0:0:
179,132,217315,6,0,P|261:113|346:102,1,170,2|2,0:0|0:0,0:0:0:0:
474,237,217807,2,0,P|437:258|396:270,1,85,8|0,0:0|0:0,0:0:0:0:
284,346,218135,2,0,P|263:309|251:268,1,85,2|2,0:0|0:0,0:0:0:0:
347,104,218463,1,8,0:0:0:0:
474,238,218627,1,0,0:0:0:0:
312,231,218791,6,0,P|252:234|184:223,1,127.5,6|0,0:0|0:0,0:0:0:0:
126,172,219119,2,0,P|111:210|110:255,1,85,8|0,0:0|0:0,0:0:0:0:
123,294,219365,1,0,0:0:0:0:
123,294,219447,1,2,0:0:0:0:
226,368,219611,1,2,0:0:0:0:
311,231,219774,1,8,0:0:0:0:
209,104,219938,6,0,P|129:127|48:104,1,170,6|2,0:0|0:0,0:0:0:0:
48,104,220430,1,8,0:0:0:0:
123,294,220594,1,0,0:0:0:0:
213,204,220758,1,2,0:0:0:0:
130,38,220922,1,8,0:0:0:0:
130,38,221004,1,8,0:0:0:0:
130,38,221086,1,8,0:0:0:0:
130,38,221168,1,8,0:0:0:0:
130,38,221250,1,8,0:0:0:0:
130,38,221332,1,8,0:0:0:0:
130,38,221414,6,0,L|262:27,1,127.5,6|0,0:0|0:0,0:0:0:0:
329,60,221742,1,8,0:0:0:0:
213,204,221906,1,8,0:0:0:0:
359,158,222070,1,8,0:0:0:0:
223,229,222234,1,8,0:0:0:0:
369,270,222397,1,8,0:0:0:0:
217,250,222561,1,8,0:0:0:0:
346,107,222725,5,8,0:0:0:0:
293,268,222889,1,8,0:0:0:0:
179,141,223053,1,8,0:0:0:0:
359,158,223217,1,8,0:0:0:0:
259,295,223381,1,8,0:0:0:0:
190,139,223545,1,8,0:0:0:0:
359,158,223709,2,0,L|406:158,2,42.5,8|0|0,0:0|0:0|0:0,0:0:0:0:
256,192,224037,5,6,0:0:0:0:
256,192,224119,12,0,230594,0:0:0:0:
