osu file format v9

[General]
AudioFilename: Foreground Eclipse - Oath Of Allegiance.mp3
AudioLeadIn: 2007
PreviewTime: 105352
Countdown: 1
SampleSet: Soft
StackLeniency: 0.7
Mode: 0
LetterboxInBreaks: 1

[Editor]
DistanceSpacing: 1.8
BeatDivisor: 4
GridSize: 8

[Metadata]
Title:Oath Of Allegiance
Artist:Foreground Eclipse
Creator:[Ryuu]
Version:Meow
Source:Touhou
Tags:chen

[Difficulty]
HPDrainRate:8
CircleSize:4
OverallDifficulty:6
ApproachRate:7
SliderMultiplier:1.4
SliderTickRate:2

[Events]
//Background and Video events
0,0,"bg.png"
//Break Periods
//Storyboard Layer 0 (Background)
//Storyboard Layer 1 (Fail)
//Storyboard Layer 2 (Pass)
//Storyboard Layer 3 (Foreground)
//Storyboard Sound Samples
//Background Colour Transformations
3,100,163,162,255

[TimingPoints]
862.51691548063,408.163265306122,4,2,1,70,1,0
962.51691548063,-100,4,2,1,70,0,1
1984,-100,4,2,1,70,0,0
4127,-100,4,2,1,70,0,1
5250,-100,4,2,1,70,0,0
10658,-133.333333333333,4,2,1,70,0,0
46627,-100,4,2,1,70,0,0
105352,-100,4,2,1,70,0,1
132699,-100,4,2,1,25,0,0
138095,-100,4,2,1,50,0,0
164127,-100,4,2,1,70,0,0
190250,-100,4,2,1,70,0,1
214740,-100,4,2,1,70,0,0
216372,-100,4,2,1,70,0,1
217495,-100,4,2,1,70,0,0
219638,-100,4,2,1,70,0,1
220760,-100,4,2,1,70,0,0

[Colours]
Combo1 : 48,220,44
Combo2 : 221,62,102
Combo3 : 106,0,213
Combo4 : 230,74,0
Combo5 : 234,234,72

[HitObjects]
112,112,862,2,0,B|140:77|108:47,1,70,0|10
112,113,1270,2,0,B|67:106|57:148,1,70,0|10
112,113,1678,2,0,B|128:155|170:143,1,70,0|8
168,144,2087,1,0
56,144,2291,1,0
112,48,2495,1,10
112,112,3107,1,0
112,112,3311,1,10
408,304,4127,6,0,B|380:269|412:239,1,70,0|10
408,304,4535,2,0,B|453:297|463:339,1,70,0|10
408,304,4943,2,0,B|392:346|350:334,1,70,0|10
408,304,5352,1,0
408,304,5556,1,0
408,304,5760,1,10
112,112,6372,1,0
408,304,6984,1,10
432,72,7393,5,0
256,344,8005,1,10
80,72,8617,1,0
256,72,9025,1,10
176,192,9638,1,0
80,72,10250,1,10
400,104,10658,6,0,B|360:112|360:71|400:55|400:104|400:104,1,78.7499976530672
400,104,11270,1,8
400,104,11474,2,0,B|440:96|440:135|399:152|400:104|400:104,1,78.7499976530672,0|2
400,104,12087,5,8
400,104,12291,1,2
176,296,12699,1,10
256,104,13107,1,10
328,296,13515,1,10
104,104,13923,5,10
72,192,14127,1,0
72,192,14331,1,8
136,288,14535,1,0
136,288,14740,1,8
256,304,14944,1,0
256,304,15148,1,8
352,240,15352,1,0
352,240,15556,1,8
480,264,15760,6,0,B|496:240|480:216,1,52.4999984353781,0|8
392,200,16168,2,0,B|376:176|392:152,1,52.4999984353781,0|8
288,104,16576,2,0,B|304:128|288:152,1,52.4999984353781,0|8
175,32,16984,2,0,B|160:56|179:82,1,52.4999984353781,0|8
232,256,17393,5,0
232,256,17597,1,8
92,32,17801,2,0,B|39:32,1,52.4999984353781,0|8
232,256,18209,1,0
232,256,18413,1,8
88,160,18617,2,0,B|140:160,1,52.4999984353781,0|8
295,89,19025,5,0
295,89,19229,1,8
235,253,19434,1,0
235,253,19637,1,8
395,324,19842,1,0
395,324,20046,1,8
456,160,20251,1,0
456,160,20454,1,8
112,120,20658,6,0,B|164:139,1,52.4999984353781,0|8
112,120,21066,2,0,B|90:180,1,52.4999984353781,0|8
112,120,21474,2,0,B|44:95,1,52.4999984353781,0|8
112,120,21882,2,0,B|136:52,1,52.4999984353781,0|8
288,256,22291,5,2
288,256,22495,1,10
288,256,22699,2,0,B|336:200,1,52.4999984353781,0|8
416,280,23107,5,2
416,280,23311,1,10
416,280,23515,2,0,B|376:328,1,52.4999984353781,0|8
296,48,23923,5,2
296,48,24127,2,0,B|312:72|296:96,1,52.4999984353781,10|0
160,208,24535,1,8
160,208,24740,2,0,B|144:232|160:256,1,52.4999984353781,2|0
224,312,25148,5,2
312,312,25352,1,8
312,184,25556,1,2
392,184,25760,1,2
392,64,25964,1,8
456,264,26168,6,0,B|424:248|392:272,1,52.4999984353781,8|2
400,264,26576,2,0,B|368:272|336:256,1,52.4999984353781,0|2
348,262,26984,1,4
256,144,27597,2,4,B|320:144,1,52.4999984353781
456,48,28413,2,4,B|392:48,1,52.4999984353781
304,144,29025,1,10
152,288,29433,1,10
0,144,29842,1,10
152,288,30250,5,2
288,152,30658,1,8
304,248,30862,1,0
376,304,31066,1,8
464,272,31270,1,0
480,176,31474,1,8
456,88,31678,2,0,B|440:64|392:48|360:48|320:72,1,131.249996088445,8|0
264,72,32291,6,0,B|240:56|216:72,1,52.4999984353781,8|0
112,160,32699,2,0,B|136:144|162:161,1,52.4999984353781,8|0
264,248,33107,2,0,B|240:232|216:248,1,52.4999984353781,8|0
256,336,33515,5,4
160,232,34127,1,0
152,224,34331,1,12
352,232,34944,1,0
360,224,35148,1,12
152,224,35556,1,2
360,224,35964,1,10
152,224,36372,1,2
256,120,36780,1,10
256,232,37189,5,0
344,176,37393,1,2
256,120,37597,1,8
168,176,37801,1,0
256,232,38005,1,2
344,176,38209,1,8
464,232,38821,6,0,B|464:288,1,52.4999984353781,8|0
368,328,39229,2,0,B|368:275,1,52.4999984353781,8|0
448,72,39638,5,8
288,72,40046,2,0,B|256:72|256:112,1,52.4999984353781,0|8
288,248,40658,2,8,B|288:280|256:280,1,52.4999984353781
256,280,41066,1,8
256,104,41474,2,0,B|255:70|287:70,1,52.4999984353781,0|8
256,280,42087,1,8
384,136,42495,1,0
320,208,42903,1,8
448,64,43311,5,0
448,192,43719,1,0
376,256,43923,1,8
304,192,44127,1,0
232,256,44331,1,0
160,192,44535,1,8
88,256,44740,1,4
328,56,45148,5,2
280,152,45352,1,0
280,152,45556,1,8
200,72,45760,1,0
200,72,45964,1,8
328,56,46168,1,2
40,192,46576,5,8
112,48,47189,2,0,B|152:64|152:112,1,70,0|8
112,336,48005,2,0,B|152:320|152:272,1,70,0|8
304,192,48617,1,0
472,160,49025,1,8
360,56,49433,1,0
384,136,49842,5,2
360,56,50250,2,0,B|308:107,1,70,0|8
384,136,50658,2,0,B|437:188,1,70,0|8
352,208,51066,2,0,B|295:264,1,70,0|8
304,256,51882,5,0
208,256,52087,1,8
256,192,52291,1,2
256,64,52699,1,0
256,192,53107,1,2
120,192,53719,1,0
112,192,53923,1,10
392,192,54535,1,0
400,192,54739,1,10
256,320,55148,1,8
256,64,55556,1,10
256,64,55964,1,0
448,304,56372,5,0
408,160,56678,1,10
312,248,56984,1,0
312,248,57189,1,10
256,120,57597,1,0
200,248,58005,1,10
104,160,58413,1,0
64,304,58821,1,2
64,304,59025,1,8
64,304,59229,1,2
184,56,59638,5,2
96,144,59944,1,8
208,168,60250,1,2
160,120,60454,1,8
160,120,60862,1,0
384,168,61270,5,0
384,168,61576,1,8
400,96,61882,5,0
328,112,62087,1,8
304,184,62291,1,0
352,240,62495,1,8
424,232,62699,1,0
384,168,62903,5,8
384,168,63209,1,2
384,320,63515,1,2
384,320,63719,1,8
240,256,64127,1,0
240,256,64535,1,8
88,72,65352,6,0,B|152:48,1,70,0|8
256,96,65760,2,8,B|176:128,1,70,0|8
191,121,66168,1,0
80,208,66372,5,8
152,232,66576,2,0,B|200:256|248:216,2,70,0|8|0
96,288,67189,1,8
80,208,67393,2,0,B|80:168|48:144,2,70,8|8|8
96,288,68005,5,0
152,232,68209,2,8,B|184:200|224:200,1,70,0|8
304,184,68617,2,8,B|304:136|248:120,1,70,0|8
176,96,69025,2,8,B|200:56|240:40,1,70,0|8
312,40,69433,5,8
368,96,69638,2,0,B|392:128|464:104,2,70,0|8|0
304,160,70250,1,8
256,96,70455,2,0,B|224:120|224:168,2,70,0|8|8
88,72,71270,5,0
88,72,71474,2,0,B|104:96|80:128|96:160,1,70,2|8
136,192,71882,1,0
200,224,72087,1,8
264,248,72291,2,0,B|280:272|256:304|272:336,1,70,2|8
432,160,72699,5,2
216,296,73311,2,0,B|176:304|200:256|240:256|208:320,1,70,0|8
216,296,74127,2,8,B|256:288|231:336|191:336|223:272,1,70,8|0
128,160,74740,1,2
256,48,75148,1,8
384,160,75556,1,2
256,160,75964,5,2
192,248,76372,1,0
184,256,76576,1,2
256,256,76780,1,0
256,272,76984,1,2
320,248,77189,1,0
328,256,77393,1,2
448,64,78005,5,10
368,64,78413,1,10
288,64,78821,1,10
440,160,79229,6,0,B|464:192|440:232,1,70,0|8
320,320,79842,2,0,B|272:312|256:264,1,70,0|8
265,285,80250,1,2
160,184,80658,1,8
160,184,80862,2,2,B|188:115|296:120,2,140
248,216,82087,1,8
376,160,82495,5,2
320,88,82903,1,0
320,88,83107,1,8
328,240,83311,1,0
328,240,83515,1,8
464,152,83719,1,0
464,152,83923,1,8
208,64,84535,5,10
152,128,84944,1,10
128,208,85352,1,10
80,304,85760,5,10
96,224,86372,2,0,B|144:224|144:168,1,70,8|0
264,128,87189,2,0,B|216:128|216:72,1,70,0|8
264,296,87801,1,0
96,224,88209,1,8
264,128,88617,1,0
448,64,89025,5,0
344,64,89433,2,0,B|274:64,1,70,0|8
326,185,89841,2,0,B|376:136,1,70,0|8
448,160,90250,2,0,B|448:230,1,70,0|8
192,64,91066,6,10,B|96:64|96:176,2,140,10|2|10
208,168,92291,1,8
272,264,92903,2,0,B|312:264|312:216,1,70,0|8
208,168,93719,1,0
208,168,93923,1,8
128,240,94331,1,2
288,96,94740,1,8
288,96,95148,5,0
376,88,95556,2,0,B|432:96|456:160,1,105,8|2
456,152,96168,1,2
456,152,96372,1,8
400,248,96780,2,10,B|352:224|312:256,1,70
328,336,97189,2,0,B|288:352|248:328,1,70
264,248,97597,2,10,B|220:226|176:256,1,70
192,336,98005,2,0,B|152:352|112:328,1,70
128,248,98413,1,10
64,64,98821,5,2
64,176,99127,1,8
176,64,99433,1,0
120,120,99638,1,8
232,224,100046,1,0
176,176,100454,1,2
288,280,100760,1,8
304,208,101066,5,2
216,296,101270,1,8
248,152,101474,1,2
160,248,101678,1,8
440,64,102087,5,0
440,64,102393,1,8
368,152,102699,2,0,B|328:136|336:96,1,70,0|8
256,288,103311,1,0
256,96,103719,1,8
160,192,104127,1,0
352,192,104535,1,2
256,192,104944,1,8
128,96,105352,5,2
208,40,105556,1,8
304,40,105760,1,2
384,96,105964,1,8
104,192,106372,5,2
128,288,106576,1,8
208,344,106780,1,2
304,344,106984,1,8
384,288,107189,1,2
408,192,107393,1,8
256,192,107801,1,10
256,192,108209,1,10
160,192,108617,6,0,B|120:176|88:192,1,70,2|8
352,192,109025,2,0,B|392:176|424:192,1,70,2|8
256,192,109433,1,8
256,112,109638,1,0
256,272,109842,1,8
352,192,110046,1,0
160,192,110250,1,8
256,336,110658,1,2
256,48,111066,1,2
256,48,111474,1,8
440,64,111882,6,0,B|456:104|440:144,1,70,2|8
344,136,112291,2,0,B|328:176|344:216,1,70,2|8
200,208,112903,2,0,B|216:240|200:296,1,70,2|8
112,280,113311,2,0,B|96:320|112:360,1,70,2|8
288,328,114127,1,0
368,224,114740,1,8
448,328,115148,1,0
368,224,115760,5,8
448,112,116168,1,8
288,112,116576,1,2
288,112,116780,1,8
192,48,117189,2,0,B|152:32|120:48,1,70,8|0
123,177,117597,2,0,B|152:192|192:176,1,70,8|0
32,112,118005,1,2
96,296,118413,5,0
160,296,118617,1,8
224,192,118821,1,0
288,192,119025,1,8
408,88,119433,5,0
472,88,119638,1,8
408,88,119842,1,0
408,24,120046,1,8
408,88,120250,1,0
344,88,120454,1,8
288,192,120862,1,2
160,296,121270,1,2
160,136,121678,6,0,B|152:88|168:56,1,70,0|8
160,136,122087,2,0,B|176:184|152:216,1,70,0|8
160,136,122699,6,0,B|112:144|79:128,1,70,0|8
160,136,123108,2,0,B|208:120|240:144,1,70,0|8
48,64,123719,1,2
264,64,124127,1,2
160,200,124535,1,8
432,48,124944,6,0,B|432:120,1,70,0|8
320,120,125352,2,0,B|320:208,1,70,0|8
320,256,125964,6,0,B|320:186,1,70,0|8
432,328,126372,2,0,B|432:248,1,70,0|8
256,192,127189,1,2
80,192,127801,1,8
432,192,128209,1,2
358,76,128617,5,8
358,294,129025,1,2
140,294,129433,1,8
140,76,129842,1,2
256,192,130658,2,0,B|224:176|208:144|256:128|296:152|296:176|248:192,1,140,2|8
256,192,131474,12,8,132699
152,56,133107,5,8
360,56,133413,1,8
256,192,133719,1,2
256,192,133923,1,8
360,328,134740,5,8
152,328,135046,1,8
256,192,135352,1,2
256,192,135556,1,8
400,192,136372,5,8
112,192,136678,1,8
256,192,136984,1,2
256,192,137188,1,8
64,120,138005,5,8
80,104,138209,1,8
96,96,138413,1,8
184,48,138617,2,0,B|216:24|248:48,1,70,8|2
240,176,139127,2,0,B|288:208|344:176,1,105,2|8
344,48,139842,5,8
448,48,140046,2,0,B|448:120,1,70,2|8
448,120,140454,1,8
448,120,140760,1,8
448,232,141066,2,0,B|448:288|400:288,1,70,2|8
151,222,141678,1,2
285,303,142087,1,8
366,168,142495,1,2
232,88,142903,1,8
97,62,143311,5,0
206,219,143515,1,8
232,88,143719,1,0
74,195,143923,1,8
153,143,144127,1,2
56,304,144535,5,8
80,304,144740,1,8
104,304,144944,1,8
208,304,145148,2,0,B|256:304|256:248,1,70,2|8
256,120,145658,1,0
256,264,145964,1,8
376,192,146372,5,0
376,192,146576,1,8
376,48,146780,2,0,B|328:48|288:48,1,70,0|8
440,48,147291,1,8
168,48,147597,1,0
168,48,147801,1,8
304,48,148209,2,0,B|280:80|304:120,1,70,0|8
384,120,148617,2,0,B|400:160|384:208,1,70,0|8
304,192,149025,2,0,B|280:232|304:272,1,70,0|8
392,264,149433,2,0,B|408:296|392:336,1,70,0|8
256,312,150046,5,10
176,232,150454,1,10
104,136,150862,2,0,B|144:120|176:136,1,70,2|8
380,50,151678,6,0,B|352:32|312:48,1,70,2|8
168,128,152189,2,0,B|216:105|269:127,1,105,8|0
472,88,152903,1,0
472,88,153107,1,8
272,128,153311,1,0
272,128,153515,1,8
408,272,153821,1,8
384,160,154127,1,2
384,160,154331,5,8
320,224,154740,1,2
256,160,155148,1,8
192,224,155556,1,2
128,160,155964,1,8
312,96,156372,1,2
256,272,156780,1,2
192,96,157189,1,10
256,328,157597,5,8
208,72,158209,1,0
360,160,158413,1,8
152,160,158719,1,0
304,72,159025,1,0
328,232,159433,6,0,B|368:216|408:240,1,70,0|8
184,232,159842,2,0,B|144:248|96:224,1,70,0|8
208,168,160352,2,0,B|253:145|309:169,1,105,0|8
256,232,160862,1,10
192,168,161270,5,2
320,168,161678,1,8
440,168,162087,1,2
72,168,162495,1,8
192,168,162903,1,2
320,168,163311,1,8
256,168,163719,1,2
312,304,164127,6,0,B|384:288|456:304,2,140,8|0|8
192,304,165148,1,0
256,232,165352,1,8
312,304,165556,1,0
200,112,165760,6,8,B|128:96|56:112,2,140
320,112,166781,1,0
256,40,166985,1,8
200,112,167189,1,0
56,216,167393,6,0,B|112:240|208:216,1,140,8|0
224,272,168005,1,2
208,328,168209,2,0,B|128:344|64:320,1,140,8|0
32,272,168821,1,2
224,272,169025,1,8
305,99,169433,5,0
448,144,169638,1,8
340,239,169842,1,0
448,144,170046,1,8
305,99,170250,1,0
340,239,170454,1,8
176,136,170658,5,2
112,240,171066,2,0,B|134:265|175:259,1,70,0|8
304,120,171474,2,0,B|303:76|268:56,1,70,0|8
104,40,171882,2,0,B|66:52|54:94,1,70,0|8
176,136,172291,5,2
106,119,172699,2,0,B|113:80|152:72,1,70,0|8
218,75,173107,2,0,B|247:92|248:136,1,70,0|8
200,200,173515,2,0,B|159:214|133:193,1,70,0|8
176,136,173923,1,2
248,136,174331,6,0,B|288:104|328:112,1,70,0|8
312,152,174740,2,0,B|352:136|392:160,1,70,0|8
352,200,175148,2,0,B|394:202|420:228,1,70,0|8
272,216,175556,1,2
336,280,175964,5,0
416,280,176168,1,8
480,160,176372,2,0,B|392:160,1,70,0|8
328,48,176780,1,0
408,48,176984,1,8
256,152,177189,5,0
96,64,177597,1,8
88,248,178005,1,8
144,160,178413,1,8
144,160,178515,1,8
144,160,178617,1,8
256,152,178821,5,0
416,64,179229,1,8
424,248,179637,1,8
368,160,180045,1,8
368,160,180147,1,8
368,160,180249,1,8
424,248,180454,6,0,B|392:279|363:279,1,70,0|8
256,280,180862,2,0,B|256:210,1,70,0|8
148,279,181270,2,0,B|120:279|88:248,1,70,0|8
256,280,181678,1,8
256,280,181780,1,8
256,280,181882,1,8
184,152,182087,5,0
328,144,182291,1,8
216,88,182495,1,0
296,216,182699,1,8
288,88,182903,1,0
216,216,183107,1,8
256,152,183311,1,8
256,152,183413,1,8
256,152,183515,1,8
336,72,183719,6,0,B|408:72,1,70,0|8
368,104,184127,2,0,B|456:104,1,70,0|8
392,136,184535,2,0,B|472:136,1,70,0|8
424,168,184944,1,8
456,168,185046,1,8
480,168,185148,1,8
399,297,185352,5,0
399,297,185556,1,8
261,195,185760,1,0
261,195,185964,1,8
199,355,186168,1,0
199,355,186372,1,8
290,295,186576,1,8
290,295,186678,1,8
290,295,186780,1,8
86,330,186984,5,0
121,276,187188,1,8
106,42,187392,1,0
134,100,187597,1,8
327,202,187801,1,0
263,198,188005,1,8
175,192,188209,1,8
175,192,188311,1,8
175,192,188413,1,8
336,104,188617,5,2
368,160,188821,5,8
320,208,189025,5,2
264,176,189229,5,8
272,112,189433,5,2
312,152,189842,5,8
117,131,190250,5,0
56,240,190454,1,8
164,301,190658,1,0
226,193,190862,1,8
216,112,191270,6,0,B|272:112|296:152,1,70,0|8
240,272,191678,2,0,B|204:270|164:246,1,70,0|8
216,112,192087,2,0,B|272:112|296:152,1,70,0|8
448,64,192699,1,2
448,64,193107,1,2
336,304,193515,5,8
240,232,193719,2,0,B|256:192|304:192,2,70,0|8|2
194,75,194535,1,2
296,192,194740,1,0
346,45,194944,1,8
280,104,195148,1,2
440,192,195556,1,8
256,192,195964,1,2
72,192,196372,1,8
72,320,196780,6,0,B|112:320|152:304,1,70,0|8
144,200,197189,2,0,B|184:184|240:192,1,70,0|8
328,320,197801,2,0,B|360:288|360:240,2,70,2|0|2
256,248,198413,1,8
256,80,199025,1,8
384,192,199638,1,2
384,192,200046,1,8
128,192,200454,1,2
144,96,200862,6,0,B|200:88|256:56,2,105,8|0|8
144,96,201678,1,2
80,288,202087,1,8
304,232,202495,1,2
144,96,202903,1,8
336,88,203311,6,0,B|376:72|424:96,1,70,0|8
400,88,203719,2,0,B|448:104|456:144,1,70,0|8
201,137,204331,1,0
310,246,204535,1,8
236,117,204740,1,0
275,266,204944,1,8
275,117,205148,1,0
236,266,205352,1,8
88,224,205760,6,0,B|72:192|91:148,2,70,8|2|8
144,192,206372,1,2
256,48,206576,1,8
256,48,206780,1,2
368,192,206984,1,8
368,192,207189,1,2
144,192,207597,6,8,B|192:128,1,70,0|8
256,192,208005,1,0
256,192,208209,1,8
368,192,208617,1,0
256,48,209025,1,8
144,192,209433,1,0
32,304,209842,6,0,B|48:264|96:264,2,70,8|0|8
96,336,210454,1,2
224,336,210862,1,8
295,274,211066,1,2
366,336,211270,1,8
489,214,211474,6,0,B|492:256|457:271,1,70,0|8
395,200,211882,1,4
360,111,212087,2,0,B|394:88|425:111,1,70,8|0
395,200,212495,1,4
335,273,212699,2,0,B|298:255|302:217,1,70,8|0
395,200,213107,1,10
336,272,213515,1,8
360,112,213923,1,2
488,216,214331,1,8
256,192,214740,12,8,215964
432,64,216372,6,0,B|392:48|352:72,1,70,0|8
368,176,216780,2,0,B|400:192|456:168,1,70,0|8
400,120,217189,1,0
432,64,217597,5,0
400,120,217801,1,8
368,176,218005,1,0
344,88,218617,1,0
456,152,218821,1,8
80,320,219638,6,0,B|120:336|160:312,1,70,0|8
144,208,220046,2,0,B|112:192|56:216,1,70,0|8
112,264,220455,1,0
256,192,220862,5,0
256,192,221066,1,8
256,192,221270,1,0
256,328,221882,1,0
256,56,222495,1,2
440,328,222903,5,2
312,312,223515,2,0,B|312:272|352:240,1,70,0|8
450,190,224127,2,0,B|416:184|384:208,1,70,0|8
400,272,224535,5,2
352,152,225148,2,0,B|304:160|296:208,1,70,0|8
400,272,225760,1,2
256,304,226168,5,2
144,128,226474,1,8
368,128,226780,1,2
256,128,226984,5,2
144,304,227291,1,8
368,304,227597,1,2
256,176,227801,5,14
240,192,228209,1,14
256,208,228617,1,14
272,192,229025,1,14
256,192,229433,12,8,238005
