osu file format v14

[General]
AudioFilename: lkjhur.mp3
AudioLeadIn: 0
PreviewTime: 147558
Countdown: 0
SampleSet: Soft
StackLeniency: 0.7
Mode: 0
LetterboxInBreaks: 0
WidescreenStoryboard: 0

[Editor]
DistanceSpacing: 1.4
BeatDivisor: 4
GridSize: 4
TimelineZoom: 1.4

[Metadata]
Title:Noble
TitleUnicode:Noble
Artist:Foreground Eclipse
ArtistUnicode:Foreground Eclipse
Creator:EvilElvis
Version:Insane
Source:ひぐらしのなく頃に解
Tags:めらみぽっぷ Meramipop Merami Teto Each And Every Word Leaves Me Here Alone Higurashi no Naku Koro ni Kai Thanks/You you 07th Expansion dai C81
BeatmapID:699391
BeatmapSetID:313282

[Difficulty]
HPDrainRate:7
CircleSize:4
OverallDifficulty:7.5
ApproachRate:8.7
SliderMultiplier:1.7
SliderTickRate:1

[Events]
//Background and Video events
0,0,"bf.jpg",0,0
//Break Periods
2,12761,15345
2,144787,146913
//Storyboard Layer 0 (Background)
//Storyboard Layer 1 (Fail)
//Storyboard Layer 2 (Pass)
//Storyboard Layer 3 (Foreground)
//Storyboard Sound Samples

[TimingPoints]
1060,731.707317073171,4,2,1,20,1,0
8367,769.230769230769,4,2,1,20,1,0
9899,809.726530612243,4,2,1,20,1,0
11513,967.741935483871,4,2,1,20,1,0
11998,1071.42857142857,4,2,1,20,1,0
12561,862.065217391302,4,2,1,20,1,0
15990,365.853658536585,4,2,1,60,1,0
22209,-200,4,2,1,60,0,0
22575,-100,4,2,1,60,0,0
39496,-100,4,2,1,20,0,0
51111,-133.333333333333,4,2,1,40,0,0
74709,-133.333333333333,4,2,1,20,0,0
85502,-133.333333333333,4,2,1,25,0,0
109648,-133.333333333333,4,2,1,50,0,0
132697,-200,4,2,1,25,0,0
144587,-200,4,2,1,15,0,0
147558,365.853658536585,4,2,1,60,1,0
147558,-200,4,2,1,60,0,0
148292,365.853658536585,4,2,5,100,1,0
148292,-76.9230769230769,4,2,5,100,0,1
148657,-100,4,2,1,70,0,1
154511,-200,4,2,1,60,0,0
154877,-100,4,2,1,60,0,1
159267,-100,4,2,1,60,0,0
159999,-100,4,2,1,60,0,1
171706,-200,4,2,1,60,0,0
171889,-200,4,2,1,25,0,0
182682,-100,4,2,1,60,0,1
182956,-100,4,2,1,60,0,0
183413,-100,4,2,1,60,0,0
183779,-133.333333333333,4,2,1,60,0,0
184877,-100,4,2,1,60,0,0
185243,-133.333333333333,4,2,1,60,0,0
186340,-100,4,2,1,60,0,0
186706,-133.333333333333,4,2,1,60,0,0
187804,-100,4,2,1,60,0,0
188535,-200,4,2,1,60,0,1
189450,-133.333333333333,4,2,1,60,0,0
190731,-100,4,2,1,60,0,0
191096,-133.333333333333,4,2,1,60,0,0
192194,-100,4,2,1,60,0,0
192560,-133.333333333333,4,2,1,60,0,0
193657,-100,4,2,1,60,0,0
194389,-200,4,2,1,60,0,1
195121,-100,4,2,1,60,0,0
195487,-133.333333333333,4,2,1,60,0,0
195852,-200,4,2,1,60,0,1
196584,-100,4,2,1,60,0,0
198413,-133.333333333333,4,2,1,60,0,0
199511,-100,4,2,1,60,0,1
199694,-100,4,2,1,60,0,0
200243,-100,4,2,1,60,0,1
200426,-100,4,2,1,60,0,0
201706,-200,4,2,1,60,0,1
202438,-100,4,2,1,60,0,0
204267,-133.333333333333,4,2,1,60,0,0
205365,-100,4,2,1,60,0,0
206462,-100,4,2,1,60,0,1
206828,-100,4,2,1,30,0,0
211401,-100,4,1,1,60,0,1
212682,-100,4,2,1,25,0,0
217438,-133.333333333333,4,2,1,25,0,0
217621,-133.333333333333,4,2,1,50,0,0
217804,-133.333333333333,4,2,1,50,0,1
218170,-200,4,2,1,60,0,0
218535,-100,4,2,1,60,0,0
239023,-133.333333333333,4,2,1,60,0,1
241401,-133.333333333333,4,2,1,60,0,0
241950,-100,4,2,1,60,0,1
248170,-200,4,2,1,60,0,0
248535,-100,4,2,1,60,0,1
252926,-100,4,2,1,60,0,0
253657,-100,4,2,1,60,0,1
265365,-200,4,2,1,60,0,0
274877,-133.333333333333,4,2,1,60,0,0
276340,-133.333333333333,4,2,1,60,0,1
276523,-133.333333333333,4,2,1,60,0,0
276706,-133.333333333333,4,2,1,60,0,1
276889,-133.333333333333,4,2,1,60,0,0
277072,-90.9090909090909,4,2,1,70,0,1
288779,-200,4,2,1,60,0,0
290243,-200,4,2,1,25,0,0
319551,379.746835443038,4,2,1,60,1,0
319551,-200,4,2,1,25,0,0
320270,357.142857142857,4,2,1,60,1,0
320270,-200,4,2,1,25,0,0
320627,361.44578313253,4,2,1,15,1,0
320807,428.571428571429,4,2,1,10,1,0
320807,-200,4,2,1,25,0,0
321815,365.853658536585,4,2,1,15,1,0
321815,-200,4,2,1,15,0,0
321998,487.80487804878,4,2,1,15,1,0
322240,444.444444444444,4,2,1,15,1,0
322462,521.739130434783,4,2,1,15,1,0
325070,-200,4,2,1,5,0,0

[Colours]
Combo1 : 17,254,176
Combo2 : 173,255,95
Combo3 : 255,88,100
Combo4 : 255,94,55

[HitObjects]
61,47,1061,5,0,0:0:0:0:
61,47,1426,1,0,0:0:0:0:
61,47,1792,1,0,0:0:0:0:
61,47,2524,6,0,P|105:43|154:44,1,85
219,75,3256,1,0,0:0:0:0:
219,75,3987,6,0,P|262:77|308:73,1,85
369,27,4719,1,0,0:0:0:0:
488,189,5451,5,0,0:0:0:0:
476,273,5817,1,0,0:0:0:0:
462,357,6182,1,0,0:0:0:0:
39,276,6914,5,0,0:0:0:0:
51,192,7280,1,0,0:0:0:0:
63,107,7645,1,0,0:0:0:0:
288,366,8367,6,0,P|241:362|196:358,2,85
255,27,9899,5,0,0:0:0:0:
179,35,10303,1,0,0:0:0:0:
101,43,10708,1,0,0:0:0:0:
101,43,11513,5,0,0:0:0:0:
179,35,11998,1,0,0:0:0:0:
255,27,12561,1,0,0:0:0:0:
55,94,15990,6,0,P|96:84|142:96,1,85,6|2,1:0|0:0,0:0:0:0:
150,234,16355,2,0,P|103:244|59:238,1,85,0|0,1:0|0:0,0:0:0:0:
201,165,16721,2,0,B|299:183|266:127|368:146,1,170,10|0,1:0|1:0,0:0:0:0:
494,45,17270,1,2,1:2:0:0:
229,5,17453,6,0,P|232:51|231:99,1,85,0|0,1:0|1:2,0:0:0:0:
465,158,17819,2,0,P|441:104|341:55,1,170,0|8,1:0|1:0,0:0:0:0:
345,55,18550,1,0,1:0:0:0:
239,164,18733,1,0,1:2:0:0:
350,314,18916,6,0,P|348:247|347:143,1,170,6|0,1:0|1:0,0:0:0:0:
265,265,19465,2,0,P|266:307|268:350,2,85,2|8|0,1:0|1:0|0:0,0:0:0:0:
226,195,20014,1,2,1:0:0:0:
172,272,20197,1,2,1:0:0:0:
30,148,20380,5,0,0:0:0:0:
135,188,20563,1,2,1:0:0:0:
80,284,20746,1,2,1:0:0:0:
32,193,20929,1,0,1:0:0:0:
32,193,21020,1,0,1:0:0:0:
32,193,21111,2,0,L|44:97,1,85,10|2,1:0|0:1,0:0:0:0:
68,30,21477,1,4,1:2:0:0:
157,302,21660,1,0,1:0:0:0:
315,146,21843,5,4,1:0:0:0:
315,146,22209,2,0,L|253:153,1,42.5,4|0,0:0|1:0,0:0:0:0:
253,142,22483,1,0,1:0:0:0:
233,133,22575,6,0,L|226:265,1,127.5,8|0,1:0|0:0,0:0:0:0:
244,282,22941,1,0,1:0:0:0:
417,218,23124,1,2,1:0:0:0:
327,251,23307,5,0,0:0:0:0:
494,357,23489,1,2,1:0:0:0:
321,349,23672,1,0,1:0:0:0:
483,253,23855,1,0,0:0:0:0:
483,253,24038,2,0,L|488:118,1,127.5,10|0,1:0|0:0,0:0:0:0:
487,125,24404,2,0,P|443:117|395:117,1,85,2|2,1:0|1:0,0:0:0:0:
251,196,24770,6,0,P|243:140|256:49,1,127.5,2|0,1:0|0:0,0:0:0:0:
250,69,25136,2,0,P|290:67|345:73,1,85,2|2,1:0|1:0,0:0:0:0:
361,271,25502,2,0,L|366:183,1,85,8|0,1:0|0:0,0:0:0:0:
245,272,25868,1,2,1:0:0:0:
452,338,26050,1,2,1:0:0:0:
323,354,26233,6,0,L|233:367,1,85,0|2,0:0|1:0,0:0:0:0:
45,239,26599,1,2,1:0:0:0:
45,239,26965,1,0,1:0:0:0:
67,218,27057,1,0,1:0:0:0:
95,208,27148,1,0,1:0:0:0:
124,211,27239,1,0,1:0:0:0:
149,226,27331,1,4,1:2:0:0:
175,239,27422,1,0,1:0:0:0:
204,246,27514,1,0,1:0:0:0:
233,241,27605,1,0,0:0:0:0:
255,221,27697,6,0,L|257:318,1,85,4|2,1:0|0:0,0:0:0:0:
463,359,28063,2,0,P|452:310|348:257,1,170,0|8,1:0|1:0,0:0:0:0:
376,174,28611,1,0,0:0:0:0:
259,123,28794,2,0,P|292:106|341:100,1,85,0|0,1:0|1:0,0:0:0:0:
476,68,29160,2,0,P|438:49|390:49,1,85,0|0,0:0|1:0,0:0:0:0:
152,198,29526,6,0,L|163:28,1,170,0|8,1:0|1:0,0:0:0:0:
70,27,30075,1,0,0:0:0:0:
6,110,30258,1,0,1:0:0:0:
65,195,30441,1,0,1:0:0:0:
319,295,30624,6,0,P|306:223|228:162,1,170,2|0,1:0|0:0,0:0:0:0:
128,364,31172,1,2,1:0:0:0:
28,293,31355,2,0,P|65:267|207:262,1,170,8|2,1:0|1:0,0:0:0:0:
274,136,31904,6,0,L|277:44,2,85,2|0|2,0:0|1:0|1:0,0:0:0:0:
256,317,32453,1,4,1:2:0:0:
349,192,32636,1,0,0:0:0:0:
179,248,32819,1,10,1:0:0:0:
361,310,33002,1,2,1:0:0:0:
171,143,33185,1,2,1:0:0:0:
454,268,33368,5,0,1:0:0:0:
454,268,33459,1,0,1:0:0:0:
454,268,33550,2,0,B|428:176|487:216|452:77,1,170,6|0,1:0|1:0,0:0:0:0:
391,31,34099,1,0,0:0:0:0:
260,135,34282,2,0,L|344:146,1,85,10|0,1:0|0:0,0:0:0:0:
214,39,34648,1,2,1:0:0:0:
214,39,34831,1,2,1:0:0:0:
391,31,35014,6,0,L|298:57,1,85,0|2,0:0|1:0,0:0:0:0:
497,220,35380,2,0,P|479:152|388:109,1,170,2|10,1:0|1:0,0:0:0:0:
278,219,35929,1,2,1:0:0:0:
387,368,36111,2,0,L|381:267,1,85,2|0,1:0|1:0,0:0:0:0:
109,331,36477,6,0,L|264:327,1,127.5,4|0,1:0|0:0,0:0:0:0:
255,347,36843,1,0,1:0:0:0:
137,243,37026,1,0,1:0:0:0:
36,372,37209,2,0,L|15:170,1,170,10|2,1:0|1:0,0:0:0:0:
119,84,37758,5,2,1:0:0:0:
119,84,37849,1,0,0:0:0:0:
119,84,37941,2,0,L|25:106,1,85,2|2,1:0|0:0,0:0:0:0:
246,171,38307,1,0,1:0:0:0:
205,78,38489,1,2,0:1:0:0:
223,253,38672,1,10,1:0:0:0:
309,101,38855,1,0,0:0:0:0:
155,175,39038,1,2,1:0:0:0:
330,216,39221,1,0,1:0:0:0:
443,191,39404,5,4,1:0:0:0:
440,207,39770,1,0,0:0:0:0:
438,223,40136,1,0,0:0:0:0:
245,30,40868,5,0,0:0:0:0:
256,61,41234,1,0,0:0:0:0:
266,93,41600,1,0,0:0:0:0:
51,140,42331,5,0,0:0:0:0:
45,190,42697,1,0,0:0:0:0:
36,240,43063,1,0,0:0:0:0:
271,221,43794,5,0,0:0:0:0:
286,287,44160,1,0,0:0:0:0:
301,353,44526,1,0,0:0:0:0:
456,34,45258,5,0,0:0:0:0:
439,36,45624,1,0,0:0:0:0:
422,37,45989,1,0,0:0:0:0:
30,98,46721,5,0,0:0:0:0:
63,101,47087,1,0,0:0:0:0:
96,103,47453,1,0,0:0:0:0:
469,185,48185,5,0,0:0:0:0:
418,190,48550,1,0,0:0:0:0:
367,195,48916,1,0,0:0:0:0:
24,321,49648,5,0,0:0:0:0:
91,329,50013,1,0,0:0:0:0:
157,341,50379,1,0,0:0:0:0:
332,91,51111,6,0,P|397:104|472:102,2,127.500004863739,4|0|2,1:0|0:0|0:3,0:0:0:0:
205,254,52209,1,2,0:0:0:0:
275,294,52392,1,0,1:0:0:0:
276,218,52575,6,0,P|276:183|278:130,1,63.7500024318696,0|2,1:0|0:0,0:0:0:0:
222,41,52941,2,0,P|222:77|223:110,1,63.7500024318696,2|0,0:0|0:0,0:0:0:0:
126,189,53307,1,2,0:3:0:0:
126,189,53672,2,0,L|130:228,2,31.8750012159348,2|0|2,0:0|0:0|0:0,0:0:0:0:
29,158,54038,6,0,P|83:157|170:141,1,127.500004863739,0|0,1:0|0:0,0:0:0:0:
231,247,54770,2,0,P|233:285|232:317,1,63.7500024318696,2|0,0:3|0:0,0:0:0:0:
315,354,55136,2,0,P|314:317|316:289,1,63.7500024318696,2|0,0:0|1:0,0:0:0:0:
393,204,55502,5,0,1:0:0:0:
478,212,55685,1,2,0:0:0:0:
478,212,55868,2,0,P|482:140|476:66,1,127.500004863739,2|2,0:0|0:3,0:0:0:0:
248,33,56599,2,0,L|286:30,2,31.8750012159348,2|0|2,0:0|0:0|0:0,0:0:0:0:
320,94,56965,6,0,P|321:129|329:225,2,127.500004863739,0|0|2,1:0|0:0|0:3,0:0:0:0:
179,31,58063,2,0,L|139:39,2,31.8750012159348
244,98,58429,6,0,P|199:105|166:116,1,63.7500024318696
147,198,58794,2,0,P|97:198|12:180,1,127.500004863739,0|2,0:0|0:3,0:0:0:0:
203,340,59526,2,0,L|200:297,2,31.8750012159348,2|0|2,0:0|0:0|0:0,0:0:0:0:
314,359,59892,6,0,L|455:351,2,127.500004863739,0|0|2,1:0|0:0|0:3,0:0:0:0:
73,343,60989,2,0,L|105:336,2,31.8750012159348,2|0|0,0:0|0:0|1:0,0:0:0:0:
190,253,61355,6,0,L|124:258,1,63.7500024318696,0|2,1:0|0:0,0:0:0:0:
26,193,61721,2,0,L|93:187,1,63.7500024318696,2|2,0:0|0:0,0:0:0:0:
172,153,62087,2,0,L|203:158,2,31.8750012159348,2|0|2,0:3|0:0|0:0,0:0:0:0:
70,112,62453,1,2,0:3:0:0:
70,112,62819,6,0,P|109:114|216:83,1,127.500004863739,4|0,1:0|0:0,0:0:0:0:
333,34,63550,2,0,L|400:43,1,63.7500024318696,2|2,0:3|0:0,0:0:0:0:
461,98,63916,2,0,L|496:87,2,31.8750012159348,2|0|0,0:0|0:0|1:0,0:0:0:0:
390,149,64282,6,0,P|377:179|370:216,1,63.7500024318696,0|2,1:0|0:0,0:0:0:0:
292,208,64648,2,0,P|343:227|397:290,1,127.500004863739,2|2,0:0|0:3,0:0:0:0:
459,344,65197,1,2,0:0:0:0:
459,344,65380,1,2,0:0:0:0:
459,344,65746,6,0,L|468:200,1,127.500004863739,0|0,1:0|0:0,0:0:0:0:
298,55,66477,2,0,L|289:199,1,127.500004863739,2|2,0:3|0:0,0:0:0:0:
286,266,67026,1,0,1:0:0:0:
376,281,67209,6,0,P|376:253|369:208,1,63.7500024318696,0|2,1:0|0:0,0:0:0:0:
446,315,67575,2,0,P|380:320|315:338,1,127.500004863739,2|2,0:0|0:3,0:0:0:0:
167,358,68307,2,0,L|135:352,2,31.8750012159348,2|0|2,0:0|0:0|0:0,0:0:0:0:
163,269,68672,6,0,L|146:198,1,63.7500024318696,4|2,1:0|0:0,0:0:0:0:
89,285,69038,2,0,P|93:243|87:133,1,127.500004863739,2|2,0:0|0:3,0:0:0:0:
24,32,69770,2,0,L|63:27,2,31.8750012159348,2|0|0,0:0|0:0|1:0,0:0:0:0:
136,57,70136,6,0,P|177:53|210:49,1,63.7500024318696,0|2,1:0|0:0,0:0:0:0:
276,89,70502,2,0,P|317:83|425:86,2,127.500004863739,2|2|0,0:0|0:3|0:0,0:0:0:0:
139,207,71599,6,0,P|139:164|137:136,1,63.7500024318696,0|0,1:0|0:0,0:0:0:0:
212,191,71965,2,0,P|176:211|143:294,1,127.500004863739,2|2,0:0|0:3,0:0:0:0:
334,346,72697,2,0,L|328:313,2,31.8750012159348,2|0|0,0:0|0:0|1:0,0:0:0:0:
417,357,73063,6,0,P|450:348|486:342,1,63.7500024318696,0|2,1:0|0:0,0:0:0:0:
434,255,73429,2,0,P|474:256|503:264,1,63.7500024318696,2|2,0:0|0:0,0:0:0:0:
395,169,73794,2,0,L|440:163,2,31.8750012159348,2|0|2,0:3|0:0|0:0,0:0:0:0:
254,189,74160,1,2,0:3:0:0:
254,189,74252,1,0,0:0:0:0:
254,189,74343,1,0,1:0:0:0:
58,56,74526,5,4,1:0:0:0:
58,56,74892,1,0,0:0:0:0:
58,56,75258,1,0,0:0:0:0:
58,56,75989,5,0,0:0:0:0:
134,64,76355,1,0,0:0:0:0:
210,72,76721,1,0,0:0:0:0:
454,328,77453,5,0,0:0:0:0:
454,328,77819,1,0,0:0:0:0:
454,328,78185,1,0,0:0:0:0:
454,328,78916,5,0,0:0:0:0:
378,320,79282,1,0,0:0:0:0:
302,312,79648,1,0,0:0:0:0:
253,30,80380,5,0,0:0:0:0:
253,30,80746,1,0,0:0:0:0:
253,30,81111,1,0,0:0:0:0:
259,354,81843,5,0,0:0:0:0:
259,354,82209,1,0,0:0:0:0:
259,354,82574,1,0,0:0:0:0:
475,191,83307,5,0,0:0:0:0:
421,245,83672,1,0,0:0:0:0:
494,266,84038,1,0,0:0:0:0:
18,118,84770,5,0,0:0:0:0:
91,139,85136,1,0,0:0:0:0:
37,193,85502,2,0,P|39:227|39:260,1,63.7500024318696,2|2,0:0|0:0,0:0:0:0:
115,287,85868,2,0,P|108:313|106:327,2,31.8750012159348,4|0|2,0:0|0:0|0:0,0:0:0:0:
201,197,86233,6,0,B|311:228|280:151|401:186,1,191.250007295609,4|0,1:0|0:0,0:0:0:0:
463,217,86965,2,0,P|466:182|463:149,1,63.7500024318696,2|2,0:0|0:0,0:0:0:0:
410,79,87331,2,0,P|414:46|422:15,1,63.7500024318696,0|0,0:0|1:0,0:0:0:0:
281,60,87697,6,0,P|233:66|88:39,1,191.250007295609,0|0,1:0|0:0,0:0:0:0:
18,217,88429,1,8,1:0:0:0:
18,217,89160,6,0,P|21:166|15:83,1,127.500004863739,0|0,1:0|0:0,0:0:0:0:
237,350,89892,2,0,P|201:357|174:361,2,63.7500024318696,2|2|0,0:0|0:0|0:0,0:0:0:0:
329,363,90441,1,0,1:0:0:0:
486,283,90624,6,0,P|484:244|479:199,1,63.7500024318696,0|0,1:0|0:0,0:0:0:0:
335,248,90989,2,0,P|336:216|339:184,1,63.7500024318696,2|2,1:2|0:0,0:0:0:0:
197,281,91355,2,0,P|195:249|192:217,1,63.7500024318696,8|2,1:0|0:0,0:0:0:0:
64,280,91721,1,2,0:0:0:0:
64,280,91904,1,2,0:0:0:0:
229,347,92087,6,0,P|228:302|212:144,1,191.250007295609,0|0,1:0|0:0,0:0:0:0:
141,190,92819,2,0,P|98:195|66:201,1,63.7500024318696,2|2,0:0|0:0,0:0:0:0:
302,250,93185,2,0,P|339:255|366:255,1,63.7500024318696,0|0,0:0|1:0,0:0:0:0:
408,315,93550,6,0,P|404:250|410:169,1,127.500004863739,0|0,1:0|0:0,0:0:0:0:
199,22,94282,2,0,P|197:53|194:86,1,63.7500024318696,8|0,1:0|0:0,0:0:0:0:
287,174,94648,2,0,P|289:143|292:110,1,63.7500024318696,2|0,0:0|0:0,0:0:0:0:
207,220,95014,6,0,P|297:204|397:204,1,191.250007295609,0|0,1:0|0:0,0:0:0:0:
491,177,95746,1,2,0:0:0:0:
445,93,95929,2,0,P|401:98|302:91,1,127.500004863739,2|0,0:0|1:0,0:0:0:0:
245,31,96477,6,0,L|183:43,1,63.7500024318696,0|0,1:0|0:0,0:0:0:0:
47,126,96843,2,0,L|37:54,1,63.7500024318696,2|2,1:2|0:0,0:0:0:0:
189,198,97209,2,0,L|116:207,1,63.7500024318696,8|2,1:0|0:0,0:0:0:0:
35,298,97575,1,2,0:0:0:0:
35,298,97758,1,0,1:0:0:0:
271,360,97941,6,0,P|268:307|279:211,1,127.500004863739,4|0,1:0|0:0,0:0:0:0:
497,194,98672,2,0,P|497:144|481:46,1,127.500004863739,2|2,0:0|0:3,0:0:0:0:
382,23,99221,1,0,1:0:0:0:
308,92,99404,6,0,L|169:98,2,127.500004863739,0|2|8,1:0|0:0|1:0,0:0:0:0:
271,288,100502,6,0,L|268:208,1,63.7500024318696,2|0,0:3|0:0,0:0:0:0:
174,272,100868,2,0,P|141:269|45:276,1,127.500004863739,0|0,1:0|0:0,0:0:0:0:
169,94,101599,2,0,P|232:100|295:97,1,127.500004863739,2|2,0:0|0:3,0:0:0:0:
228,175,102148,1,0,1:0:0:0:
343,238,102331,6,0,P|300:237|263:234,1,63.7500024318696,0|0,1:0|0:0,0:0:0:0:
448,209,102697,2,0,P|491:210|528:213,1,63.7500024318696,2|2,1:2|0:0,0:0:0:0:
411,272,103063,2,0,P|421:217|414:133,1,127.500004863739,8|2,1:0|0:3,0:0:0:0:
401,67,103611,1,2,0:0:0:0:
251,23,103794,6,0,P|236:63|252:215,1,191.250007295609,0|0,1:0|0:0,0:0:0:0:
276,280,104526,2,0,P|243:292|217:309,2,63.7500024318696,2|2|2,0:0|0:0|0:3,0:0:0:0:
346,238,105075,1,0,1:0:0:0:
148,310,105258,6,0,P|186:314|263:394,2,127.500004863739,0|2|8,1:0|0:0|1:0,0:0:0:0:
33,172,106355,2,0,L|22:92,1,63.7500024318696,2|0,0:3|0:0,0:0:0:0:
66,243,106721,6,0,L|80:42,1,191.250007295609,0|0,1:0|0:0,0:0:0:0:
159,26,107453,2,0,P|203:29|237:34,1,63.7500024318696,2|2,0:0|0:0,0:0:0:0:
304,64,107819,1,2,0:3:0:0:
304,64,108002,1,0,1:0:0:0:
458,176,108185,6,0,P|462:138|428:44,1,127.500004863739,0|2,1:0|0:0,0:0:0:0:
371,18,108733,1,2,0:0:0:0:
244,140,108916,2,0,P|203:147|174:157,1,63.7500024318696,8|0,1:0|1:0,0:0:0:0:
55,51,109282,5,6,1:2:0:0:
70,333,109465,1,10,1:0:0:0:
64,224,109648,2,0,L|59:160,1,63.7500024318696,4|0,1:0|0:0,0:0:0:0:
197,263,110014,2,0,L|129:272,1,63.7500024318696,2|0,0:3|0:0,0:0:0:0:
227,199,110380,2,0,P|227:270|235:341,1,127.500004863739,4|2,0:0|1:2,0:0:0:0:
315,358,110929,1,0,1:0:0:0:
327,166,111111,6,0,P|326:110|315:19,1,127.500004863739,4|2,1:0|0:3,0:0:0:0:
402,26,111660,1,0,0:0:0:0:
402,26,111843,2,0,L|475:16,1,63.7500024318696,8|0,1:0|0:0,0:0:0:0:
467,161,112209,2,0,L|402:148,1,63.7500024318696,2|2,1:2|0:0,0:0:0:0:
183,87,112575,6,0,L|191:13,1,63.7500024318696,4|0,1:0|0:0,0:0:0:0:
103,133,112941,2,0,L|98:69,1,63.7500024318696,2|0,0:3|1:0,0:0:0:0:
35,171,113307,2,0,P|79:173|167:195,1,127.500004863739,4|2,0:0|1:2,0:0:0:0:
380,192,113855,1,2,1:2:0:0:
306,114,114038,6,0,L|240:132,1,63.7500024318696,4|2,1:0|0:0,0:0:0:0:
247,260,114404,2,0,L|313:278,1,63.7500024318696,2|0,1:3|1:0,0:0:0:0:
466,185,114770,2,0,P|420:193|311:194,1,127.500004863739,8|4,1:0|0:0,0:0:0:0:
446,268,115319,1,2,0:0:0:0:
446,268,115502,6,0,P|448:300|446:331,1,63.7500024318696,4|0,1:0|0:0,0:0:0:0:
406,119,115868,2,0,P|404:87|406:56,1,63.7500024318696,2|0,0:3|0:0,0:0:0:0:
338,33,116233,2,0,P|380:36|472:17,1,127.500004863739,4|2,0:0|1:2,0:0:0:0:
501,125,116782,1,2,1:2:0:0:
262,188,116965,6,0,P|262:129|252:56,1,127.500004863739,4|2,1:0|0:3,0:0:0:0:
119,37,117514,1,2,0:0:0:0:
119,37,117697,2,0,P|160:32|187:31,1,63.7500024318696,8|0,1:0|0:0,0:0:0:0:
79,103,118063,2,0,P|39:103|8:106,1,63.7500024318696,2|2,1:2|0:0,0:0:0:0:
169,229,118429,6,0,P|136:199|53:186,1,127.500004863739,4|2,1:0|0:3,0:0:0:0:
56,185,118977,1,0,1:0:0:0:
6,285,119160,2,0,L|79:275,1,63.7500024318696,4|0,0:0|0:0,0:0:0:0:
213,145,119526,2,0,L|202:77,1,63.7500024318696,2|2,1:2|1:2,0:0:0:0:
399,218,119892,5,0,1:0:0:0:
298,236,120075,1,0,1:0:0:0:
205,253,120258,2,0,L|219:333,1,63.7500024318696,2|0,1:3|0:0,0:0:0:0:
29,137,120624,2,0,L|101:126,1,63.7500024318696,8|0,1:0|1:0,0:0:0:0:
77,262,120989,1,4,1:2:0:0:
268,72,121172,1,0,1:0:0:0:
159,22,121355,6,0,P|98:34|15:33,1,127.500004863739,4|2,1:0|0:3,0:0:0:0:
245,271,122087,2,0,P|244:242|245:202,1,63.7500024318696,4|0,0:0|0:0,0:0:0:0:
152,269,122453,2,0,P|152:304|153:336,1,63.7500024318696,2|2,1:2|1:2,0:0:0:0:
292,358,122819,6,0,P|338:360|427:352,1,127.500004863739,4|2,1:0|0:3,0:0:0:0:
489,307,123368,1,0,1:0:0:0:
489,307,123550,2,0,L|484:231,1,63.7500024318696,8|0,1:0|0:0,0:0:0:0:
405,155,123916,2,0,L|397:228,1,63.7500024318696,2|2,1:2|0:0,0:0:0:0:
488,64,124282,6,0,P|456:65|351:73,1,127.500004863739,4|2,1:0|0:3,0:0:0:0:
282,89,124831,1,0,1:0:0:0:
204,50,125014,2,0,P|205:92|207:119,1,63.7500024318696,4|0,0:0|0:0,0:0:0:0:
127,232,125380,1,2,1:2:0:0:
136,140,125563,1,2,1:2:0:0:
265,203,125746,6,0,L|198:192,1,63.7500024318696,4|2,1:2|1:2,0:0:0:0:
0,178,126111,2,0,L|68:174,1,63.7500024318696,2|0,1:3|0:0,0:0:0:0:
329,239,126477,2,0,P|266:232|210:261,1,127.500004863739,8|4,1:0|1:2,0:0:0:0:
276,346,127026,1,2,0:0:0:0:
429,250,127209,6,0,P|426:213|429:163,1,63.7500024318696,4|0,1:0|0:0,0:0:0:0:
502,137,127575,2,0,P|453:142|352:135,1,127.500004863739,2|4,0:3|0:0,0:0:0:0:
163,29,128307,2,0,L|94:38,1,63.7500024318696,2|2,1:2|1:2,0:0:0:0:
15,105,128672,6,0,L|21:185,1,63.7500024318696,4|0,1:0|0:0,0:0:0:0:
118,226,129038,2,0,L|112:147,1,63.7500024318696,2|0,0:3|1:0,0:0:0:0:
295,98,129404,2,0,P|208:111|163:107,1,127.500004863739,8|2,1:0|1:2,0:0:0:0:
250,200,129953,1,2,0:0:0:0:
330,254,130136,6,0,P|329:282|328:326,1,63.7500024318696,4|0,1:0|0:0,0:0:0:0:
439,358,130502,2,0,P|437:324|434:286,1,63.7500024318696,2|0,0:3|1:0,0:0:0:0:
501,183,130868,2,0,L|350:173,1,127.500004863739,4|2,0:0|1:2,0:0:0:0:
182,189,131416,1,2,0:0:0:0:
232,104,131599,6,0,L|306:113,1,63.7500024318696,0|0,1:0|1:0,0:0:0:0:
482,103,131965,2,0,L|412:94,1,63.7500024318696,0|0,1:0|0:0,0:0:0:0:
165,40,132331,1,8,1:0:0:0:
165,40,132697,6,0,P|125:42|76:49,2,85,2|2|0,0:0|0:0|0:0,0:0:0:0:
236,61,133794,1,2,0:3:0:0:
104,138,134160,6,0,P|127:137|191:144,2,85,2|2|0,0:0|0:0|0:0,0:0:0:0:
23,165,135258,1,2,0:3:0:0:
158,236,135624,6,0,P|135:235|71:242,2,85,2|2|0,0:0|0:0|0:0,0:0:0:0:
263,267,136722,1,2,0:3:0:0:
263,267,137087,1,2,0:0:0:0:
362,302,137453,6,0,P|368:254|359:204,1,85,2|2,0:0|0:0,0:0:0:0:
375,202,138002,2,0,P|376:171|379:142,1,42.5,2|2,0:0|0:3,0:0:0:0:
477,95,138550,6,0,P|479:147|485:195,2,85,4|2|0,0:0|0:0|0:0,0:0:0:0:
317,17,139648,1,2,0:3:0:0:
201,189,140014,6,0,P|199:241|193:289,2,85,2|2|0,0:0|0:0|0:0,0:0:0:0:
292,92,141112,1,2,0:3:0:0:
400,237,141477,6,0,P|401:279|405:321,2,85,2|2|0,0:0|0:0|0:0,0:0:0:0:
331,175,142575,1,2,0:3:0:0:
233,357,143307,6,0,B|179:183|303:266|239:60,1,297.5
95,252,147558,6,0,L|56:268,2,42.5,2|2|2,0:0|0:0|0:0,0:0:0:0:
125,336,148292,6,0,B|113:261|113:261|138:202|138:202|124:113,1,220.999989883423,2|10,1:1|0:3,0:0:0:0:
332,30,148840,1,2,0:0:0:0:
285,107,149023,2,0,P|239:102|196:103,1,85,8|0,1:0|0:0,0:0:0:0:
22,26,149389,2,0,P|65:32|110:37,1,85,10|2,0:3|0:2,0:0:0:0:
409,227,149755,6,0,P|403:171|410:48,1,170,0|10,1:0|1:3,0:0:0:0:
323,214,150304,1,0,0:0:0:0:
256,332,150487,2,0,L|349:351,1,85,8|0,1:0|0:0,0:0:0:0:
246,213,150852,2,0,L|153:232,1,85,10|2,0:3|0:0,0:0:0:0:
128,149,151218,6,0,L|143:333,1,170,4|10,1:0|0:3,0:0:0:0:
65,362,151767,1,2,0:0:0:0:
15,275,151950,2,0,L|36:185,1,85,8|0,1:0|0:0,0:0:0:0:
283,126,152316,2,0,L|190:97,1,85,10|2,0:3|1:2,0:0:0:0:
274,36,152682,5,4,1:2:0:0:
274,36,152865,1,0,1:0:0:0:
125,90,153048,1,4,1:2:0:0:
245,218,153231,1,0,0:0:0:0:
401,139,153413,1,4,1:2:0:0:
274,36,153596,1,0,1:2:0:0:
315,324,153779,1,4,1:2:0:0:
354,223,153962,1,2,0:0:0:0:
448,347,154145,6,0,B|453:210,1,127.5,4|0,1:3|0:0,0:0:0:0:
478,197,154511,6,0,L|472:142,1,42.5,2|0,0:3|1:0,0:0:0:0:
488,133,154785,1,0,1:0:0:0:
500,104,154877,6,0,L|403:86,1,85,12|0,1:0|0:0,0:0:0:0:
270,33,155243,1,10,0:3:0:0:
377,168,155426,1,0,1:0:0:0:
184,117,155609,6,0,L|178:24,1,85,4|0,1:0|0:0,0:0:0:0:
35,206,155974,2,0,P|34:141|103:49,1,170,10|8,0:3|1:0,0:0:0:0:
275,190,156523,1,0,0:0:0:0:
168,251,156706,1,10,0:3:0:0:
110,154,156889,1,0,1:0:0:0:
274,281,157072,6,0,B|376:261|342:308|456:285,1,170,4|10,1:0|0:3,0:0:0:0:
304,363,157621,1,0,0:0:0:0:
205,198,157804,2,0,P|208:146|212:111,1,85,8|0,1:0|0:0,0:0:0:0:
101,264,158170,2,0,P|98:212|94:177,1,85,10|0,0:3|0:0,0:0:0:0:
9,338,158535,5,4,1:0:0:0:
112,378,158718,1,2,1:0:0:0:
208,317,158901,1,0,1:0:0:0:
101,264,159084,1,2,1:0:0:0:
46,155,159267,1,4,1:2:0:0:
73,128,159359,1,0,1:0:0:0:
110,121,159450,1,0,1:0:0:0:
146,131,159542,1,0,1:0:0:0:
176,154,159633,1,10,1:3:0:0:
212,165,159725,1,0,1:0:0:0:
249,168,159816,1,0,1:0:0:0:
282,148,159908,1,0,1:0:0:0:
283,186,159999,6,0,L|294:359,1,170,4|10,1:0|0:3,0:0:0:0:
465,277,160548,1,0,0:0:0:0:
370,204,160731,2,0,P|366:260|367:294,1,85,8|0,1:0|0:0,0:0:0:0:
410,367,161096,1,10,1:3:0:0:
410,367,161279,1,0,1:0:0:0:
470,155,161462,6,0,P|430:138|384:114,1,85,0|0,1:0|0:0,0:0:0:0:
276,231,161828,2,0,P|287:171|292:131,1,85,10|0,0:3|0:0,0:0:0:0:
370,204,162194,1,8,1:0:0:0:
262,314,162377,1,0,0:0:0:0:
191,181,162560,1,10,1:3:0:0:
303,75,162743,1,0,1:0:0:0:
370,204,162926,6,0,P|374:257|377:291,1,85,4|0,1:0|0:0,0:0:0:0:
147,102,163291,2,0,P|199:97|237:90,1,85,10|0,1:3|0:0,0:0:0:0:
54,310,163657,2,0,P|48:253|39:206,1,85,8|0,1:0|0:0,0:0:0:0:
41,124,164023,1,10,1:3:0:0:
41,124,164206,1,0,1:0:0:0:
159,53,164389,5,4,1:2:0:0:
297,114,164572,1,0,1:0:0:0:
199,215,164755,1,0,1:0:0:0:
199,215,164938,1,0,0:0:0:0:
130,135,165121,5,4,1:2:0:0:
130,135,165304,1,0,1:0:0:0:
329,213,165487,1,4,1:2:0:0:
158,336,165670,1,0,1:0:0:0:
120,213,165852,6,0,P|116:168|107:26,1,170,4|10,1:0|0:3,0:0:0:0:
350,118,166401,1,0,0:0:0:0:
283,174,166584,2,0,P|231:177|197:181,1,85,8|0,1:0|0:0,0:0:0:0:
27,226,166950,2,0,P|32:275|34:313,1,85,10|0,1:3|1:0,0:0:0:0:
224,361,167316,6,0,P|221:301|218:269,1,85,0|0,1:0|1:0,0:0:0:0:
310,277,167682,2,0,P|308:221|310:93,1,170,10|8,1:3|1:0,0:0:0:0:
307,29,168231,1,0,0:0:0:0:
464,77,168413,2,0,P|414:76|374:74,1,85,10|0,1:3|1:0,0:0:0:0:
216,35,168779,6,0,P|219:93|216:222,1,170,4|10,1:0|1:3,0:0:0:0:
109,278,169328,1,0,0:0:0:0:
197,353,169511,2,0,P|245:351|281:351,1,85,8|0,1:0|0:0,0:0:0:0:
106,187,169877,2,0,P|63:185|20:188,1,85,10|0,1:3|1:0,0:0:0:0:
301,190,170243,5,4,1:2:0:0:
416,119,170426,1,0,1:0:0:0:
435,263,170609,2,0,L|340:277,1,85,0|0,1:0|0:0,0:0:0:0:
234,33,170974,5,4,1:3:0:0:
153,88,171157,1,0,0:0:0:0:
215,164,171340,1,0,1:0:0:0:
290,110,171523,1,0,1:0:0:0:
98,29,171706,6,0,L|7:20,2,85,4|0|0,1:0|0:0|0:0,0:0:0:0:
408,39,173170,6,0,L|499:30,2,85
49,168,174633,5,0,0:0:0:0:
64,177,174999,1,0,0:0:0:0:
78,186,175365,1,0,0:0:0:0:
342,284,176096,5,0,0:0:0:0:
273,321,176462,1,0,0:0:0:0:
204,357,176828,1,0,0:0:0:0:
471,156,177560,6,0,L|479:250,2,85
255,105,179023,6,0,L|247:11,2,85
69,226,180487,6,0,L|77:320,2,85
471,333,181950,5,0,0:0:0:0:
471,333,182316,1,0,0:0:0:0:
471,333,182682,2,0,L|378:346,1,85,8|4,1:0|0:3,0:0:0:0:
34,107,183413,6,0,P|37:142|41:202,1,85,4|0,1:0|1:0,0:0:0:0:
225,31,183779,2,0,P|129:40|74:40,1,127.500004863739,2|8,0:3|1:0,0:0:0:0:
97,40,184511,1,2,0:3:0:0:
168,139,184694,1,2,0:0:0:0:
340,101,184877,6,0,P|342:67|346:17,1,85,4|0,1:0|1:0,0:0:0:0:
272,250,185243,2,0,P|271:204|263:107,1,127.500004863739,2|8,0:3|1:0,0:0:0:0:
358,192,185791,1,0,0:0:0:0:
191,269,185974,2,0,P|196:309|199:339,1,63.7500024318696,2|2,0:3|0:0,0:0:0:0:
490,135,186340,6,0,P|442:131|393:131,1,85,4|0,1:0|1:0,0:0:0:0:
274,30,186706,2,0,P|213:48|149:49,1,127.500004863739,2|8,0:3|1:0,0:0:0:0:
149,49,187438,1,2,0:3:0:0:
87,141,187621,1,2,0:0:0:0:
254,259,187804,6,0,L|250:351,1,85,4|0,1:0|1:2,0:0:0:0:
250,345,188535,6,0,L|258:175,1,170,4|4,1:3|1:0,0:0:0:0:
108,71,189450,1,0,1:2:0:0:
108,71,189999,6,0,L|112:142,1,63.7500024318696,8|0,1:0|0:0,0:0:0:0:
32,29,190365,2,0,L|28:111,1,63.7500024318696,2|2,0:3|0:0,0:0:0:0:
101,361,190731,6,0,L|106:268,1,85,4|0,1:0|1:0,0:0:0:0:
23,213,191096,1,2,0:3:0:0:
23,213,191279,1,2,0:0:0:0:
106,171,191462,1,8,1:0:0:0:
106,171,191645,1,2,0:0:0:0:
192,227,191828,2,0,L|199:141,1,63.7500024318696,2|2,0:3|0:0,0:0:0:0:
450,357,192194,6,0,P|408:355|352:354,1,85,4|0,1:0|1:0,0:0:0:0:
304,262,192560,2,0,P|351:265|444:274,1,127.500004863739,2|8,0:3|1:0,0:0:0:0:
431,272,193291,1,2,0:3:0:0:
504,193,193474,1,2,0:0:0:0:
268,175,193657,6,0,L|180:169,1,85,6|2,1:0|1:0,0:0:0:0:
97,242,194023,1,2,0:3:0:0:
103,96,194206,1,2,1:0:0:0:
268,175,194389,6,0,L|400:182,1,127.5,4|0,1:3|0:0,0:0:0:0:
501,41,195121,6,0,P|453:41|403:37,1,85,6|2,1:0|1:0,0:0:0:0:
301,89,195487,2,0,P|298:48|299:11,1,63.7500024318696,2|2,0:3|0:1,0:0:0:0:
199,214,195852,6,0,L|67:221,1,127.5,4|0,1:3|0:0,0:0:0:0:
17,357,196584,6,0,P|68:352|108:348,1,85,6|2,1:0|1:0,0:0:0:0:
173,373,196950,1,2,0:3:0:0:
247,232,197133,1,2,0:1:0:0:
423,283,197316,1,10,1:0:0:0:
327,282,197499,5,2,0:1:0:0:
205,150,197682,1,2,0:3:0:0:
29,220,197865,1,2,0:1:0:0:
118,234,198048,6,0,L|207:229,1,85,6|2,1:0|1:1,0:0:0:0:
94,129,198413,2,0,L|13:140,1,63.7500024318696,2|0,0:3|0:0,0:0:0:0:
191,70,198779,1,10,1:0:0:0:
101,32,198962,1,2,0:1:0:0:
186,163,199145,1,2,0:3:0:0:
273,41,199328,1,2,0:1:0:0:
342,173,199511,6,0,L|337:79,1,85,4|0,1:3|1:0,0:0:0:0:
408,44,199877,1,2,0:3:0:0:
408,44,200060,1,2,0:1:0:0:
255,222,200243,2,0,L|246:132,1,85,4|0,1:3|1:0,0:0:0:0:
411,208,200609,1,2,0:3:0:0:
411,208,200791,1,2,0:1:0:0:
162,300,200974,6,0,L|166:209,1,85,6|2,1:0|1:0,0:0:0:0:
165,215,201523,1,2,1:0:0:0:
394,363,201706,2,0,L|258:358,1,127.5,4|0,1:3|0:0,0:0:0:0:
54,178,202438,6,0,L|48:269,1,85,6|2,1:0|1:0,0:0:0:0:
85,347,202804,1,2,0:3:0:0:
151,130,202987,1,2,0:1:0:0:
306,173,203170,1,10,1:0:0:0:
249,326,203352,1,2,0:1:0:0:
98,274,203535,1,2,0:3:0:0:
306,173,203718,1,2,0:1:0:0:
478,254,203901,6,0,L|393:245,1,85,6|2,1:0|1:1,0:0:0:0:
457,106,204267,2,0,L|447:173,1,63.7500024318696,2|2,0:3|0:0,0:0:0:0:
307,35,204633,1,10,1:0:0:0:
375,176,204816,1,2,0:1:0:0:
399,25,204999,1,2,0:3:0:0:
294,133,205182,1,0,0:1:0:0:
278,294,205365,6,0,P|324:298|376:288,1,85,12|2,1:0|0:1,0:0:0:0:
210,183,205731,2,0,P|164:179|112:189,1,85,10|2,1:0|0:1,0:0:0:0:
26,264,206096,1,10,1:0:0:0:
120,357,206279,1,2,0:1:0:0:
120,357,206371,1,0,0:0:0:0:
120,357,206462,2,0,L|123:261,1,85,4|0,1:3|0:1,0:0:0:0:
148,65,206828,5,0,0:0:0:0:
77,88,207194,1,0,0:0:0:0:
10,112,207560,1,0,0:0:0:0:
334,25,208291,5,0,0:0:0:0:
405,48,208657,1,0,0:0:0:0:
472,72,209023,1,0,0:0:0:0:
177,45,209755,5,0,0:0:0:0:
89,79,210121,1,0,0:0:0:0:
10,112,210487,1,0,0:0:0:0:
292,8,211218,5,0,2:0:0:0:
455,48,211401,1,0,0:0:0:0:
417,55,211493,1,0,0:0:0:0:
379,60,211584,1,8,0:0:0:0:
264,117,211767,1,8,0:0:0:0:
481,158,211950,1,4,0:2:0:0:
254,230,212133,1,0,0:0:0:0:
473,317,212316,1,8,0:0:0:0:
435,310,212407,1,8,0:0:0:0:
396,305,212499,1,8,0:0:0:0:
358,299,212590,1,8,0:0:0:0:
320,291,212682,5,4,0:3:0:0:
252,346,213048,1,0,0:0:0:0:
172,317,213413,1,0,0:0:0:0:
20,79,214145,5,0,0:0:0:0:
86,27,214511,1,0,0:0:0:0:
168,53,214876,1,0,0:0:0:0:
480,180,215609,5,0,0:0:0:0:
411,232,215975,1,0,0:0:0:0:
332,206,216340,1,0,0:0:0:0:
23,180,217072,5,0,0:0:0:0:
96,129,217438,2,0,L|170:137,1,63.7500024318696,0|0,0:0|1:0,0:0:0:0:
182,124,217712,1,0,1:0:0:0:
204,111,217804,6,0,L|214:198,1,63.7500024318696,2|0,1:0|0:0,0:0:0:0:
476,300,218170,6,0,L|407:313,1,63.75,4|0,1:2|0:0,0:0:0:0:
372,369,218535,6,0,L|382:217,1,127.5,6|0,1:0|0:0,0:0:0:0:
380,241,218901,2,0,P|332:228|274:229,1,85,8|2,1:0|0:3,0:0:0:0:
206,259,219267,1,2,1:0:0:0:
246,348,219450,1,0,1:0:0:0:
246,348,219541,1,0,1:0:0:0:
246,348,219633,1,10,1:0:0:0:
253,158,219816,1,2,0:3:0:0:
164,324,219999,6,0,L|81:340,1,85,6|2,1:0|0:0,0:0:0:0:
92,151,220365,2,0,L|201:180,1,85,10|2,1:0|0:3,0:0:0:0:
93,259,220731,1,2,1:0:0:0:
13,72,220913,1,0,1:0:0:0:
220,107,221096,1,10,1:0:0:0:
93,259,221279,1,2,0:3:0:0:
168,35,221462,6,0,P|226:31|299:35,1,127.5,4|0,1:0|0:0,0:0:0:0:
295,34,221828,2,0,P|295:83|299:131,1,85,10|2,1:0|0:3,0:0:0:0:
220,220,222194,1,2,1:0:0:0:
312,330,222377,1,0,1:0:0:0:
395,223,222560,2,0,P|390:168|387:131,1,85,10|2,1:0|0:3,0:0:0:0:
212,318,222926,6,0,L|124:328,1,85,6|2,1:0|1:0,0:0:0:0:
414,341,223291,2,0,L|502:351,1,85,10|2,1:0|0:3,0:0:0:0:
308,191,223657,1,14,1:0:0:0:
285,367,223840,1,2,1:0:0:0:
308,191,224023,1,10,1:0:0:0:
476,249,224206,5,2,0:3:0:0:
476,249,224298,1,0,1:0:0:0:
476,249,224389,2,0,P|481:176|476:111,1,127.5,4|0,1:0|0:0,0:0:0:0:
477,121,224755,2,0,P|423:126|384:126,1,85,10|2,1:0|0:3,0:0:0:0:
218,277,225121,1,2,1:0:0:0:
314,320,225304,1,0,1:0:0:0:
314,320,225395,1,0,1:0:0:0:
314,320,225487,1,10,1:0:0:0:
374,238,225670,1,2,0:3:0:0:
139,353,225852,6,0,L|38:357,1,85,6|0,1:0|0:0,0:0:0:0:
267,223,226218,2,0,L|182:219,1,85,10|2,1:0|0:3,0:0:0:0:
13,190,226584,1,2,1:0:0:0:
63,91,226767,1,2,1:0:0:0:
165,137,226950,1,10,1:0:0:0:
112,233,227133,1,2,0:3:0:0:
63,91,227316,6,0,P|130:66|172:22,1,127.5,6|0,1:0|0:0,0:0:0:0:
168,26,227682,2,0,L|264:40,1,85,10|2,1:0|0:3,0:0:0:0:
277,200,228048,1,6,1:0:0:0:
396,121,228231,2,0,L|307:107,1,85,0|8,1:0|1:0,0:0:0:0:
245,297,228596,5,2,0:3:0:0:
245,297,228688,1,0,1:0:0:0:
245,297,228779,1,6,1:0:0:0:
85,356,228962,1,2,0:3:0:0:
326,353,229145,5,10,1:0:0:0:
161,323,229328,1,8,1:0:0:0:
411,270,229511,5,4,1:2:0:0:
246,320,229694,1,8,1:0:0:0:
38,163,229877,5,4,1:3:0:0:
277,202,230060,1,2,0:3:0:0:
135,244,230243,6,0,L|121:150,1,85,4|0,1:0|0:3,0:0:0:0:
8,352,230609,2,0,L|99:335,1,85,10|2,1:0|0:3,0:0:0:0:
301,156,230974,2,0,L|215:175,1,85,2|0,1:0|0:0,0:0:0:0:
23,107,231340,2,0,L|11:13,1,85,8|2,1:0|0:3,0:0:0:0:
61,240,231706,5,6,1:0:0:0:
191,74,231889,1,0,0:3:0:0:
146,270,232072,1,10,1:0:0:0:
110,65,232255,1,2,1:3:0:0:
110,65,232346,1,0,1:0:0:0:
110,65,232438,1,2,1:0:0:0:
247,193,232621,1,2,1:0:0:0:
7,140,232804,1,10,1:0:0:0:
247,193,232987,1,8,1:0:0:0:
477,24,233170,6,0,P|415:60|346:68,1,127.5,6|0,1:0|0:0,0:0:0:0:
360,68,233535,2,0,P|361:115|359:158,1,85,10|2,1:0|0:3,0:0:0:0:
457,303,233901,2,0,P|458:256|461:212,1,85,2|0,1:0|1:3,0:0:0:0:
460,218,234176,1,0,1:0:0:0:
460,218,234267,1,8,1:0:0:0:
327,283,234450,1,2,0:3:0:0:
445,378,234633,5,6,1:0:0:0:
463,126,234816,1,2,1:0:0:0:
363,61,234999,5,10,1:0:0:0:
386,251,235182,1,2,0:3:0:0:
276,177,235365,5,4,1:0:0:0:
288,37,235548,1,10,1:0:0:0:
204,19,235731,5,10,1:0:0:0:
220,102,235913,1,2,0:3:0:0:
21,238,236096,6,0,L|26:142,1,85,6|0,1:0|0:3,0:0:0:0:
188,230,236462,2,0,L|181:320,1,85,10|2,1:0|0:3,0:0:0:0:
104,261,236828,1,2,1:0:0:0:
265,277,237011,1,0,1:3:0:0:
265,277,237102,1,0,1:0:0:0:
265,277,237194,1,8,1:0:0:0:
284,364,237377,1,2,0:3:0:0:
431,157,237560,6,0,L|344:177,1,85,6|0,1:0|0:0,0:0:0:0:
424,251,237926,1,10,1:0:0:0:
508,124,238109,1,2,0:3:0:0:
362,74,238291,1,2,1:0:0:0:
270,194,238474,1,2,1:0:0:0:
270,194,238566,1,0,1:0:0:0:
270,194,238657,1,10,1:0:0:0:
424,251,238840,1,8,1:0:0:0:
254,40,239023,6,0,P|211:34|119:49,1,127.500004863739,4|0,1:3|0:0,0:0:0:0:
56,343,239572,1,0,1:0:0:0:
81,324,239663,1,0,1:0:0:0:
93,294,239755,1,0,1:0:0:0:
93,262,239846,1,0,1:0:0:0:
77,233,239938,1,0,0:0:0:0:
49,217,240029,1,0,1:0:0:0:
20,201,240121,1,2,1:3:0:0:
4,173,240212,1,0,1:0:0:0:
0,141,240304,1,0,1:0:0:0:
16,114,240395,1,0,1:0:0:0:
42,95,240487,5,12,1:0:0:0:
316,228,240670,1,4,1:2:0:0:
316,228,241035,1,0,1:0:0:0:
316,228,241127,1,0,1:0:0:0:
316,228,241218,1,12,1:0:0:0:
42,95,241401,1,4,1:2:0:0:
471,335,241950,6,0,L|492:148,2,170,4|10|8,1:0|0:3|1:0,0:0:0:0:
272,177,242865,1,2,0:0:0:0:
353,133,243048,2,0,P|364:176|361:219,1,85,10|0,1:3|1:0,0:0:0:0:
186,211,243413,6,0,P|183:166|194:124,1,85,0|2,1:0|0:0,0:0:0:0:
272,177,243779,2,0,B|296:290|240:249|276:369,1,170,10|8,1:3|1:0,0:0:0:0:
94,348,244328,1,2,0:0:0:0:
185,372,244511,2,0,P|185:328|190:270,1,85,10|2,1:3|1:2,0:0:0:0:
4,162,244877,6,0,P|16:214|118:266,1,170,4|10,1:0|1:3,0:0:0:0:
312,133,245426,1,2,1:2:0:0:
198,36,245609,2,0,L|185:123,1,85,8|0,1:0|1:0,0:0:0:0:
258,313,245974,1,10,1:3:0:0:
398,165,246157,1,8,1:0:0:0:
165,236,246340,5,4,1:2:0:0:
70,199,246523,1,8,1:0:0:0:
11,294,246706,2,0,L|95:284,1,85,10|2,1:3|1:0,0:0:0:0:
171,346,247072,1,8,1:0:0:0:
245,168,247255,1,2,1:0:0:0:
438,332,247438,2,0,L|346:316,1,85,4|0,1:3|1:0,0:0:0:0:
325,335,247712,1,0,1:0:0:0:
297,355,247804,6,0,P|281:309|302:220,1,127.5,4|0,1:0|0:0,0:0:0:0:
294,232,248170,6,0,L|346:244,1,42.5,2|0,1:3|1:0,0:0:0:0:
358,234,248444,1,0,1:0:0:0:
387,217,248535,6,0,P|392:166|375:126,1,85,12|2,1:0|0:0,0:0:0:0:
257,9,248901,2,0,P|246:56|252:98,1,85,10|0,1:3|1:0,0:0:0:0:
498,53,249267,2,0,B|401:29|438:77|320:52,1,170,4|10,1:0|1:3,0:0:0:0:
310,256,249816,1,2,0:0:0:0:
436,118,249999,1,8,1:0:0:0:
266,174,250182,1,0,1:0:0:0:
495,246,250365,2,0,P|463:223|403:219,1,85,10|0,1:3|0:0,0:0:0:0:
168,352,250731,6,0,P|197:300|323:290,1,170,4|10,1:0|1:3,0:0:0:0:
199,186,251279,1,2,0:0:0:0:
275,108,251462,2,0,L|289:22,1,85,8|0,1:0|0:0,0:0:0:0:
376,205,251828,2,0,L|364:121,1,85,10|2,1:3|1:2,0:0:0:0:
110,185,252194,5,4,1:2:0:0:
131,275,252377,1,2,1:0:0:0:
35,358,252560,5,10,1:3:0:0:
56,114,252743,1,2,1:0:0:0:
299,145,252926,5,10,1:0:0:0:
299,145,253017,1,0,1:0:0:0:
299,145,253109,1,0,1:0:0:0:
336,139,253200,1,0,1:0:0:0:
374,136,253292,1,10,1:3:0:0:
406,156,253384,1,0,1:0:0:0:
443,150,253475,1,8,1:0:0:0:
481,147,253567,1,8,1:0:0:0:
505,193,253657,6,0,L|496:13,1,170,4|10,1:0|1:3,0:0:0:0:
411,68,254206,1,2,0:0:0:0:
323,25,254389,2,0,L|216:44,1,85,8|0,1:0|0:0,0:0:0:0:
125,162,254755,1,10,1:3:0:0:
111,25,254938,1,2,1:2:0:0:
25,216,255121,6,0,L|214:202,1,170,4|10,1:0|1:3,0:0:0:0:
281,273,255670,1,2,0:0:0:0:
360,206,255852,2,0,P|364:169|352:101,1,85,8|0,1:0|0:0,0:0:0:0:
212,38,256218,2,0,P|208:74|220:143,1,85,10|2,1:3|0:0,0:0:0:0:
461,102,256584,6,0,P|426:53|307:37,1,170,4|10,1:0|1:3,0:0:0:0:
163,163,257133,1,2,0:0:0:0:
289,245,257316,2,0,L|298:146,1,85,8|0,1:0|0:0,0:0:0:0:
178,336,257682,1,10,1:3:0:0:
77,223,257865,1,8,1:0:0:0:
99,33,258048,6,0,L|182:49,1,85,2|10,1:0|1:0,0:0:0:0:
7,153,258413,2,0,L|94:133,1,85,10|2,1:3|1:0,0:0:0:0:
77,223,258779,1,8,1:0:0:0:
193,284,258962,1,0,0:0:0:0:
106,370,259145,1,10,1:3:0:0:
0,318,259328,1,10,1:0:0:0:
249,351,259511,6,0,B|352:371|313:315|417:335,1,170,4|10,1:0|1:3,0:0:0:0:
485,217,260060,1,2,0:0:0:0:
497,357,260243,1,8,1:0:0:0:
410,249,260426,1,0,0:0:0:0:
492,49,260609,2,0,L|502:146,1,85,10|2,1:3|1:2,0:0:0:0:
390,14,260974,6,0,L|375:199,2,170,0|10|8,1:0|1:3|1:0,0:0:0:0:
277,109,261889,1,0,0:0:0:0:
461,168,262072,1,10,1:3:0:0:
302,28,262255,1,2,1:2:0:0:
145,136,262438,6,0,P|197:133|284:213,1,170,4|10,1:0|1:3,0:0:0:0:
371,278,262987,1,2,0:0:0:0:
291,359,263170,2,0,P|247:367|201:360,1,85,8|0,1:0|0:0,0:0:0:0:
126,233,263535,1,10,1:3:0:0:
101,361,263718,1,2,1:2:0:0:
13,165,263901,5,4,1:2:0:0:
83,125,264084,1,2,1:0:0:0:
186,161,264267,5,10,1:3:0:0:
295,208,264450,1,2,1:0:0:0:
403,158,264633,5,4,1:3:0:0:
500,58,264816,1,0,0:0:0:0:
481,195,264999,1,10,0:3:0:0:
419,69,265182,1,0,0:0:0:0:
255,84,265365,6,0,L|351:100,2,85,4|2|8,1:0|0:0|0:0,0:0:0:0:
255,84,266462,1,2,0:0:0:0:
197,26,266645,1,0,1:0:0:0:
158,96,266828,1,0,1:0:0:0:
158,96,267194,1,2,1:2:0:0:
471,255,267560,5,8,0:0:0:0:
471,255,267926,1,2,0:0:0:0:
419,187,268109,1,2,0:0:0:0:
336,198,268291,2,0,L|252:212,1,85,0|2,1:0|0:0,0:0:0:0:
34,313,269023,2,0,L|123:294,1,85,8|2,0:0|0:0,0:0:0:0:
186,355,269572,1,0,1:0:0:0:
273,332,269755,6,0,L|266:286,1,42.5,0|0,1:0|0:0,0:0:0:0:
402,360,270121,2,0,L|346:373,1,42.5,2|2,1:2|0:0,0:0:0:0:
336,254,270487,6,0,L|325:198,1,42.5,8|2,0:0|0:0,0:0:0:0:
460,276,270852,2,0,L|407:284,1,42.5,2|0,0:3|0:0,0:0:0:0:
247,266,271218,6,0,L|237:369,2,85,0|2|8,1:0|0:0|0:0,0:0:0:0:
247,266,272316,1,2,0:0:0:0:
166,282,272499,1,0,1:0:0:0:
79,290,272682,6,0,L|88:186,1,85,0|2,1:0|1:2,0:0:0:0:
86,205,273413,2,0,L|30:202,2,42.5,8|2|2,0:0|0:0|0:0,0:0:0:0:
211,69,274145,6,0,L|307:67,1,85,0|2,1:0|0:0,0:0:0:0:
194,161,274877,6,0,L|325:148,1,127.500004863739,8|2,1:2|0:0,0:0:0:0:
387,207,275426,1,0,1:0:0:0:
387,207,275517,1,0,1:0:0:0:
387,207,275609,1,4,1:2:0:0:
449,265,275974,1,0,1:0:0:0:
401,341,276340,5,8,1:0:0:0:
281,226,276523,1,8,1:0:0:0:
359,86,276706,1,8,1:0:0:0:
486,200,276889,1,8,1:0:0:0:
270,351,277072,6,0,P|196:357|104:287,1,187.000005706787,6|8,1:0|1:0,0:0:0:0:
5,195,277621,1,8,0:3:0:0:
73,76,277804,2,0,P|119:66|170:75,1,93.5000028533936,2|8,1:0|1:3,0:0:0:0:
254,213,278170,2,0,L|153:220,1,93.5000028533936,8|8,1:0|0:3,0:0:0:0:
8,351,278535,6,0,P|61:358|108:342,1,93.5000028533936,2|8,1:0|0:3,0:0:0:0:
318,82,278901,2,0,P|264:74|217:90,1,93.5000028533936,8|8,1:0|1:3,0:0:0:0:
70,226,279267,1,4,1:2:0:0:
163,287,279450,1,8,1:3:0:0:
227,195,279633,1,10,1:0:0:0:
128,140,279816,1,8,1:3:0:0:
3,54,279999,6,0,L|110:40,1,93.5000028533936,6|8,1:0|0:3,0:0:0:0:
368,40,280365,2,0,L|275:27,1,93.5000028533936,10|8,1:0|0:3,0:0:0:0:
437,213,280731,1,2,1:0:0:0:
493,46,280913,1,8,1:3:0:0:
351,139,281096,1,10,1:0:0:0:
351,139,281279,1,10,1:0:0:0:
335,299,281462,5,4,1:3:0:0:
494,277,281645,1,8,1:3:0:0:
388,364,281828,5,10,1:0:0:0:
203,311,282011,1,8,1:0:0:0:
15,190,282194,5,4,1:3:0:0:
174,168,282377,1,8,0:3:0:0:
290,72,282560,5,10,1:0:0:0:
127,37,282743,1,10,1:0:0:0:
381,139,282926,6,0,L|401:34,1,93.5000028533936,4|0,1:3|0:0,0:0:0:0:
485,227,283291,2,0,L|465:122,1,93.5000028533936,10|8,1:0|0:3,0:0:0:0:
342,357,283657,5,2,1:0:0:0:
372,234,283840,1,8,0:3:0:0:
260,309,284023,5,8,1:0:0:0:
225,139,284206,1,8,0:3:0:0:
91,250,284389,6,0,L|205:240,1,93.5000028533936,2|8,1:0|0:3,0:0:0:0:
76,351,284755,2,0,L|-21:359,1,93.5000028533936,10|8,1:0|0:3,0:0:0:0:
290,245,285121,1,2,1:0:0:0:
102,164,285304,1,8,0:3:0:0:
361,172,285487,5,10,1:0:0:0:
195,209,285670,1,10,1:0:0:0:
338,12,285852,5,6,1:0:0:0:
275,142,286035,1,8,0:3:0:0:
421,112,286218,1,10,1:0:0:0:
201,30,286401,1,8,1:3:0:0:
480,273,286584,5,4,1:2:0:0:
457,184,286767,1,8,0:3:0:0:
335,354,286950,5,10,1:0:0:0:
364,246,287133,1,10,1:0:0:0:
146,133,287316,5,4,1:3:0:0:
270,288,287499,1,8,0:3:0:0:
15,340,287682,5,8,1:0:0:0:
124,232,287865,1,8,1:0:0:0:
192,366,288048,5,14,1:0:0:0:
114,320,288231,1,8,1:3:0:0:
114,320,288322,1,0,1:0:0:0:
114,320,288413,1,10,1:0:0:0:
192,366,288596,1,10,1:0:0:0:
293,182,288779,6,0,L|201:193,2,85,4|0|0,1:0|0:0|0:0,0:0:0:0:
477,31,290243,5,0,0:0:0:0:
416,94,290609,1,0,0:0:0:0:
490,145,290974,1,0,0:0:0:0:
208,357,291706,5,0,0:0:0:0:
187,267,292072,1,0,0:0:0:0:
272,234,292438,1,0,0:0:0:0:
29,110,293170,5,0,0:0:0:0:
65,199,293535,1,0,0:0:0:0:
161,170,293901,1,0,0:0:0:0:
409,344,294633,6,0,L|316:369,2,85
411,156,296096,6,0,L|504:131,2,85
202,40,297560,5,0,0:0:0:0:
202,40,297926,1,0,0:0:0:0:
202,40,298291,1,0,0:0:0:0:
53,208,299023,5,0,0:0:0:0:
53,208,299389,1,0,0:0:0:0:
53,208,299755,2,0,L|101:209,1,42.5
172,248,300121,1,0,0:0:0:0:
172,248,300487,6,0,P|168:206|171:153,1,85,2|0,0:3|0:0,0:0:0:0:
237,37,301218,2,0,L|289:32,1,42.5
334,91,301584,2,0,P|364:84|419:78,2,85,0|2|0,0:0|0:3|0:0,0:0:0:0:
334,91,302682,5,0,0:0:0:0:
290,162,302865,1,0,0:0:0:0:
360,210,303048,2,0,P|390:204|407:202,1,42.5
477,233,303413,6,0,P|479:275|482:317,2,85,2|0|0,0:3|0:0|0:0,0:0:0:0:
483,149,304328,1,0,0:0:0:0:
483,149,304511,2,0,P|437:154|390:158,1,85,0|2,0:0|0:3,0:0:0:0:
282,330,305243,2,0,P|279:293|276:235,1,85
276,245,306340,6,0,P|235:248|186:247,1,85,2|0,0:3|0:0,0:0:0:0:
191,247,307072,2,0,L|139:265,1,42.5
59,216,307438,2,0,L|103:198,1,42.5
15,264,307804,6,0,P|18:215|16:161,1,85,2|0,0:3|0:0,0:0:0:0:
148,29,308535,2,0,P|146:54|144:76,1,42.5
238,123,308901,2,0,L|230:75,1,42.5
309,162,309267,6,0,P|283:156|210:162,1,85,2|0,0:3|0:0,0:0:0:0:
157,206,309816,1,0,0:0:0:0:
157,206,309999,2,0,L|101:197,1,42.5
242,346,310548,5,0,0:0:0:0:
242,346,310731,2,0,L|334:333,2,85,2|0|0,0:3|0:0|0:0,0:0:0:0:
152,337,311645,1,0,0:0:0:0:
152,337,311828,1,0,0:0:0:0:
20,207,312194,6,0,P|15:151|14:113,1,85,2|0,0:3|0:0,0:0:0:0:
14,122,312926,2,0,L|69:117,1,42.5
133,90,313291,2,0,L|139:145,1,42.5
221,98,313657,6,0,L|211:6,2,85,2|0|0,0:3|0:0|0:0,0:0:0:0:
268,160,314572,1,0,0:0:0:0:
342,183,314755,2,0,P|368:182|392:178,1,42.5
462,228,315121,6,0,P|460:202|462:137,2,85,2|0|0,0:3|0:0|0:0,0:0:0:0:
435,300,316035,1,0,0:0:0:0:
435,300,316218,1,0,0:0:0:0:
253,309,316584,6,0,P|255:274|249:210,2,85,2|0|0,0:3|0:0|0:0,0:0:0:0:
174,351,317499,5,0,0:0:0:0:
174,351,317682,2,0,L|117:341,1,42.5
56,361,318048,2,0,P|50:335|54:267,1,85,4|0,0:3|0:0,0:0:0:0:
51,277,318779,2,0,L|96:272,1,42.5
175,264,319145,1,0,0:0:0:0:
175,264,319551,5,4,0:3:0:0:
220,192,319740,2,0,P|221:161|208:104,1,85
240,40,320270,1,0,0:0:0:0:
344,20,320627,5,0,0:0:0:0:
414,58,320807,2,0,L|456:47,1,42.5,0|4,0:0|0:3,0:0:0:0:
248,195,321815,5,0,0:0:0:0:
326,186,321998,5,0,0:0:0:0:
422,201,322240,5,0,0:0:0:0:
256,192,322462,12,0,325070,0:0:0:0:
