osu file format v13

[General]
AudioFilename: lastliarstanding.mp3
AudioLeadIn: 0
PreviewTime: 78298
Countdown: 0
SampleSet: Normal
StackLeniency: 0.7
Mode: 0
LetterboxInBreaks: 0
WidescreenStoryboard: 0

[Editor]
DistanceSpacing: 1.1
BeatDivisor: 4
GridSize: 4
TimelineZoom: 2.5

[Metadata]
Title:Last Liar Standing
TitleUnicode:Last Liar Standing
Artist:Foreground Eclipse
ArtistUnicode:Foreground Eclipse
Creator:rEdo
Version:Lunatic
Source:Touhou
Tags:Subterranean Animism th11 SA Satori Maiden 3rd Eye Teto Merami Comiket 85 c85 Stories That Last Through The Sleepless Nights Asagi Setsurei
BeatmapID:427064
BeatmapSetID:177429

[Difficulty]
HPDrainRate:7
CircleSize:4
OverallDifficulty:8
ApproachRate:8.5
SliderMultiplier:1.8
SliderTickRate:2

[Events]
//Background and Video events
0,0,"lastliarstanding.jpg",0,0
//Break Periods
//Storyboard Layer 0 (Background)
//Storyboard Layer 1 (Fail)
//Storyboard Layer 2 (Pass)
//Storyboard Layer 3 (Foreground)
//Storyboard Sound Samples
//Background Colour Transformations
3,100,163,162,255

[TimingPoints]
7707,379.746835443038,4,1,1,70,1,0
10745,-100,4,2,1,70,0,0
22897,-100,4,1,1,70,0,0
40365,-83.3333333333333,4,1,1,70,0,0
41314,-100,4,1,1,70,0,0
53941,-100,4,1,2,70,0,0
54131,-100,4,1,1,70,0,0
55460,-100,4,1,2,70,0,0
55650,-100,4,1,1,70,0,0
71124,-83.3333333333333,4,1,1,70,0,0
71504,-100,4,1,1,70,0,0
78339,-142.857142857143,4,1,1,70,0,0
79099,-100,4,1,1,70,0,1
91251,-100,4,1,1,70,0,0
110143,-100,4,1,2,70,0,0
110333,-100,4,1,1,70,0,0
111662,-100,4,1,2,70,0,0
111852,-100,4,1,1,70,0,0
126947,-142.857142857143,4,1,1,70,0,0
127707,-100,4,1,1,70,0,1
140950,-100,4,1,3,70,0,1
141045,-100,4,1,1,70,0,1
143988,-100,4,1,3,70,0,1
144083,-100,4,1,1,70,0,1
147026,-100,4,1,3,70,0,1
147121,-100,4,1,1,70,0,1
152010,-100,4,1,1,70,0,0

[HitObjects]
127,80,8846,6,0,P|104:70|79:65,2,45,8|0|0,0:0|0:0|0:0,0:0:0:0:
157,90,9099,1,0,0:0:0:0:
183,93,9162,1,0,0:0:0:0:
210,89,9225,1,8,0:0:0:0:
394,49,9510,1,0,0:0:0:0:
470,222,9795,1,0,0:0:0:0:
239,315,9985,6,0,P|286:317|330:304,1,90,8|0,0:0|0:0,0:0:0:0:
426,309,10365,1,4,0:0:0:0:
329,34,10744,6,0,B|313:68|235:78|200:48|200:48|185:56|184:80,1,180,0|0,1:0|0:0,0:0:0:0:
145,170,11314,1,0,0:0:0:0:
196,255,11504,2,0,B|199:280|178:296|178:296|156:315|116:318|84:297,2,135,2|0|0,0:0|0:0|1:0,0:0:0:0:
292,233,12263,2,0,P|351:237|382:247,1,90,0|0,1:0|0:0,0:0:0:0:
508,145,12643,2,0,P|449:149|418:159,1,90,2|0,0:0|0:0,0:0:0:0:
358,79,13023,5,0,0:0:0:0:
358,79,13213,1,0,1:0:0:0:
126,135,13593,5,0,1:0:0:0:
151,30,13782,2,0,B|104:47|63:32|63:32|60:79|3:119,1,180,0|0,1:0|0:0,0:0:0:0:
142,307,14542,2,0,B|174:285|207:294|207:294|215:263|246:242,2,135,2|0|0,0:0|0:0|1:0,0:0:0:0:
307,327,15301,6,0,B|363:350|386:310|386:310|441:294|434:239,1,180,0|0,1:0|0:0,0:0:0:0:
307,92,15871,1,0,1:0:0:0:
205,57,16061,2,0,B|149:34|126:74|126:74|71:90|78:145,1,180,0|2,1:0|0:0,0:0:0:0:
419,225,16820,6,0,P|387:329|319:317,1,180,2|0,1:2|0:0,0:0:0:0:
258,261,17390,1,0,0:0:0:0:
167,299,17580,2,0,B|125:317|100:308|100:308|64:292|63:258,1,135,2|0,0:0|0:0,0:0:0:0:
106,66,18150,5,0,1:0:0:0:
106,66,18339,1,0,1:1:0:0:
63,155,18529,1,0,0:0:0:0:
161,147,18719,5,2,0:0:0:0:
106,66,18909,1,0,0:0:0:0:
204,58,19099,1,0,0:0:0:0:
395,109,19289,5,0,1:0:0:0:
395,109,19669,1,0,1:0:0:0:
456,187,19858,2,0,P|468:279|383:309,1,180,0|0,1:0|0:0,0:0:0:0:
274,159,20618,2,0,P|262:66|347:36,1,180,0|2,0:0|0:0,0:0:0:0:
395,109,21188,1,0,0:0:0:0:
160,32,21377,5,4,0:0:0:0:
86,318,21757,1,4,0:0:0:0:
342,234,22137,1,4,0:0:0:0:
358,212,22200,1,0,0:0:0:0:
366,186,22263,1,0,0:0:0:0:
368,159,22327,1,2,0:0:0:0:
359,61,22517,6,0,B|260:22|289:113|163:55,1,180,8|4,1:0|1:1,0:0:0:0:
64,88,23086,1,0,0:0:0:0:
54,127,23181,1,8,0:0:0:0:
105,300,23371,1,8,0:0:0:0:
115,261,23466,1,0,0:0:0:0:
220,115,23656,5,8,0:0:0:0:
239,79,23751,1,0,0:0:0:0:
277,65,23846,1,0,0:0:0:0:
317,70,23941,2,0,P|377:78|416:66,1,90,0|8,0:0|0:0,0:0:0:0:
443,58,24225,1,0,0:0:0:0:
497,230,24415,5,0,0:0:0:0:
355,341,24605,1,0,0:0:0:0:
365,302,24700,1,8,0:0:0:0:
284,140,24890,1,8,0:0:0:0:
274,179,24985,1,0,0:0:0:0:
133,312,25175,5,8,0:0:0:0:
95,297,25270,1,0,0:0:0:0:
69,265,25365,1,0,0:0:0:0:
57,226,25460,1,0,0:0:0:0:
65,186,25555,2,0,P|70:164|74:142,1,45,8|0,0:0|0:0,0:0:0:0:
42,116,25744,2,0,P|37:94|33:72,1,45,8|0,0:0|0:0,0:0:0:0:
49,34,25934,5,0,0:0:0:0:
208,118,26124,1,0,0:0:0:0:
245,103,26219,1,8,0:0:0:0:
446,58,26409,1,8,0:0:0:0:
409,43,26504,1,0,0:0:0:0:
428,222,26694,5,8,0:0:0:0:
440,259,26789,1,0,0:0:0:0:
422,293,26884,1,0,0:0:0:0:
384,304,26979,2,0,P|325:308|283:325,1,90,0|8,0:0|0:0,0:0:0:0:
260,336,27263,1,0,0:0:0:0:
88,333,27453,6,0,P|62:291|58:250,1,90,8|0,0:0|0:0,0:0:0:0:
153,119,27833,1,8,0:0:0:0:
164,157,27928,1,0,0:0:0:0:
13,98,28118,1,8,0:0:0:0:
23,61,28213,1,0,0:0:0:0:
304,40,28403,6,0,P|280:34|253:33,2,45,0|0|8,0:0|0:0|0:0,0:0:0:0:
336,64,28688,1,0,0:0:0:0:
373,76,28782,1,0,0:0:0:0:
413,81,28877,1,0,0:0:0:0:
453,74,28972,1,0,0:0:0:0:
451,292,29162,5,0,0:0:0:0:
459,253,29257,1,8,0:0:0:0:
296,175,29447,1,8,0:0:0:0:
304,214,29542,1,0,0:0:0:0:
202,65,29732,5,8,0:0:0:0:
162,57,29827,1,0,0:0:0:0:
122,67,29922,1,0,0:0:0:0:
96,98,30017,1,0,0:0:0:0:
33,265,30207,1,8,0:0:0:0:
25,225,30301,1,0,0:0:0:0:
179,328,30491,6,0,P|248:323|275:303,1,90,0|0,0:0|0:0,0:0:0:0:
296,287,30776,1,8,0:0:0:0:
469,335,30966,1,8,0:0:0:0:
430,322,31061,1,0,0:0:0:0:
456,143,31251,6,0,P|459:120|461:95,3,45,8|0|0|0,0:0|0:0|0:0|0:0,0:0:0:0:
426,75,31631,2,0,P|408:46|402:29,1,45,8|0,0:0|0:0,0:0:0:0:
364,28,31820,2,0,P|338:28|308:36,1,45,8|0,0:0|0:0,0:0:0:0:
280,44,32010,1,0,0:0:0:0:
88,44,32200,5,0,0:0:0:0:
106,80,32295,2,0,P|118:120|115:176,1,90,8|8,0:0|0:0,0:0:0:0:
108,207,32580,1,0,0:0:0:0:
106,333,32770,6,0,P|79:333|46:324,2,45,8|0|0,0:0|0:0|0:0,0:0:0:0:
146,329,33055,2,0,P|197:313|247:315,1,90,0|8,0:0|0:0,0:0:0:0:
273,318,33339,1,0,0:0:0:0:
440,251,33529,5,8,0:0:0:0:
339,190,33719,1,0,0:0:0:0:
399,55,33909,1,8,0:0:0:0:
408,95,34004,1,0,0:0:0:0:
337,326,34194,1,8,0:0:0:0:
346,286,34289,1,0,0:0:0:0:
170,326,34479,5,0,0:0:0:0:
130,333,34574,1,0,0:0:0:0:
92,321,34669,1,8,0:0:0:0:
64,292,34763,1,0,0:0:0:0:
53,253,34858,1,0,0:0:0:0:
61,214,34953,1,0,0:0:0:0:
78,178,35048,6,0,P|86:159|92:133,3,45,4|0|0|0,0:0|0:0|0:0|0:0,0:0:0:0:
26,75,35428,2,0,P|17:93|12:120,3,45,8|0|0|0,0:0|0:0|0:0|0:0,0:0:0:0:
109,53,35808,2,0,P|132:44|159:39,1,45,2|0,0:0|0:0,0:0:0:0:
201,130,35998,2,0,P|178:121|151:116,3,45,0|0|8|0,0:0|0:0|0:0|0:0,0:0:0:0:
206,208,36377,6,0,P|230:202|254:190,3,45,2|0|0|0,0:0|0:0|0:0|0:0,0:0:0:0:
319,237,36757,2,0,P|325:213|328:185,1,45,2|0,0:0|0:0,0:0:0:0:
369,117,36947,2,0,P|388:132|406:153,1,45,8|0,0:0|0:0,0:0:0:0:
452,214,37137,2,0,P|428:226|401:229,1,45,0|0,0:0|0:0,0:0:0:0:
347,83,37327,5,2,0:0:0:0:
321,51,37422,1,0,0:0:0:0:
282,37,37517,1,0,0:0:0:0:
241,39,37612,1,0,0:0:0:0:
206,60,37707,2,0,P|181:73|148:78,1,45,8|0,0:0|0:0,0:0:0:0:
124,147,37896,2,0,P|103:127|87:98,1,45,0|0,0:0|0:0,0:0:0:0:
97,38,38086,1,4,0:0:0:0:
49,231,38276,5,0,0:0:0:0:
61,269,38371,1,0,0:0:0:0:
86,301,38466,1,8,0:0:0:0:
120,321,38561,1,0,0:0:0:0:
160,329,38656,1,0,0:0:0:0:
199,321,38751,1,0,0:0:0:0:
234,300,38846,6,0,P|253:286|272:268,3,45,2|0|0|0,0:0|0:0|0:0|0:0,0:0:0:0:
344,300,39225,2,0,P|348:276|348:250,3,45,8|0|0|0,0:0|0:0|0:0|0:0,0:0:0:0:
424,225,39605,2,0,P|410:205|392:186,3,45,2|0|0|0,0:0|0:0|0:0|0:0,0:0:0:0:
418,113,39985,6,0,P|394:108|368:108,1,45,8|0,0:0|0:0,0:0:0:0:
264,30,40175,2,0,P|283:43|302:62,1,45,0|0,0:0|0:0,0:0:0:0:
294,144,40365,6,0,P|237:164|184:160,1,107.999996704102,2|0,0:0|0:0,0:0:0:0:
50,242,40744,1,8,0:0:0:0:
121,315,40934,2,0,P|178:335|231:331,1,107.999996704102,2|4,0:0|0:0,0:0:0:0:
370,334,41314,5,0,0:0:0:0:
377,294,41409,1,0,0:0:0:0:
372,255,41504,2,0,P|390:234|414:220,3,45,8|0|0|0,0:0|0:0|0:0|0:0,0:0:0:0:
460,286,41884,2,0,P|472:312|479:339,3,45,2|0|0|0,0:0|0:0|0:0|0:0,0:0:0:0:
485,211,42263,2,0,P|475:185|457:163,3,45,8|0|0|0,0:0|0:0|0:0|0:0,0:0:0:0:
394,140,42643,6,0,P|410:117|434:97,7,45,2|0|0|0|8|0|0|0,0:0|0:0|0:0|0:0|0:0|0:0|0:0|0:0,0:0:0:0:
487,59,43403,2,0,P|462:39|422:26,3,45,2|0|0|0,0:0|0:0|0:0|0:0,0:0:0:0:
365,32,43782,5,8,0:0:0:0:
337,62,43877,1,0,0:0:0:0:
299,77,43972,1,0,0:0:0:0:
259,69,44067,1,0,0:0:0:0:
222,50,44162,2,0,P|199:46|170:46,7,45,4|0|0|0|8|0|0|0,0:0|0:0|0:0|0:0|0:0|0:0|0:0|0:0,0:0:0:0:
114,96,44922,6,0,P|103:76|93:49,3,45,0|0|0|0,0:0|0:0|0:0|0:0,0:0:0:0:
31,117,45301,2,0,P|20:136|10:164,3,45,8|0|0|0,0:0|0:0|0:0|0:0,0:0:0:0:
95,176,45681,2,0,P|99:204|107:229,7,45,2|0|0|0|8|0|0|0,0:0|0:0|0:0|0:0|0:0|0:0|0:0|0:0,0:0:0:0:
117,258,46441,5,2,0:0:0:0:
136,293,46536,1,0,0:0:0:0:
164,322,46631,1,0,0:0:0:0:
198,343,46725,1,0,0:0:0:0:
237,354,46820,1,8,0:0:0:0:
278,354,46915,1,0,0:0:0:0:
317,344,47010,1,0,0:0:0:0:
352,324,47105,1,0,0:0:0:0:
383,298,47200,5,4,0:0:0:0:
383,298,47295,1,0,0:0:0:0:
383,298,47390,2,0,P|395:255|398:199,1,90,0|8,0:0|0:0,0:0:0:0:
253,55,47770,2,0,P|240:97|238:154,1,90,2|0,0:0|0:0,0:0:0:0:
240,285,48150,1,0,0:0:0:0:
240,285,48244,1,0,0:0:0:0:
240,285,48339,1,8,0:0:0:0:
129,323,48529,1,0,0:0:0:0:
54,198,48719,5,2,0:0:0:0:
54,198,48814,1,0,0:0:0:0:
54,198,48909,2,0,P|47:142|48:93,1,90,0|8,0:0|0:0,0:0:0:0:
215,36,49289,2,0,P|172:43|116:40,1,90,2|0,0:0|0:0,0:0:0:0:
275,107,49669,1,2,0:0:0:0:
275,107,49763,1,0,0:0:0:0:
275,107,49858,2,0,P|318:100|374:103,1,90,8|0,0:0|0:0,0:0:0:0:
472,256,50238,5,2,0:0:0:0:
472,256,50333,1,0,0:3:0:0:
472,256,50428,1,0,0:0:0:0:
404,340,50618,1,8,0:0:0:0:
300,308,50808,2,0,P|252:300|188:304,1,90,2|0,0:0|0:0,0:0:0:0:
15,256,51188,1,0,0:0:0:0:
21,239,51282,1,0,0:0:0:0:
27,222,51377,2,0,P|75:214|139:218,1,90,8|0,0:0|0:0,0:0:0:0:
218,94,51757,5,2,0:0:0:0:
218,94,51852,1,0,0:0:0:0:
218,94,51947,1,0,0:0:0:0:
295,177,52137,2,0,P|323:125|322:76,1,90,8|0,0:0|0:0,0:0:0:0:
270,279,52517,2,0,P|329:277|370:251,1,90,2|0,0:0|0:0,0:0:0:0:
372,257,52801,1,0,0:0:0:0:
387,247,52896,1,8,0:0:0:0:
446,115,53086,1,0,0:0:0:0:
227,74,53276,5,2,0:0:0:0:
227,74,53371,1,0,0:0:0:0:
227,74,53466,2,0,P|180:70|128:44,1,90,0|8,0:0|0:0,0:0:0:0:
32,118,53846,2,0,B|-9:185|20:238|20:238|45:221|84:223,1,180,2|0,0:0|0:0,0:0:0:0:
87,225,54320,1,0,0:0:0:0:
104,229,54415,1,8,0:0:0:0:
77,342,54605,1,0,0:0:0:0:
285,298,54795,5,2,0:0:0:0:
285,298,54890,1,0,0:0:0:0:
285,298,54985,2,0,P|332:294|384:268,1,90,0|8,0:0|0:0,0:0:0:0:
450,190,55365,2,0,B|491:123|462:70|462:70|437:87|398:85,1,180,2|0,0:0|0:0,0:0:0:0:
395,83,55839,1,0,0:0:0:0:
378,79,55934,1,8,0:0:0:0:
200,32,56124,1,0,0:0:0:0:
263,150,56314,5,2,0:0:0:0:
263,150,56409,1,0,0:0:0:0:
263,150,56504,2,0,P|276:203|280:250,1,90,0|8,0:0|0:0,0:0:0:0:
108,311,56884,1,2,0:0:0:0:
108,311,56979,1,0,0:0:0:0:
108,311,57074,2,0,P|113:256|126:211,1,90,0|0,0:0|0:0,0:0:0:0:
275,330,57453,1,8,0:0:0:0:
427,234,57643,5,0,0:0:0:0:
447,199,57738,1,0,0:0:0:0:
452,159,57833,1,12,0:0:0:0:
440,121,57928,1,0,0:0:0:0:
413,91,58023,1,0,0:0:0:0:
376,76,58118,1,8,0:0:0:0:
336,77,58213,1,0,0:0:0:0:
298,94,58308,1,0,0:0:0:0:
257,94,58403,6,0,P|233:91|202:83,1,45,8|0,0:0|0:0,0:0:0:0:
142,47,58593,2,0,P|130:75|133:106,3,45,8|0|0|0,0:0|0:0|0:0|0:0,0:0:0:0:
161,164,58972,1,8,0:0:0:0:
167,203,59067,1,0,0:0:0:0:
150,239,59162,1,0,0:0:0:0:
115,258,59257,1,0,0:0:0:0:
76,254,59352,1,6,0:0:0:0:
219,340,59542,5,0,0:0:0:0:
306,293,59732,2,0,P|369:279|426:281,1,90,8|0,0:0|0:0,0:0:0:0:
455,200,60112,1,2,0:0:0:0:
410,112,60301,1,0,0:0:0:0:
410,112,60396,1,0,0:0:0:0:
410,112,60491,1,8,0:0:0:0:
313,132,60681,1,0,0:0:0:0:
164,44,60871,5,2,0:0:0:0:
164,44,60966,1,0,0:0:0:0:
164,44,61061,1,0,0:0:0:0:
67,64,61251,2,0,P|57:114|50:165,1,90,8|2,0:0|0:0,0:0:0:0:
192,330,61631,5,0,0:0:0:0:
286,287,61820,1,0,0:0:0:0:
289,269,61915,1,0,0:0:0:0:
290,251,62010,2,0,P|299:200|307:150,1,90,8|0,0:0|0:0,0:0:0:0:
461,60,62390,5,2,0:0:0:0:
461,60,62485,1,0,0:0:0:0:
461,60,62580,1,0,0:0:0:0:
446,204,62770,1,8,0:0:0:0:
308,48,62960,2,0,P|252:26|192:33,1,90,2|0,0:0|0:0,0:0:0:0:
74,90,63339,1,0,0:0:0:0:
71,107,63434,1,0,0:0:0:0:
68,124,63529,2,0,P|64:185|70:227,1,90,8|0,0:0|0:0,0:0:0:0:
295,254,63909,5,2,0:0:0:0:
295,254,64004,1,0,0:0:0:0:
295,254,64099,1,0,0:0:0:0:
226,329,64289,2,0,P|167:321|123:327,1,90,8|0,0:0|0:0,0:0:0:0:
384,295,64669,2,0,P|443:303|487:297,1,90,2|0,0:0|0:0,0:0:0:0:
473,300,64953,1,0,0:0:0:0:
473,300,65048,1,8,0:0:0:0:
339,133,65238,5,0,0:0:0:0:
445,116,65428,1,2,0:0:0:0:
445,116,65523,1,0,0:0:0:0:
445,116,65618,2,0,P|444:160|436:205,1,90,0|8,0:0|0:0,0:0:0:0:
309,30,65998,2,0,P|272:54|238:84,1,90,2|0,0:0|0:0,0:0:0:0:
119,28,66377,1,0,0:0:0:0:
103,36,66472,1,0,0:0:0:0:
87,44,66567,2,0,P|79:99|67:142,1,90,8|0,0:0|0:0,0:0:0:0:
52,279,66947,5,2,0:0:0:0:
36,271,67042,1,0,0:0:0:0:
20,263,67137,1,0,0:0:0:0:
175,346,67327,2,0,P|188:292|193:247,1,90,8|2,0:0|0:0,0:0:0:0:
303,37,67707,2,0,P|316:91|321:136,1,90,0|0,0:0|0:0,0:0:0:0:
322,142,67991,1,0,0:0:0:0:
322,160,68086,1,8,0:0:0:0:
451,223,68276,1,0,0:0:0:0:
356,339,68466,5,2,0:0:0:0:
356,339,68561,1,0,0:0:0:0:
356,339,68656,2,0,P|304:338|241:323,1,90,0|8,0:0|0:0,0:0:0:0:
36,293,69036,2,0,P|88:292|151:277,1,90,2|0,0:0|0:0,0:0:0:0:
228,223,69415,1,0,0:0:0:0:
228,223,69510,1,0,0:0:0:0:
228,223,69605,2,0,P|237:177|243:134,1,90,8|0,0:0|0:0,0:0:0:0:
47,54,69985,5,2,0:0:0:0:
47,54,70080,1,0,0:0:0:0:
47,54,70175,2,0,P|37:99|32:143,1,90,0|8,0:0|0:0,0:0:0:0:
169,314,70555,2,0,P|214:323|258:329,1,90,2|0,0:0|0:0,0:0:0:0:
388,267,70934,2,0,P|416:274|434:288,1,45,0|0,0:0|0:0,0:0:0:0:
465,304,71124,2,0,P|491:252|459:167,1,107.999996704102,8|0,0:0|0:0,0:0:0:0:
399,45,71504,6,0,P|336:41|280:90,1,135,12|0,0:0|0:0,0:0:0:0:
275,124,71884,2,0,P|229:111|165:104,1,90,8|0,0:0|0:0,0:0:0:0:
113,38,72263,1,8,0:0:0:0:
67,125,72453,2,0,P|61:149|60:170,2,45,0|0|8,0:0|0:0|0:0,0:0:0:0:
140,309,73023,5,8,0:0:0:0:
166,306,73086,1,0,0:0:0:0:
192,299,73150,1,0,0:0:0:0:
216,287,73213,1,0,0:0:0:0:
441,265,73403,5,8,0:0:0:0:
417,252,73466,1,0,0:0:0:0:
392,243,73530,1,0,0:0:0:0:
366,239,73593,1,0,0:0:0:0:
255,147,73782,5,8,0:0:0:0:
186,41,73972,2,0,P|188:23|193:0,3,30,0|0|0|8,0:0|0:0|0:0|0:0,0:0:0:0:
67,70,74352,1,0,0:0:0:0:
287,48,74542,6,0,P|350:44|406:93,1,135,12|0,0:0|0:0,0:0:0:0:
425,121,74922,2,0,P|412:176|418:220,1,90,8|0,0:0|0:0,0:0:0:0:
485,290,75301,1,8,0:0:0:0:
380,317,75491,1,0,0:0:0:0:
380,317,75586,1,0,0:0:0:0:
380,317,75681,1,8,0:0:0:0:
114,324,76061,6,0,P|43:266|61:176,1,180,12|8,0:0|0:0,0:0:0:0:
133,113,76631,1,0,0:0:0:0:
47,163,76820,5,8,0:0:0:0:
107,27,77010,1,0,0:0:0:0:
33,135,77200,5,8,0:0:0:0:
201,49,77390,1,8,0:0:0:0:
310,113,77580,5,8,0:0:0:0:
345,93,77674,1,8,0:0:0:0:
385,89,77769,1,8,0:0:0:0:
423,101,77864,1,8,0:0:0:0:
454,128,77959,1,8,0:0:0:0:
472,164,78054,1,8,0:0:0:0:
474,204,78149,1,8,0:0:0:0:
461,242,78244,1,8,0:0:0:0:
435,273,78339,6,0,B|412:295|406:310|406:310|384:298|340:305|326:330,1,125.999996154785,8|8,0:0|0:0,0:0:0:0:
310,113,79099,5,4,0:0:0:0:
290,77,79193,1,0,0:0:0:0:
257,54,79288,1,0,0:0:0:0:
218,49,79383,1,0,0:0:0:0:
180,63,79479,2,0,P|154:69|125:71,1,45,8|0,0:0|0:0,0:0:0:0:
97,143,79669,2,0,P|74:120|58:91,1,45,0|0,0:0|0:0,0:0:0:0:
25,226,79858,6,0,P|17:201|14:174,2,45,2|0|0,0:0|0:0|0:0,0:0:0:0:
97,264,80143,2,0,P|121:269|147:280,2,45,2|8|0,0:0|0:0|0:0,0:0:0:0:
22,353,80428,2,0,P|21:321|25:300,1,45,0|0,0:0|0:0,0:0:0:0:
221,256,80618,6,0,P|221:287|218:309,1,45,2|0,0:0|0:0,0:0:0:0:
172,184,80808,2,0,P|171:152|175:131,1,45,0|0,0:0|0:0,0:0:0:0:
278,79,80998,2,0,L|222:90,1,45,8|0,0:0|0:0,0:0:0:0:
361,104,81188,2,0,P|361:72|358:51,1,45,2|0,0:0|0:0,0:0:0:0:
431,151,81377,5,2,0:0:0:0:
452,185,81472,1,0,0:0:0:0:
460,224,81567,1,0,0:0:0:0:
453,264,81662,1,0,0:0:0:0:
433,299,81757,2,0,P|414:305|388:311,1,45,8|0,0:0|0:0,0:0:0:0:
318,347,81947,2,0,P|299:340|273:335,1,45,0|0,0:0|0:0,0:0:0:0:
212,280,82137,6,0,L|201:222,3,45,2|0|0|0,0:0|0:0|0:0|0:0,0:0:0:0:
137,315,82517,2,0,L|87:343,3,45,8|0|0|0,0:0|0:0|0:0|0:0,0:0:0:0:
18,307,82896,2,0,P|12:328|10:351,2,45,2|0|0,0:0|0:0|0:0,0:0:0:0:
56,193,83181,2,0,P|59:215|60:237,2,45,2|8|0,0:0|0:0|0:0,0:0:0:0:
15,81,83466,2,0,P|12:107|10:137,1,45,0|0,0:0|0:0,0:0:0:0:
78,26,83656,6,0,P|109:28|140:35,3,45,2|0|0|0,0:0|0:0|0:0|0:0,0:0:0:0:
171,100,84036,2,0,P|189:80|203:62,1,45,8|0,0:0|0:0,0:0:0:0:
278,97,84225,2,0,P|284:70|286:48,1,45,0|0,0:0|0:0,0:0:0:0:
371,47,84415,2,0,P|363:21|354:0,3,45,2|0|0|0,0:0|0:0|0:0|0:0,0:0:0:0:
384,84,84795,5,8,0:0:0:0:
407,118,84890,1,0,0:0:0:0:
437,145,84985,1,0,0:0:0:0:
429,185,85080,1,0,0:0:0:0:
431,225,85175,6,0,P|432:253|439:281,3,45,2|0|0|0,0:0|0:0|0:0|0:0,0:0:0:0:
426,350,85555,2,0,P|401:341|375:324,1,45,8|0,0:0|0:0,0:0:0:0:
311,369,85744,2,0,P|305:343|308:311,1,45,0|0,0:0|0:0,0:0:0:0:
240,277,85934,6,0,P|214:284|179:290,1,45,2|0,0:0|0:0,0:0:0:0:
106,359,86124,1,0,0:0:0:0:
106,359,86219,2,0,P|111:333|125:299,1,45,2|8,0:0|0:0,0:0:0:0:
102,208,86409,1,0,0:0:0:0:
102,208,86504,2,0,P|121:226|143:254,1,45,0|0,0:0|0:0,0:0:0:0:
25,165,86694,6,0,P|15:196|16:226,1,45,2|0,0:0|0:0,0:0:0:0:
64,91,86884,2,0,P|57:59|41:33,1,45,0|0,0:0|0:0,0:0:0:0:
149,97,87074,2,0,P|177:94|198:87,1,45,8|0,0:0|0:0,0:0:0:0:
275,57,87263,2,0,P|303:59|324:67,1,45,0|0,0:0|0:0,0:0:0:0:
402,31,87453,2,0,P|410:55|410:82,3,45,2|0|0|0,0:0|0:0|0:0|0:0,0:0:0:0:
460,162,87833,5,8,0:0:0:0:
469,207,87928,1,0,0:0:0:0:
459,251,88023,1,0,0:0:0:0:
435,289,88118,1,0,0:0:0:0:
395,308,88213,6,0,P|370:314|344:316,3,45,2|0|0|0,0:0|0:0|0:0|0:0,0:0:0:0:
230,265,88593,2,0,P|256:268|281:273,3,45,8|0|0|0,0:0|0:0|0:0|0:0,0:0:0:0:
134,334,88972,2,0,P|140:312|149:291,3,45,2|0|0|0,0:0|0:0|0:0|0:0,0:0:0:0:
151,168,89352,2,0,P|155:188|161:211,3,45,8|0|0|0,0:0|0:0|0:0|0:0,0:0:0:0:
57,158,89732,2,0,P|58:136|67:114,7,45,2|0|0|0|8|0|0|0,0:0|0:0|0:0|0:0|0:0|0:0|0:0|0:0,0:0:0:0:
88,80,90491,5,2,0:0:0:0:
104,43,90585,1,0,0:0:0:0:
148,31,90680,1,0,0:0:0:0:
188,35,90775,1,0,0:0:0:0:
219,60,90871,1,8,0:0:0:0:
250,85,90966,1,0,0:0:0:0:
290,89,91061,1,0,0:0:0:0:
327,73,91156,1,0,0:0:0:0:
350,40,91251,6,0,P|382:60|440:80,1,90,4|0,0:0|0:0,0:0:0:0:
471,84,91536,1,8,0:0:0:0:
394,205,91725,1,0,0:0:0:0:
406,243,91820,1,8,0:0:0:0:
284,336,92010,5,8,0:0:0:0:
257,305,92105,1,0,0:0:0:0:
217,297,92200,1,0,0:0:0:0:
177,304,92295,2,0,P|127:318|88:314,1,90,0|8,0:0|0:0,0:0:0:0:
49,307,92580,1,0,0:0:0:0:
113,165,92770,6,0,P|118:116|115:75,1,90,0|0,0:0|0:0,0:0:0:0:
107,35,93055,1,8,0:0:0:0:
286,35,93244,1,8,0:0:0:0:
279,75,93339,2,0,P|286:132|330:151,1,90,0|8,0:0|0:0,0:0:0:0:
349,157,93624,5,0,0:0:0:0:
388,165,93718,1,0,0:0:0:0:
418,191,93813,1,0,0:0:0:0:
432,229,93909,2,0,P|437:250|441:284,1,45,8|0,0:0|0:0,0:0:0:0:
378,321,94099,2,0,P|377:346|369:375,1,45,8|0,0:0|0:0,0:0:0:0:
302,299,94289,5,0,0:0:0:0:
137,334,94479,1,0,0:0:0:0:
98,320,94574,1,8,0:0:0:0:
11,177,94763,1,8,0:0:0:0:
50,163,94858,1,0,0:0:0:0:
181,40,95048,5,8,0:0:0:0:
214,63,95143,1,0,0:0:0:0:
254,65,95238,1,0,0:0:0:0:
293,57,95333,1,0,0:0:0:0:
450,73,95523,1,8,0:0:0:0:
465,110,95618,2,0,P|477:158|472:228,1,90,0|8,0:0|0:0,0:0:0:0:
433,317,95998,5,0,0:0:0:0:
311,282,96188,1,8,0:0:0:0:
272,294,96282,1,0,0:0:0:0:
122,195,96472,1,8,0:0:0:0:
161,207,96566,1,0,0:0:0:0:
34,292,96757,6,0,P|24:265|21:240,1,45,0|0,0:0|0:0,0:0:0:0:
21,207,96947,1,8,0:0:0:0:
29,167,97042,1,0,0:0:0:0:
46,130,97137,1,0,0:0:0:0:
78,106,97232,1,0,0:0:0:0:
117,98,97327,1,0,0:0:0:0:
284,30,97517,5,0,0:0:0:0:
245,42,97611,1,8,0:0:0:0:
400,90,97801,1,8,0:0:0:0:
439,102,97895,1,0,0:0:0:0:
304,192,98086,5,8,0:0:0:0:
281,225,98181,1,0,0:0:0:0:
272,264,98276,1,0,0:0:0:0:
280,303,98371,2,0,P|236:322|172:313,1,90,0|8,0:0|0:0,0:0:0:0:
155,309,98656,1,0,0:0:0:0:
369,259,98846,5,0,0:0:0:0:
315,68,99036,1,0,0:0:0:0:
297,104,99131,1,8,0:0:0:0:
131,178,99320,1,8,0:0:0:0:
113,142,99415,1,0,0:0:0:0:
155,309,99605,5,8,0:0:0:0:
194,299,99700,1,0,0:0:0:0:
234,305,99795,1,0,0:0:0:0:
270,322,99890,1,0,0:0:0:0:
304,342,99985,2,0,P|329:334|363:326,1,45,8|0,0:0|0:0,0:0:0:0:
416,365,100175,2,0,P|423:339|432:306,1,45,8|8,0:0|0:0,0:0:0:0:
412,245,100365,5,0,0:0:0:0:
449,78,100555,1,0,0:0:0:0:
467,42,100650,1,8,0:0:0:0:
284,86,100839,1,8,0:0:0:0:
302,122,100934,1,0,0:0:0:0:
140,42,101124,5,8,0:0:0:0:
122,77,101219,1,0,0:0:0:0:
113,116,101314,1,0,0:0:0:0:
120,155,101409,2,0,P|135:211|130:258,1,90,0|8,0:0|0:0,0:0:0:0:
131,283,101694,1,0,0:0:0:0:
300,344,101884,5,8,0:0:0:0:
325,312,101979,1,0,0:0:0:0:
363,300,102074,2,0,P|384:302|410:306,3,30,0|0|0|4,0:0|0:0|0:0|0:0,0:0:0:0:
479,144,102453,5,8,0:0:0:0:
454,112,102548,1,0,0:0:0:0:
416,100,102643,2,0,P|395:102|365:106,3,30,0|0|0|4,0:0|0:0|0:0|0:0,0:0:0:0:
216,39,103023,5,8,0:0:0:0:
202,77,103118,1,0,0:0:0:0:
171,103,103213,1,0,0:0:0:0:
132,115,103308,1,0,0:0:0:0:
98,109,103403,5,4,0:0:0:0:
98,109,103498,1,0,0:0:0:0:
98,109,103593,1,0,0:0:0:0:
30,203,103782,1,8,0:0:0:0:
79,298,103972,2,0,P|126:309|171:306,1,90,2|0,0:0|0:0,0:0:0:0:
219,211,104352,1,0,0:0:0:0:
219,211,104447,1,0,0:0:0:0:
219,211,104542,1,8,0:0:0:0:
294,337,104732,1,0,0:0:0:0:
356,259,104922,5,2,0:0:0:0:
356,259,105017,1,0,0:0:0:0:
356,259,105112,1,0,0:0:0:0:
439,310,105301,1,8,0:0:0:0:
439,210,105491,2,0,P|445:160|439:115,1,90,2|0,0:0|0:0,0:0:0:0:
280,33,105871,1,0,0:0:0:0:
280,33,105966,1,0,0:0:0:0:
280,33,106061,2,0,P|330:27|375:33,1,90,8|0,0:0|0:0,0:0:0:0:
182,127,106441,5,2,0:0:0:0:
182,127,106536,1,0,0:0:0:0:
182,127,106631,1,0,0:0:0:0:
310,166,106820,1,8,0:0:0:0:
182,127,107010,2,0,P|132:133|86:127,1,90,0|0,0:0|0:0,0:0:0:0:
29,248,107390,1,0,0:0:0:0:
32,265,107485,1,0,0:0:0:0:
36,282,107580,2,0,P|85:292|130:290,1,90,8|0,0:0|0:0,0:0:0:0:
300,336,107960,5,2,0:0:0:0:
304,319,108055,1,0,0:0:0:0:
307,302,108150,1,0,0:0:0:0:
380,235,108339,2,0,P|429:251|475:260,1,90,8|0,0:0|0:0,0:0:0:0:
371,135,108719,2,0,P|414:106|450:76,1,90,2|0,0:0|0:0,0:0:0:0:
443,82,109004,1,0,0:0:0:0:
443,82,109099,1,8,0:0:0:0:
267,168,109289,5,0,0:0:0:0:
220,80,109479,1,2,0:0:0:0:
220,80,109574,1,0,0:0:0:0:
220,80,109669,2,0,P|168:74|121:58,1,90,0|8,0:0|0:0,0:0:0:0:
55,125,110048,2,0,P|48:241|92:255,1,180,2|0,0:0|0:0,0:0:0:0:
105,256,110523,1,0,0:0:0:0:
122,254,110618,1,8,0:0:0:0:
203,337,110808,1,0,0:0:0:0:
317,312,110998,5,2,0:0:0:0:
317,312,111093,1,0,0:0:0:0:
317,312,111188,1,0,0:0:0:0:
360,223,111377,1,8,0:0:0:0:
423,336,111567,2,0,P|439:257|359:224,1,180,2|0,0:0|0:0,0:0:0:0:
354,206,112042,1,0,0:0:0:0:
351,188,112137,1,8,0:0:0:0:
433,105,112327,1,0,0:0:0:0:
294,40,112517,5,2,0:0:0:0:
294,40,112612,1,0,0:0:0:0:
294,40,112707,1,0,0:0:0:0:
82,77,112896,2,0,P|141:107|177:114,1,90,8|2,0:0|0:0,0:0:0:0:
181,114,113181,1,0,0:0:0:0:
198,115,113276,1,0,0:0:0:0:
112,242,113466,1,0,0:0:0:0:
251,306,113656,1,8,0:0:0:0:
368,207,113846,5,0,0:0:0:0:
368,207,113941,1,0,0:0:0:0:
368,207,114036,2,0,P|386:226|405:251,3,45,12|0|0|0,0:0|0:0|0:0|0:0,0:0:0:0:
484,305,114415,2,0,P|460:310|426:313,1,45,8|0,0:0|0:0,0:0:0:0:
342,350,114605,2,0,P|349:326|364:295,1,45,8|0,0:0|0:0,0:0:0:0:
467,172,114795,5,8,0:0:0:0:
470,131,114889,1,0,0:0:0:0:
459,93,114984,1,0,0:0:0:0:
435,60,115079,1,0,0:0:0:0:
402,37,115174,1,8,0:0:0:0:
363,28,115269,1,0,0:0:0:0:
323,32,115364,1,0,0:0:0:0:
287,50,115459,1,0,0:0:0:0:
258,80,115555,6,0,P|205:81|157:60,1,90,6|0,0:0|0:0,0:0:0:0:
19,154,115934,2,0,P|72:155|120:134,1,90,8|0,0:0|0:0,0:0:0:0:
225,188,116314,1,2,0:0:0:0:
174,303,116504,1,2,0:0:0:0:
174,303,116599,1,0,0:0:0:0:
174,303,116694,2,0,P|225:314|278:331,1,90,8|0,0:0|0:0,0:0:0:0:
473,265,117074,5,2,0:0:0:0:
473,265,117169,1,0,0:0:0:0:
473,265,117264,2,0,P|422:276|369:293,1,90,0|8,0:0|0:0,0:0:0:0:
293,90,117643,2,0,P|291:142|295:197,1,90,2|0,0:0|0:0,0:0:0:0:
427,138,118023,1,0,0:0:0:0:
427,138,118118,1,0,0:0:0:0:
427,138,118213,1,8,0:0:0:0:
351,26,118403,1,0,0:0:0:0:
215,57,118593,5,2,0:0:0:0:
215,57,118688,1,0,0:0:0:0:
215,57,118782,2,0,P|156:64|115:63,1,90,0|8,0:0|0:0,0:0:0:0:
46,174,119162,2,0,P|105:167|146:168,1,90,2|0,0:0|0:0,0:0:0:0:
102,302,119542,1,0,0:0:0:0:
102,302,119637,1,0,0:0:0:0:
102,302,119732,1,8,0:0:0:0:
255,285,119922,1,0,0:0:0:0:
234,131,120112,5,2,0:0:0:0:
234,131,120207,1,0,0:0:0:0:
234,131,120301,1,0,0:0:0:0:
378,191,120491,2,0,P|406:240|406:288,1,90,8|0,0:0|0:0,0:0:0:0:
467,130,120871,2,0,P|477:89|481:42,1,90,2|0,0:0|0:0,0:0:0:0:
480,41,121156,1,0,0:0:0:0:
480,41,121251,1,8,0:0:0:0:
356,62,121441,5,0,0:0:0:0:
252,30,121631,1,2,0:0:0:0:
252,30,121725,1,0,0:0:0:0:
252,30,121820,2,0,P|207:42|150:41,1,90,0|8,0:0|0:0,0:0:0:0:
73,204,122200,2,0,P|61:159|62:102,1,90,2|0,0:0|0:0,0:0:0:0:
231,178,122580,1,0,0:0:0:0:
231,178,122675,1,0,0:0:0:0:
231,178,122770,2,0,P|233:224|220:280,1,90,8|0,0:0|0:0,0:0:0:0:
134,326,123150,5,2,0:0:0:0:
134,326,123244,1,0,0:0:0:0:
134,326,123339,2,0,P|84:324|37:312,1,90,0|8,0:0|0:0,0:0:0:0:
326,297,123719,2,0,P|377:285|423:287,1,90,2|0,0:0|0:0,0:0:0:0:
456,46,124099,1,0,0:0:0:0:
462,62,124194,1,0,0:0:0:0:
469,78,124289,2,0,P|483:127|477:176,1,90,8|0,0:0|0:0,0:0:0:0:
326,133,124669,5,6,0:0:0:0:
333,93,124763,1,0,0:0:0:0:
318,56,124858,1,0,0:0:0:0:
286,33,124953,1,0,0:0:0:0:
246,30,125048,6,0,P|221:35|195:37,1,45,8|0,0:0|0:0,0:0:0:0:
78,67,125238,2,0,P|103:71|129:73,1,45,0|0,0:0|0:0,0:0:0:0:
199,123,125428,2,0,P|179:139|157:154,1,45,8|0,0:0|0:0,0:0:0:0:
91,202,125618,2,0,P|110:218|132:233,1,45,0|0,0:0|0:0,0:0:0:0:
211,269,125808,2,0,P|216:240|215:214,1,45,8|0,0:0|0:0,0:0:0:0:
62,292,125998,2,0,P|64:321|72:346,1,45,8|0,0:0|0:0,0:0:0:0:
270,327,126188,5,8,0:0:0:0:
303,304,126282,1,0,0:0:0:0:
342,296,126377,1,0,0:0:0:0:
382,301,126472,1,2,0:0:0:0:
475,146,126662,5,0,0:0:0:0:
442,123,126756,1,2,0:0:0:0:
403,115,126851,1,0,0:0:0:0:
363,120,126947,2,0,B|336:122|301:111|288:89|288:89|267:99|245:96,1,125.999996154785,8|8,0:0|0:0,0:0:0:0:
62,292,127707,5,4,0:0:0:0:
76,254,127801,1,0,0:0:0:0:
108,229,127896,1,0,0:0:0:0:
148,225,127991,1,0,0:0:0:0:
186,238,128086,2,0,P|210:246|236:251,1,45,8|0,0:0|0:0,0:0:0:0:
269,319,128276,2,0,P|287:302|305:282,1,45,0|0,0:0|0:0,0:0:0:0:
301,207,128466,6,0,P|300:177|301:153,2,45,2|0|0,0:0|0:0|0:0,0:0:0:0:
382,186,128751,2,0,P|412:185|436:186,2,45,2|8|0,0:0|0:0|0:0,0:0:0:0:
403,267,129036,2,0,P|404:297|403:321,1,45,0|0,0:0|0:0,0:0:0:0:
408,107,129225,6,0,P|409:77|408:53,1,45,2|0,0:0|0:0,0:0:0:0:
294,25,129415,2,0,P|321:29|352:30,1,45,0|0,0:0|0:0,0:0:0:0:
231,78,129605,2,0,P|204:82|173:83,1,45,8|0,0:0|0:0,0:0:0:0:
114,170,129795,2,0,P|113:140|114:116,1,45,0|0,0:0|0:0,0:0:0:0:
42,220,129985,6,0,P|41:250|42:274,3,45,2|0|0|0,0:0|0:0|0:0|0:0,0:0:0:0:
85,333,130365,2,0,P|112:333|140:345,1,45,8|0,0:0|0:0,0:0:0:0:
194,292,130555,2,0,P|219:286|246:272,1,45,2|0,0:0|0:0,0:0:0:0:
310,307,130744,6,0,P|334:316|363:315,3,45,2|0|0|0,0:0|0:0|0:0|0:0,0:0:0:0:
473,278,131124,2,0,P|446:279|420:286,3,45,8|0|0|0,0:0|0:0|0:0|0:0,0:0:0:0:
376,220,131504,2,0,P|370:195|370:176,2,45,2|0|0,0:0|0:0|0:0,0:0:0:0:
453,174,131789,2,0,P|451:149|445:130,2,45,2|8|0,0:0|0:0|0:0,0:0:0:0:
372,94,132074,2,0,P|350:91|326:83,1,45,0|0,0:0|0:0,0:0:0:0:
270,31,132263,6,0,P|241:31|208:37,3,45,2|0|0|0,0:0|0:0|0:0|0:0,0:0:0:0:
165,90,132643,2,0,P|143:88|114:82,1,45,8|0,0:0|0:0,0:0:0:0:
51,129,132833,2,0,P|42:160|44:191,1,45,0|0,0:0|0:0,0:0:0:0:
80,247,133023,2,0,P|89:278|87:309,3,45,2|0|0|0,0:0|0:0|0:0|0:0,0:0:0:0:
157,341,133403,5,8,0:0:0:0:
188,314,133498,1,0,0:0:0:0:
227,303,133593,1,0,0:0:0:0:
267,307,133688,1,0,0:0:0:0:
303,324,133782,6,0,P|330:330|353:333,3,45,2|0|0|0,0:0|0:0|0:0|0:0,0:0:0:0:
392,267,134162,2,0,P|419:258|439:249,1,45,8|0,0:0|0:0,0:0:0:0:
437,173,134352,2,0,P|456:152|469:134,1,45,0|0,0:0|0:0,0:0:0:0:
392,104,134542,6,0,P|375:82|357:66,1,45,2|0,0:0|0:0,0:0:0:0:
310,176,134732,1,0,0:0:0:0:
310,176,134827,2,0,P|313:148|312:124,1,45,2|8,0:0|0:0,0:0:0:0:
201,170,135017,1,0,0:0:0:0:
201,170,135112,2,0,P|222:152|238:135,1,45,0|0,0:0|0:0,0:0:0:0:
166,97,135301,6,0,P|145:86|119:77,1,45,2|0,0:0|0:0,0:0:0:0:
11,136,135491,2,0,P|31:125|58:116,1,45,0|0,0:0|0:0,0:0:0:0:
113,176,135681,2,0,P|119:200|124:227,1,45,8|0,0:0|0:0,0:0:0:0:
41,306,135871,2,0,P|47:282|52:255,1,45,0|0,0:0|0:0,0:0:0:0:
146,301,136061,6,0,P|174:307|203:311,3,45,2|0|0|0,0:0|0:0|0:0|0:0,0:0:0:0:
300,254,136441,2,0,P|271:255|242:259,3,45,8|0|0|0,0:0|0:0|0:0|0:0,0:0:0:0:
358,319,136820,6,0,P|372:301|384:275,3,45,2|0|0|0,0:0|0:0|0:0|0:0,0:0:0:0:
458,253,137200,2,0,P|461:275|458:304,3,45,8|0|0|0,0:0|0:0|0:0|0:0,0:0:0:0:
390,203,137580,2,0,P|386:180|389:151,3,45,2|0|0|0,0:0|0:0|0:0|0:0,0:0:0:0:
468,114,137960,2,0,P|471:136|468:165,3,45,8|0|0|0,0:0|0:0|0:0|0:0,0:0:0:0:
390,74,138339,5,2,0:0:0:0:
352,89,138433,1,0,0:0:0:0:
313,97,138528,1,0,0:0:0:0:
272,95,138623,1,0,0:0:0:0:
233,85,138718,1,8,0:0:0:0:
196,69,138813,1,0,0:0:0:0:
157,58,138908,1,0,0:0:0:0:
117,60,139003,1,0,0:0:0:0:
81,79,139098,5,2,0:0:0:0:
55,109,139193,1,0,0:0:0:0:
40,147,139288,1,0,0:0:0:0:
36,187,139383,1,0,0:0:0:0:
43,227,139478,1,8,0:0:0:0:
60,263,139573,1,0,0:0:0:0:
89,291,139668,1,8,0:0:0:0:
127,306,139763,1,0,0:0:0:0:
167,307,139858,6,0,P|230:291|321:298,1,135,4|0,0:0|0:0,0:0:0:0:
339,303,140238,1,8,0:0:0:0:
446,256,140428,1,0,0:0:0:0:
379,159,140618,2,0,P|424:100|483:92,2,135,2|0|2,0:0|0:0|0:0,0:0:0:0:
339,303,141377,5,2,0:0:0:0:
252,181,141567,1,0,0:0:0:0:
212,325,141757,5,8,0:0:0:0:
379,159,141947,1,2,0:0:0:0:
156,94,142137,1,2,0:0:0:0:
286,60,142327,1,0,0:0:0:0:
61,60,142517,5,8,0:0:0:0:
47,98,142612,1,0,0:0:0:0:
128,258,142801,1,0,0:0:0:0:
114,220,142896,2,0,P|16:238|25:288,1,135,2|0,0:0|0:0,0:0:0:0:
23,289,143276,1,8,0:0:0:0:
212,325,143466,1,0,0:0:0:0:
248,136,143656,2,0,B|209:121|195:96|195:96|165:106|113:90,2,135,2|0|2,0:0|0:0|0:0,0:0:0:0:
337,243,144415,5,8,0:0:0:0:
376,239,144509,1,0,0:0:0:0:
408,261,144604,1,0,0:0:0:0:
418,300,144699,1,0,0:0:0:0:
400,335,144794,1,8,0:0:0:0:
454,169,144985,5,0,0:0:0:0:
439,131,145080,1,0,0:0:0:0:
447,91,145175,2,0,P|392:86|353:69,1,90,8|0,0:0|0:0,0:0:0:0:
165,125,145555,2,0,P|220:120|259:103,1,90,2|0,0:0|0:0,0:0:0:0:
117,57,145839,5,0,0:0:0:0:
117,57,145934,2,0,P|79:145|107:185,1,135,2|0,0:0|0:0,0:0:0:0:
121,201,146314,1,8,0:0:0:0:
24,266,146504,1,0,0:0:0:0:
202,286,146694,2,0,B|254:299|285:320|285:320|311:310|337:306,2,135,2|0|2,0:0|0:0|0:0,0:0:0:0:
298,219,147453,5,2,0:0:0:0:
202,286,147643,1,0,0:0:0:0:
230,123,147833,1,8,0:0:0:0:
363,316,148023,1,2,0:0:0:0:
391,153,148213,1,2,0:0:0:0:
202,286,148403,1,0,0:0:0:0:
44,246,148593,5,8,0:0:0:0:
31,207,148688,1,0,0:0:0:0:
148,116,148877,1,0,0:0:0:0:
161,77,148972,2,0,P|210:43|290:69,1,135,2|0,0:0|0:0,0:0:0:0:
319,48,149352,5,8,0:0:0:0:
450,127,149542,1,0,0:0:0:0:
379,242,149732,2,0,P|374:287|379:333,1,90,2|0,0:0|0:0,0:0:0:0:
253,242,150112,2,0,P|248:287|253:333,1,90,8|0,0:0|0:0,0:0:0:0:
252,331,150396,1,0,0:0:0:0:
252,331,150491,1,4,0:0:0:0:
463,286,150681,5,0,0:0:0:0:
463,286,150776,1,0,0:0:0:0:
463,286,150871,1,4,0:0:0:0:
317,126,151061,1,0,0:0:0:0:
194,258,151251,5,2,0:0:0:0:
171,291,151345,1,0,0:0:0:0:
137,313,151440,1,0,0:0:0:0:
98,320,151535,1,0,0:0:0:0:
58,312,151630,1,8,0:0:0:0:
75,160,151820,1,0,0:0:0:0:
174,43,152010,6,0,P|200:47|230:57,3,45,4|0|0|0,0:0|0:0|0:0|0:0,0:0:0:0:
291,29,152390,2,0,P|354:37|403:33,1,90,8|0,0:0|0:0,0:0:0:0:
364,152,152770,2,0,P|425:137|470:117,1,90,8|0,0:0|0:0,0:0:0:0:
438,245,153150,1,2,0:0:0:0:
438,245,153244,1,0,0:0:0:0:
438,245,153339,1,0,0:0:0:0:
404,347,153529,5,2,0:0:0:0:
316,299,153719,2,0,P|307:324|304:345,1,45,0|2,0:0|0:0,0:0:0:0:
207,235,154004,2,0,P|203:208|196:187,1,45,0|2,0:0|0:0,0:0:0:0:
146,310,154289,1,2,0:0:0:0:
52,291,154479,1,0,0:0:0:0:
52,291,154574,1,0,0:0:0:0:
52,291,154669,2,0,P|32:236|35:196,1,90,8|0,0:0|0:0,0:0:0:0:
129,64,155048,6,0,P|155:60|185:50,3,45,2|0|0|0,0:0|0:0|0:0|0:0,0:0:0:0:
246,30,155428,1,8,0:0:0:0:
371,117,155618,1,0,0:0:0:0:
221,151,155808,2,0,P|215:195|216:245,1,90,8|0,0:0|0:0,0:0:0:0:
419,327,156188,5,2,0:0:0:0:
419,327,156282,1,0,0:0:0:0:
419,327,156377,2,0,P|425:283|424:233,1,90,0|2,0:0|0:0,0:0:0:0:
371,112,156757,1,0,0:0:0:0:
396,80,156852,1,2,0:0:0:0:
261,65,157042,1,0,0:0:0:0:
267,25,157137,1,2,0:0:0:0:
263,214,157327,1,2,0:0:0:0:
141,69,157517,6,0,P|133:45|124:13,2,45,0|0|8,0:0|0:0|0:0,0:0:0:0:
27,123,157896,1,0,0:0:0:0:
130,195,158086,5,4,0:0:0:0:
120,234,158181,1,0,0:0:0:0:
125,274,158276,1,0,0:0:0:0:
143,310,158371,1,0,0:0:0:0:
173,338,158466,1,8,0:0:0:0:
210,353,158561,1,0,0:0:0:0:
250,355,158656,1,0,0:0:0:0:
289,343,158750,1,0,0:0:0:0:
323,320,158846,6,0,P|346:308|370:294,3,45,8|0|0|0,0:0|0:0|0:0|0:0,0:0:0:0:
430,338,159225,2,0,P|438:312|444:286,3,45,8|0|0|0,0:0|0:0|0:0|0:0,0:0:0:0:
417,220,159605,5,8,0:0:0:0:
402,182,159699,1,0,0:0:0:0:
416,144,159794,1,0,0:0:0:0:
427,106,159889,1,0,0:0:0:0:
415,68,159984,1,8,0:0:0:0:
382,46,160079,1,0,0:0:0:0:
342,46,160174,1,0,0:0:0:0:
306,65,160269,1,0,0:0:0:0:
270,65,160365,6,0,P|240:62|215:54,3,45,8|0|0|0,0:0|0:0|0:0|0:0,0:0:0:0:
162,111,160744,2,0,P|149:84|144:57,3,45,8|0|0|0,0:0|0:0|0:0|0:0,0:0:0:0:
179,147,161124,5,8,0:0:0:0:
191,184,161218,1,0,0:0:0:0:
180,223,161313,1,0,0:0:0:0:
149,247,161408,1,0,0:0:0:0:
109,250,161504,2,0,P|82:246|56:244,3,45,8|0|0|0,0:0|0:0|0:0|0:0,0:0:0:0:
62,336,161884,5,8,0:0:0:0:
101,342,161979,1,0,0:0:0:0:
141,345,162074,1,0,0:0:0:0:
181,341,162169,1,0,0:0:0:0:
216,323,162263,2,0,P|238:305|256:288,3,45,8|0|0|0,0:0|0:0|0:0|0:0,0:0:0:0:
284,223,162643,5,8,0:0:0:0:
295,184,162738,1,0,0:0:0:0:
290,143,162833,1,0,0:0:0:0:
264,111,162928,1,0,0:0:0:0:
236,80,163023,1,8,0:0:0:0:
235,39,163118,1,0,0:0:0:0:
265,12,163213,1,0,0:0:0:0:
305,5,163308,1,0,0:0:0:0:
342,21,163403,6,0,P|361:28|383:33,4,30,8|0|0|0|0,0:0|0:0|0:0|0:0|0:0,0:0:0:0:
398,100,163782,2,0,P|416:91|435:79,4,30,8|0|0|0|0,0:0|0:0|0:0|0:0|0:0,0:0:0:0:
482,148,164162,5,10,0:0:0:0:
474,196,164257,1,0,0:0:0:0:
466,244,164352,1,0,0:0:0:0:
458,293,164447,1,10,0:0:0:0:
265,290,164637,5,8,0:0:0:0:
297,329,164732,1,10,0:0:0:0:
327,88,164922,5,10,0:0:0:0:
323,66,165681,1,4,0:0:0:0:
256,192,165776,12,4,167960,0:0:0:0:
