osu file format v14

[General]
AudioFilename: Foreground Eclipse - In A Night When Her Sorrow Resounds Around.mp3
AudioLeadIn: 0
PreviewTime: 111800
Countdown: 0
SampleSet: Normal
StackLeniency: 0.7
Mode: 0
LetterboxInBreaks: 0
WidescreenStoryboard: 0

[Editor]
DistanceSpacing: 0.8
BeatDivisor: 4
GridSize: 4
TimelineZoom: 2.899999

[Metadata]
Title:In A Night When Her Sorrow Resounds Around
TitleUnicode:In A Night When Her Sorrow Resounds Around
Artist:Foreground Eclipse
ArtistUnicode:Foreground Eclipse
Creator:Repr1se
Version:Normal
Source:東方Project
Tags:Wishes Hidden the Foreground Noises gensokyo Meramipop 夜雀の歌声 Night Bird Mystia Lorelei もう歌しか聞こえない Imperishable Night
BeatmapID:728942
BeatmapSetID:327187

[Difficulty]
HPDrainRate:5
CircleSize:3
OverallDifficulty:5
ApproachRate:5
SliderMultiplier:1.2
SliderTickRate:2

[Events]
//Background and Video events
0,0,"bg.jpg",0,0
//Break Periods
2,67563,84162
2,136564,150163
2,187563,198164
//Storyboard Layer 0 (Background)
//Storyboard Layer 1 (Fail)
//Storyboard Layer 2 (Pass)
//Storyboard Layer 3 (Foreground)
//Storyboard Sound Samples

[TimingPoints]
1363,375,4,1,0,30,1,0
13363,-100,4,1,0,85,0,0
36613,-133.333333333333,4,1,0,30,0,0
36988,-100,4,1,0,30,0,0
37363,-100,4,1,0,45,0,0
49363,-100,4,1,0,65,0,0
61363,-100,4,1,0,45,0,0
112363,-100,4,1,0,85,0,1
136363,-100,4,1,0,45,0,0
160550,-100,4,1,0,50,0,0
160738,-100,4,1,0,55,0,0
160925,-100,4,1,0,60,0,0
161113,-100,4,1,0,65,0,0
161300,-100,4,1,0,70,0,0
161488,-100,4,1,0,75,0,0
161675,-100,4,1,0,80,0,0
163363,-100,4,1,0,85,0,0
197863,-100,4,1,0,45,0,0
211363,-100,4,1,0,65,0,1
235363,-100,4,1,0,75,0,0
247363,-100,4,1,0,85,0,0
258613,-200,4,1,0,53,0,0
259363,-100,4,1,0,20,0,0

[Colours]
Combo1 : 90,165,133
Combo2 : 45,154,196
Combo3 : 180,78,214
Combo4 : 171,39,72

[HitObjects]
244,296,13362,6,0,P|292:308|384:280,1,120,4|0,0:0|0:0,0:0:0:0:
432,232,14112,2,0,P|452:196|452:104,1,120
380,60,14862,2,0,B|328:44|312:112|256:92,1,120
224,96,15424,1,0,0:0:0:0:
176,84,15613,1,0,0:0:0:0:
120,160,15987,1,0,0:0:0:0:
80,72,16363,6,0,P|36:108|28:184,2,120,4|0|0,0:0|0:0|0:0,0:0:0:0:
176,68,17488,1,0,0:0:0:0:
268,48,17863,2,0,P|300:40|340:48,2,60
308,136,18613,2,0,P|267:169|192:182,1,120
108,180,19363,6,0,P|48:200|16:268,2,120,4|0|0,0:0|0:0|0:0,0:0:0:0:
112,276,20487,1,0,0:0:0:0:
208,276,20862,2,0,P|240:272|272:244,2,60
204,180,21613,2,0,P|224:128|292:88,1,120
312,184,22362,6,0,P|364:148|380:68,2,120,4|0|0,0:0|0:0|0:0,0:0:0:0:
312,184,23488,1,0,0:0:0:0:
404,216,23863,2,0,P|440:256|400:308,1,120
320,336,24613,2,0,P|260:336|216:284,1,120,4|0,0:0|0:0,0:0:0:0:
200,200,25362,6,0,B|176:140|116:112,1,120,4|0,0:0|0:0,0:0:0:0:
28,88,26113,2,0,P|76:32|140:24,1,120,4|0,0:0|0:0,0:0:0:0:
216,44,26862,1,0,0:0:0:0:
300,92,27237,1,0,0:0:0:0:
344,176,27612,2,0,P|388:132|392:72,1,120
476,132,28363,6,0,P|460:180|416:232,2,120,4|0|0,0:0|0:0|0:0,0:0:0:0:
397,76,29487,1,0,0:0:0:0:
304,96,29862,6,0,P|248:128|192:176,2,120
400,108,30987,2,0,P|408:140|408:172,1,60
396,212,31363,1,0,0:0:0:0:
292,200,31737,5,0,0:0:0:0:
196,196,32112,2,0,P|152:188|124:176,2,60
292,200,32863,6,0,P|352:220|400:256,2,120,4|0|0,0:0|0:0|0:0,0:0:0:0:
232,124,33988,1,0,0:0:0:0:
328,124,34363,6,0,P|396:116|452:92,2,120,4|0|0,0:0|0:0|0:0,0:0:0:0:
252,64,35487,1,0,0:0:0:0:
156,48,35863,6,0,P|96:56|52:112,2,120,4|0|0,0:0|0:0|0:0,0:0:0:0:
136,128,36987,1,0,0:0:0:0:
212,104,37363,6,0,P|208:168|148:208,1,120
136,292,38113,2,0,P|100:268|80:236,2,60,8|0|0,0:0|0:0|0:0,0:0:0:0:
232,300,38862,2,0,B|268:300|304:244|344:244,1,120
420,216,39612,2,0,P|444:216|504:224,2,60,8|0|0,0:0|0:0|0:0,0:0:0:0:
332,172,40363,6,0,P|376:128|444:120,1,120
476,32,41113,1,8,0:0:0:0:
380,36,41488,1,0,0:0:0:0:
292,76,41862,2,0,P|280:40|288:16,2,60
348,156,42613,1,8,0:0:0:0:
308,244,42987,1,0,0:0:0:0:
248,320,43363,6,0,P|208:348|172:356,2,60,0|0|4,0:0|0:0|0:0,0:0:0:0:
248,224,44113,1,8,0:0:0:0:
156,200,44487,1,0,0:0:0:0:
64,160,44863,2,0,P|108:108|172:104,2,120,0|0|8,0:0|0:0|0:0,0:0:0:0:
72,256,45987,1,0,0:0:0:0:
160,291,46363,2,0,P|220:267|244:207,2,120,0|0|8,0:0|0:0|0:0,0:0:0:0:
168,132,47863,6,0,P|120:100|92:32,2,120
256,168,48987,1,0,0:0:0:0:
244,264,49362,6,0,P|296:260|348:200,2,120,4|0|0,0:0|0:0|0:0,0:0:0:0:
148,256,50487,2,0,P|152:228|180:196,1,60
180,108,51049,2,0,P|212:112|248:144,2,60
132,112,51613,2,0,P|96:148|100:216,1,120
152,292,52362,5,4,0:0:0:0:
240,332,52738,2,0,P|220:360|172:380,2,60
236,236,53487,2,0,P|272:240|308:268,1,60
348,332,54050,2,0,P|376:304|388:272,1,60
356,196,54612,6,0,P|368:168|404:148,1,60
436,168,54987,2,0,P|464:152|480:116,1,60
480,80,55362,6,0,P|472:60|432:52,1,60,4|0,0:0|0:0,0:0:0:0:
392,60,55737,2,0,P|352:68|316:68,1,60
284,64,56113,1,0,0:0:0:0:
196,92,56488,2,0,P|152:96|112:96,1,60
176,184,57050,2,0,P|128:192|96:192,1,60
76,220,57425,6,0,L|64:280,1,60
96,312,57800,2,0,L|164:276,1,60
240,252,58362,2,0,P|272:248|316:224,1,60,4|0,0:0|0:0,0:0:0:0:
340,220,58737,1,0,0:0:0:0:
272,152,59112,2,0,P|304:128|332:128,2,60
272,152,59675,1,0,0:0:0:0:
176,168,60049,6,0,P|184:120|200:84,2,60
164,216,60613,2,0,P|164:280|187:342,1,120
256,192,61362,12,0,67363,0:0:0:0:
320,80,85362,6,0,P|316:120|240:160,1,120
160,176,86113,2,0,P|112:216|84:280,1,120,0|8,0:0|0:0,0:0:0:0:
148,340,86862,1,0,0:0:0:0:
244,356,87237,1,0,0:0:0:0:
320,300,87612,1,0,0:0:0:0:
356,212,87987,1,0,0:0:0:0:
452,204,88363,2,0,P|424:144|352:116,1,120
280,132,89113,6,0,P|240:136|196:132,2,60,0|8|0,0:0|0:0|0:0,0:0:0:0:
252,224,89863,2,0,P|188:212|136:188,1,120
52,228,90613,2,0,P|100:280|148:304,1,120
240,292,91363,6,0,P|304:292|364:316,2,120,0|8|0,0:0|0:0|0:0,0:0:0:0:
156,248,92487,1,0,0:0:0:0:
84,188,92863,2,0,P|136:156|196:164,1,120
284,196,93612,2,0,P|320:200|352:192,2,60
320,108,94363,6,0,P|372:76|432:64,2,120,0|8|0,0:0|0:0|0:0,0:0:0:0:
284,196,95488,1,0,0:0:0:0:
188,188,95863,2,0,P|144:144|144:76,1,120
236,100,96613,2,0,P|292:84|352:108,1,120
376,196,97363,6,0,P|364:248|300:284,1,120,4|0,0:0|0:0,0:0:0:0:
216,284,98113,2,0,P|176:288|132:300,2,60,0|8|0,0:0|0:0|0:0,0:0:0:0:
216,284,98675,1,0,0:0:0:0:
152,212,99051,6,0,P|124:188|84:168,2,60
152,212,99612,1,0,0:0:0:0:
240,176,99988,2,0,P|256:204|280:224,1,60
320,240,100363,6,0,P|344:260|360:288,1,60,4|0,0:0|0:0,0:0:0:0:
408,284,100738,2,0,P|432:252|440:208,1,60,8|0,0:0|0:0,0:0:0:0:
440,184,101113,1,0,0:0:0:0:
428,88,101488,2,0,P|398:94|375:112,1,60
280,92,102051,2,0,P|256:76|236:40,2,60
248,128,102612,2,0,P|216:148|196:180,1,60
176,208,102988,1,0,0:0:0:0:
108,140,103363,6,0,P|92:160|88:208,1,60,4|0,0:0|0:0,0:0:0:0:
88,240,103738,2,0,P|106:279|140:301,1,60
160,316,104113,2,0,P|200:334|239:329,1,60
264,332,104487,1,0,0:0:0:0:
312,324,104676,1,0,0:0:0:0:
323,241,105051,2,0,P|293:243|264:240,1,60
220,224,105426,2,0,P|193:209|171:189,1,60
140,152,105801,1,0,0:0:0:0:
116,112,105987,1,0,0:0:0:0:
164,28,106363,6,0,P|200:32|232:56,1,60,4|0,0:0|0:0,0:0:0:0:
228,92,106738,2,0,P|256:108|304:116,1,60
320,88,107113,2,0,P|348:100|380:124,2,60
312,40,107675,1,0,0:0:0:0:
220,43,108051,6,0,P|176:64|160:88,2,60
252,80,108612,1,0,0:0:0:0:
284,172,108987,1,0,0:0:0:0:
256,192,109362,12,0,110862,0:0:0:0:
168,104,111612,5,0,0:0:0:0:
148,200,111988,1,0,0:0:0:0:
244,220,112363,6,0,P|304:216|348:152,1,120,4|0,0:0|0:0,0:0:0:0:
368,80,113113,2,0,P|420:108|440:164,1,120
428,260,113863,2,0,P|428:288|440:328,2,60
336,292,114612,2,0,P|280:316|208:324,1,120
128,320,115362,2,0,P|92:324|48:344,2,60,4|0|0,0:0|0:0|0:0,0:0:0:0:
220,292,116113,2,0,P|160:228|112:224,1,120
44,184,116863,2,0,P|36:208|40:260,2,60
116,124,117613,2,0,P|144:140|176:144,1,60,4|0,0:0|0:0,0:0:0:0:
220,140,117988,2,0,P|256:140|292:160,1,60
320,172,118363,6,0,P|356:220|356:284,1,120,4|0,0:0|0:0,0:0:0:0:
268,252,119112,1,0,0:0:0:0:
180,288,119488,2,0,P|180:224|216:176,1,120
300,148,120237,2,0,P|284:116|240:92,2,60
396,156,120988,2,0,P|372:216|312:244,1,120,0|4,0:0|0:0,0:0:0:0:
232,264,121738,2,0,P|240:288|272:320,2,60
160,200,122488,2,4,P|212:172|280:180,1,120,0|4,0:0|0:0,0:0:0:0:
360,212,123238,2,0,L|432:172,2,60
432,276,123989,1,0,0:0:0:0:
352,312,124363,6,0,P|316:296|224:276,1,120,4|0,0:0|0:0,0:0:0:0:
144,260,125113,1,0,0:0:0:0:
104,172,125488,1,0,0:0:0:0:
144,84,125863,2,0,P|188:44|268:24,2,120,4|0|0,0:0|0:0|0:0,0:0:0:0:
180,172,126988,1,0,0:0:0:0:
232,252,127363,6,0,P|272:296|348:320,1,120,4|0,0:0|0:0,0:0:0:0:
420,292,128114,2,0,P|438:235|420:157,1,120,4|0,0:0|0:0,0:0:0:0:
360,112,128864,2,0,P|301:124|243:178,1,120,4|0,0:0|0:0,0:0:0:0:
188,228,129613,2,0,P|131:255|108:264,2,60
280,240,130364,2,0,P|348:252|404:247,1,120,4|0,0:0|0:0,0:0:0:0:
464,176,131114,1,0,0:0:0:0:
488,268,131489,1,0,0:0:0:0:
424,340,131864,2,0,P|356:364|280:368,1,120
216,344,132614,2,0,P|176:344|132:352,2,60,4|0|0,0:0|0:0|0:0,0:0:0:0:
256,192,133364,12,0,136364,0:0:0:0:
347,55,151363,6,0,P|312:64|269:71,2,60,8|0|0,0:0|0:0|0:0,0:0:0:0:
232,136,152113,2,0,P|204:160|184:184,2,60,8|0|0,0:0|0:0|0:0,0:0:0:0:
256,228,152863,6,0,P|292:232|316:244,1,60,8|0,0:0|0:0,0:0:0:0:
328,284,153238,2,0,P|360:304|400:296,1,60
412,272,153613,2,0,P|448:236|448:208,2,60,8|0|0,0:0|0:0|0:0,0:0:0:0:
368,184,154363,2,0,L|324:128,1,60,8|0,0:0|0:0,0:0:0:0:
300,100,154738,1,0,0:0:0:0:
228,36,155114,2,0,P|196:32|144:44,1,60,8|0,0:0|0:0,0:0:0:0:
120,44,155488,1,0,0:0:0:0:
56,116,155863,6,0,B|60:144|84:172,1,60,8|0,0:0|0:0,0:0:0:0:
128,156,156238,2,0,P|148:184|156:208,1,60
128,248,156613,2,0,P|144:280|168:308,2,60,8|0|0,0:0|0:0|0:0,0:0:0:0:
224,236,157363,6,0,P|268:248|304:252,1,60,8|0,0:0|0:0,0:0:0:0:
332,252,157738,1,0,0:0:0:0:
428,264,158113,2,0,P|460:252|480:232,2,60,8|0|0,0:0|0:0|0:0,0:0:0:0:
372,184,158863,2,0,P|328:172|304:156,1,60,8|0,0:0|0:0,0:0:0:0:
300,124,159239,2,0,P|264:100|228:88,1,60
200,100,159613,2,0,P|164:84|132:60,1,60,8|0,0:0|0:0,0:0:0:0:
146,72,159989,1,0,0:0:0:0:
160,168,160363,6,0,P|188:192|224:212,2,60
104,244,161113,2,0,P|72:264|32:272,2,60
104,244,161675,1,0,0:0:0:0:
296,232,163364,6,0,P|256:224|216:200,1,60,4|0,0:0|0:0,0:0:0:0:
196,192,163739,2,0,P|204:164|224:124,1,60
248,100,164114,1,0,0:0:0:0:
336,60,164489,1,0,0:0:0:0:
404,128,164864,6,0,P|416:160|416:200,1,60,4|0,0:0|0:0,0:0:0:0:
396,228,165239,2,0,P|376:252|360:284,1,60
332,316,165614,2,0,P|296:324|264:316,1,60,4|0,0:0|0:0,0:0:0:0:
228,304,165989,2,0,B|168:272|120:216,1,120,0|4,0:0|0:0,0:0:0:0:
72,160,166739,5,0,0:0:0:0:
72,64,167114,2,0,P|104:68|148:92,1,60
172,100,167489,2,0,P|220:112|256:112,1,60
280,116,167864,1,4,0:0:0:0:
368,288,168614,1,0,0:0:0:0:
404,104,169364,6,0,P|384:60|368:40,2,60,4|0|0,0:0|0:0|0:0,0:0:0:0:
320,112,170114,2,0,P|304:84|276:48,2,60
236,124,170864,6,0,P|204:108|164:100,1,60,4|0,0:0|0:0,0:0:0:0:
132,96,171239,1,0,0:0:0:0:
168,184,171614,2,0,P|200:200|224:216,2,60
120,256,172364,6,0,P|88:240|52:232,2,60,4|0|0,0:0|0:0|0:0,0:0:0:0:
196,312,173114,2,0,P|228:324|268:324,2,60
136,236,173863,6,0,L|192:215,1,60
192,215,174238,1,0,0:0:0:0:
280,176,174614,2,0,L|240:130,1,60
208,94,174988,1,0,0:0:0:0:
116,72,175364,6,0,P|148:24|208:4,1,120,4|0,0:0|0:0,0:0:0:0:
284,56,176114,2,0,P|300:24|304:0,2,60
228,132,176864,2,0,P|184:172|128:196,1,120
44,236,177614,6,0,P|56:264|96:288,2,60
36,140,178364,2,0,P|52:88|116:48,1,120,4|0,0:0|0:0,0:0:0:0:
196,28,179114,2,0,P|228:28|272:48,1,60
296,64,179489,1,0,0:0:0:0:
372,124,179864,2,0,P|396:160|408:196,1,60
368,208,180239,2,0,P|376:240|400:276,1,60
436,276,180614,2,0,P|452:300|460:348,2,60
340,296,181364,6,0,P|292:324|216:316,1,120,4|0,0:0|0:0,0:0:0:0:
144,276,182114,2,0,P|112:252|92:220,2,60
232,240,182864,2,0,P|292:232|344:188,1,120
400,116,183614,2,0,P|416:84|412:40,2,60
228,96,184364,2,0,L|164:132,2,60,4|0|0,0:0|0:0|0:0,0:0:0:0:
148,44,185114,2,0,P|116:44|64:52,1,60
40,56,185489,1,0,0:0:0:0:
80,144,185864,6,0,P|88:192|96:216,1,60,4|0,0:0|0:0,0:0:0:0:
112,244,186239,2,0,P|136:268|176:272,1,60
208,276,186614,2,0,B|328:276|328:276|432:200,1,240,4|0,0:0|0:0,0:0:0:0:
308,76,199364,6,0,B|364:88|404:160,1,120
416,244,200114,1,8,0:0:0:0:
324,220,200489,1,0,0:0:0:0:
232,200,200864,6,0,P|248:148|328:132,2,120,0|0|8,0:0|0:0|0:0,0:0:0:0:
240,296,201989,1,0,0:0:0:0:
152,260,202364,2,0,P|116:248|76:240,1,60
48,236,202738,1,0,0:0:0:0:
88,144,203114,6,0,P|156:144|212:192,1,120,8|0,0:0|0:0,0:0:0:0:
248,252,203864,2,0,P|288:288|360:300,1,120
444,272,204614,2,0,P|472:228|468:152,1,120,8|0,0:0|0:0,0:0:0:0:
392,108,205364,2,0,P|416:84|452:72,2,60
340,188,206114,2,0,P|300:132|312:72,1,120,8|0,0:0|0:0,0:0:0:0:
228,28,206864,1,0,0:0:0:0:
140,68,207239,5,0,0:0:0:0:
140,68,207614,2,0,L|72:108,2,60,8|0|0,0:0|0:0|0:0,0:0:0:0:
192,140,208363,1,0,0:0:0:0:
272,192,208739,1,0,0:0:0:0:
192,244,209113,1,0,0:0:0:0:
276,292,209488,1,0,0:0:0:0:
360,244,209864,1,4,0:0:0:0:
80,72,211364,5,4,0:0:0:0:
176,68,211738,2,0,P|232:72|320:88,1,120,8|0,0:0|0:0,0:0:0:0:
368,144,212489,1,0,0:0:0:0:
356,240,212864,6,0,P|332:284|268:324,1,120,0|8,0:0|0:0,0:0:0:0:
180,340,213614,2,0,P|152:360|112:368,2,60
156,296,214175,1,0,0:0:0:0:
112,276,214364,6,0,P|88:224|88:160,1,120,4|8,0:0|0:0,0:0:0:0:
136,80,215114,2,0,B|196:56|196:96|252:88,1,120
320,20,215864,2,0,P|340:44|348:92,1,60
352,120,216239,1,8,0:0:0:0:
312,208,216614,2,0,P|312:248|328:280,2,60
216,200,217364,6,0,P|224:164|244:140,2,60,4|0|8,0:0|0:0|0:0,0:0:0:0:
216,296,218114,1,0,0:0:0:0:
120,280,218489,1,0,0:0:0:0:
100,184,218863,2,0,P|68:196|32:236,2,60,4|0|8,0:0|0:0|0:0,0:0:0:0:
196,184,219614,1,0,0:0:0:0:
288,216,219989,5,0,0:0:0:0:
376,176,220364,1,4,0:0:0:0:
384,80,220739,2,0,P|400:52|440:36,2,60,8|0|0,0:0|0:0|0:0,0:0:0:0:
300,128,221489,2,0,P|288:96|288:64,1,60,8|0,0:0|0:0,0:0:0:0:
260,32,221864,6,0,P|196:20|120:20,1,120
44,16,222614,2,0,P|60:72|116:112,1,120
200,132,223364,2,0,P|252:144|320:188,1,120,4|0,0:0|0:0,0:0:0:0:
392,228,224113,2,0,P|404:200|412:148,2,60
340,308,224864,2,0,P|296:348|236:364,2,120,4|0|0,0:0|0:0|0:0,0:0:0:0:
384,224,225989,2,0,P|356:216|300:216,1,60
276,216,226363,6,0,P|216:224|148:260,1,120
140,344,227114,2,0,P|88:312|64:248,1,120
96,168,227864,2,0,P|64:164|12:180,2,60
184,132,228613,1,0,0:0:0:0:
200,228,228989,1,0,0:0:0:0:
292,256,229364,1,4,0:0:0:0:
388,244,229739,1,8,0:0:0:0:
476,284,230113,2,0,P|484:220|448:168,1,120
372,128,230863,2,0,P|304:116|252:140,1,120,0|8,0:0|0:0,0:0:0:0:
192,200,231613,2,0,B|148:240|148:240|76:220,1,120
68,132,232364,6,0,P|36:144|12:164,2,60,0|0|8,0:0|0:0|0:0,0:0:0:0:
164,120,233114,2,0,P|228:112|300:96,1,120
292,196,233864,2,0,L|364:236,2,60
380,156,234614,2,0,L|444:152,2,60
316,84,235364,6,0,P|284:36|224:28,1,120,4|0,0:0|0:0,0:0:0:0:
136,60,236113,2,0,P|168:108|228:116,1,120,4|0,0:0|0:0,0:0:0:0:
296,184,236864,2,0,P|280:200|240:216,2,60
296,88,237614,2,0,P|352:104|388:152,1,120
388,248,238364,6,0,P|364:304|300:332,1,120,4|0,0:0|0:0,0:0:0:0:
216,332,239114,2,0,P|160:300|148:236,1,120
104,164,239864,6,0,P|76:184|48:224,2,60,4|0|0,0:0|0:0|0:0,0:0:0:0:
196,136,240614,2,0,L|260:128,2,60
188,232,241363,1,4,0:0:0:0:
256,192,241739,12,0,246613,0:0:0:0:
88,64,247363,5,4,0:0:0:0:
184,80,247738,1,0,0:0:0:0:
268,136,248113,2,0,P|340:160|392:160,1,120
480,156,248863,2,0,P|472:224|424:280,1,120
364,320,249613,2,0,P|336:340|320:376,2,60
316,236,250363,5,4,0:0:0:0:
244,172,250738,1,0,0:0:0:0:
160,128,251113,2,0,P|120:120|80:116,2,60
240,72,251863,1,0,0:0:0:0:
336,56,252238,1,0,0:0:0:0:
432,52,252613,2,0,P|420:104|368:148,1,120
276,160,253363,6,0,P|224:188|192:244,2,120,4|0|0,0:0|0:0|0:0,0:0:0:0:
372,152,254488,1,0,0:0:0:0:
456,196,254863,2,0,P|464:124|436:80,2,120
396,268,255988,1,0,0:0:0:0:
300,284,256363,2,0,P|312:320|348:348,2,60,4|0|0,0:0|0:0|0:0,0:0:0:0:
316,188,257113,2,0,P|308:120|248:76,1,120,4|0,0:0|0:0,0:0:0:0:
224,168,257863,2,0,P|188:216|124:248,1,120,4|0,0:0|0:0,0:0:0:0:
40,272,258613,6,0,P|76:328|124:344,1,120
