osu file format v14

[General]
AudioFilename: Foreground Eclipse - In A Night When Her Sorrow Resounds Around.mp3
AudioLeadIn: 0
PreviewTime: 111800
Countdown: 0
SampleSet: Normal
StackLeniency: 0.7
Mode: 0
LetterboxInBreaks: 0
WidescreenStoryboard: 0

[Editor]
DistanceSpacing: 1.3
BeatDivisor: 4
GridSize: 4
TimelineZoom: 2.899999

[Metadata]
Title:In A Night When Her Sorrow Resounds Around
TitleUnicode:In A Night When Her Sorrow Resounds Around
Artist:Foreground Eclipse
ArtistUnicode:Foreground Eclipse
Creator:Repr1se
Version:Hard
Source:東方Project
Tags:Wishes Hidden the Foreground Noises gensokyo Meramipop 夜雀の歌声 Night Bird Mystia Lorelei もう歌しか聞こえない Imperishable Night
BeatmapID:728940
BeatmapSetID:327187

[Difficulty]
HPDrainRate:6
CircleSize:4
OverallDifficulty:6
ApproachRate:8
SliderMultiplier:1.5
SliderTickRate:2

[Events]
//Background and Video events
0,0,"bg.jpg",0,0
//Break Periods
2,67563,84613
2,136564,150613
2,187563,197675
//Storyboard Layer 0 (Background)
//Storyboard Layer 1 (Fail)
//Storyboard Layer 2 (Pass)
//Storyboard Layer 3 (Foreground)
//Storyboard Sound Samples

[TimingPoints]
1363,375,4,1,0,30,1,0
13363,-100,4,1,0,85,0,0
36613,-133.333333333333,4,1,0,30,0,0
36988,-100,4,1,0,30,0,0
37363,-100,4,1,0,45,0,0
49363,-100,4,1,0,65,0,0
61363,-100,4,1,0,45,0,0
112363,-100,4,1,0,85,0,1
136363,-100,4,1,0,45,0,0
160550,-100,4,1,0,50,0,0
160738,-100,4,1,0,55,0,0
160925,-100,4,1,0,60,0,0
161113,-100,4,1,0,65,0,0
161300,-100,4,1,0,70,0,0
161488,-100,4,1,0,75,0,0
161675,-100,4,1,0,80,0,0
163363,-100,4,1,0,85,0,0
197863,-100,4,1,0,45,0,0
211363,-100,4,1,0,65,0,1
235363,-100,4,1,0,75,0,0
247363,-100,4,1,0,85,0,0
258613,-200,4,1,0,53,0,0
259363,-100,4,1,0,20,0,0

[Colours]
Combo1 : 90,165,133
Combo2 : 45,154,196
Combo3 : 180,78,214
Combo4 : 171,39,72

[HitObjects]
184,212,13363,6,0,P|108:184|56:108,1,150,4|0,0:0|0:0,0:0:0:0:
140,72,13925,2,0,P|179:56|234:52,1,75
320,196,14487,1,0,0:0:0:0:
176,304,14862,2,0,P|236:308|280:300,1,75
417,212,15424,1,0,0:0:0:0:
417,212,15613,1,0,0:0:0:0:
264,116,15988,1,0,0:0:0:0:
64,163,16363,6,0,P|85:212|116:244,2,75,4|0|0,0:0|0:0|0:0,0:0:0:0:
160,72,17113,1,0,0:0:0:0:
317,42,17488,1,0,0:0:0:0:
122,40,17863,2,0,L|146:132,1,75
216,244,18425,2,0,P|232:240|272:244,1,37.5
236,283,18613,2,0,P|195:316|120:329,2,112.5
299,208,19363,6,0,P|340:175|415:162,2,112.5,4|0|0,0:0|0:0|0:0,0:0:0:0:
204,183,20113,1,0,0:0:0:0:
140,120,20301,1,0,0:0:0:0:
228,92,20489,1,0,0:0:0:0:
381,69,20864,2,0,P|416:60|452:40,2,75
300,104,21425,1,0,0:0:0:0:
236,168,21613,2,4,P|192:204|168:268,2,112.5
273,291,22362,6,4,P|317:255|341:191,2,112.5
174,295,23113,2,0,P|138:283|98:239,1,75
75,167,23488,1,0,0:0:0:0:
249,80,23863,2,0,L|197:-4,2,75
345,71,24425,1,0,0:0:0:0:
286,148,24612,2,0,P|338:157|390:184,2,112.5,4|0|4,0:0|0:0|0:0,0:0:0:0:
192,117,25363,6,0,B|140:133|103:180,1,75
63,227,25738,2,0,P|60:259|114:303,1,75
167,341,26112,2,0,L|261:360,1,75,4|0,0:0|0:0,0:0:0:0:
338,350,26487,1,0,0:0:0:0:
208,172,26863,1,4,0:0:0:0:
256,248,27049,1,0,0:0:0:0:
344,248,27238,1,0,0:0:0:0:
388,172,27424,1,0,0:0:0:0:
348,96,27612,2,0,L|376:-4,2,75,4|0|0,0:0|0:0|0:0,0:0:0:0:
98,57,28363,6,0,P|82:97|42:145,2,75,4|0|0,0:0|0:0|0:0,0:0:0:0:
196,56,28924,1,0,0:0:0:0:
244,140,29112,2,0,P|260:180|300:228,2,75,4|0|0,0:0|0:0|0:0,0:0:0:0:
190,328,29863,2,0,P|114:316|74:292,2,112.5,4|0|0,0:0|0:0|0:0,0:0:0:0:
181,230,30612,2,0,P|229:234|285:254,1,75
300,154,30987,2,0,P|344:174|384:182,1,75
359,276,31362,6,0,P|395:288|439:376,2,112.5,4|0|0,0:0|0:0|0:0,0:0:0:0:
261,283,32112,1,0,0:0:0:0:
160,244,32300,1,0,0:0:0:0:
100,164,32487,1,0,0:0:0:0:
80,344,32862,6,0,P|130:370|202:382,2,112.5,4|0|0,0:0|0:0|0:0,0:0:0:0:
60,256,33612,1,0,0:0:0:0:
76,168,33799,1,0,0:0:0:0:
152,216,33987,2,0,P|194:233|259:230,1,75
292,180,34363,2,0,P|312:220|296:288,2,112.5,4|0|0,0:0|0:0|0:0,0:0:0:0:
212,136,35113,2,0,P|180:126|120:90,2,75
372,56,35862,6,0,P|434:86|472:148,2,112.5
304,52,36613,6,0,P|242:82|204:144,1,112.5
92,248,37362,6,0,P|138:274|204:284,2,112.5
68,160,38113,2,0,P|28:184|4:228,2,75,8|0|0,0:0|0:0|0:0,0:0:0:0:
224,72,38863,2,0,P|272:120|292:124,1,75
340,56,39238,2,0,P|396:88|408:108,1,75
360,176,39613,2,0,P|408:224|428:228,2,75,8|0|0,0:0|0:0|0:0,0:0:0:0:
212,196,40363,6,0,P|202:151|185:103,2,75
364,292,41112,1,8,0:0:0:0:
316,120,41487,1,0,0:0:0:0:
135,48,41863,2,0,P|80:22|45:19,2,75
153,241,42612,1,8,0:0:0:0:
237,65,42987,1,0,0:0:0:0:
334,53,43175,1,0,0:0:0:0:
431,55,43362,6,0,P|463:94|458:187,2,112.5
384,132,44112,1,8,0:0:0:0:
204,144,44488,1,0,0:0:0:0:
144,312,44862,2,0,P|204:316|256:288,2,112.5
144,312,45612,1,8,0:0:0:0:
180,136,45987,1,0,0:0:0:0:
58,226,46363,6,0,P|86:274|136:308,2,112.5
66,128,47113,1,8,0:0:0:0:
261,119,47487,1,0,0:0:0:0:
223,309,47863,2,0,P|281:314|359:288,2,112.5
128,283,48613,2,0,P|128:201|148:116,1,150,8|0,0:0|0:0,0:0:0:0:
169,42,49362,6,0,P|232:34|266:36,1,75,4|0,0:0|0:0,0:0:0:0:
264,129,49737,2,0,P|219:145|170:146,1,75
99,114,50112,2,0,P|99:158|111:192,1,75
155,272,50487,2,0,P|200:256|222:235,1,75
303,357,51049,2,0,L|387:369,2,75
210,325,51612,2,0,L|144:284,1,75
94,215,51987,2,0,P|46:168|44:142,1,75
128,132,52362,5,4,0:0:0:0:
204,84,52549,1,0,0:0:0:0:
212,172,52737,2,0,P|218:210|250:248,1,75
324,272,53112,1,0,0:0:0:0:
412,276,53299,1,0,0:0:0:0:
368,196,53487,2,0,P|368:156|372:120,1,75
220,24,54050,2,0,P|220:72|216:104,1,75
340,228,54612,2,0,P|272:212|239:210,1,75
268,300,54987,2,0,P|210:284|182:264,1,75
118,235,55362,5,4,0:0:0:0:
118,235,55549,1,0,0:0:0:0:
118,235,55737,2,0,P|99:200|98:149,1,75
192,176,56112,2,0,P|171:146|160:109,1,75
257,116,56487,2,0,P|253:94|251:53,2,37.5
184,296,57050,6,0,P|241:308|276:308,1,75
318,232,57425,2,0,L|372:264,3,37.5
392,236,57800,2,0,L|388:192,3,37.5
428,220,58175,1,0,0:0:0:0:
444,132,58362,2,0,P|436:84|409:55,1,75,4|0,0:0|0:0,0:0:0:0:
318,57,58737,1,0,0:0:0:0:
220,58,58924,1,0,0:0:0:0:
134,105,59112,2,0,P|101:125|44:144,1,75
67,138,59487,1,0,0:0:0:0:
67,138,59674,1,4,0:0:0:0:
216,184,60049,6,0,P|283:178|306:184,2,75
132,216,60612,2,0,P|131:265|143:296,1,75
208,348,60987,2,0,P|232:359|272:354,2,37.5
256,192,61363,12,0,67363,0:0:0:0:
52,56,85363,6,0,P|98:107|123:117,1,75
102,109,85738,1,8,0:0:0:0:
129,302,86113,2,0,P|92:319|42:299,2,75
212,252,86675,1,8,0:0:0:0:
289,191,86863,1,0,0:0:0:0:
158,46,87238,5,0,0:0:0:0:
121,237,87613,1,0,0:0:0:0:
310,284,87988,1,0,0:0:0:0:
433,132,88363,2,0,P|463:109|506:96,2,75,0|0|8,0:0|0:0|0:0,0:0:0:0:
332,251,89113,6,0,P|316:299|319:343,1,75,0|8,0:0|0:0,0:0:0:0:
248,228,89488,2,0,P|232:276|235:320,1,75
65,242,90050,2,0,P|34:231|4:183,1,75
80,164,90425,2,0,P|103:125|145:114,1,75
156,188,90800,2,0,P|204:180|240:152,1,75
361,63,91363,6,0,P|437:59|504:122,2,150,0|8|0,0:0|0:0|0:0,0:0:0:0:
361,63,92300,1,8,0:0:0:0:
281,120,92488,2,0,P|308:144|319:183,1,75
221,190,92863,2,0,P|194:218|182:275,1,75
257,313,93238,1,0,0:0:0:0:
380,254,93613,2,0,P|437:252|465:258,1,75
408,332,93988,2,0,P|344:332|316:328,1,75
248,300,94363,6,0,P|172:284|75:274,1,150,0|8,0:0|0:0,0:0:0:0:
120,96,95113,2,0,P|69:70|49:55,2,75,0|8|0,0:0|0:0|0:0,0:0:0:0:
200,140,95676,1,0,0:0:0:0:
228,224,95863,2,0,P|264:200|284:167,2,75
268,304,96426,1,0,0:0:0:0:
352,268,96613,2,0,L|380:220,3,37.5
416,236,96988,2,0,L|396:188,3,37.5
428,164,97363,6,0,P|416:128|384:84,1,75,4|0,0:0|0:0,0:0:0:0:
324,44,97738,1,0,0:0:0:0:
236,64,97925,1,0,0:0:0:0:
302,135,98113,2,0,P|260:159|208:158,1,75
144,156,98487,1,0,0:0:0:0:
56,128,98676,1,0,0:0:0:0:
128,292,99051,2,0,P|104:351|71:380,2,75
152,204,99612,1,0,0:0:0:0:
244,204,99801,1,0,0:0:0:0:
276,288,99987,1,0,0:0:0:0:
456,264,100363,6,0,P|460:232|452:188,1,75,4|0,0:0|0:0,0:0:0:0:
404,116,100738,2,0,P|370:82|319:67,1,75
268,124,101113,2,0,P|211:141|185:136,1,75
112,112,101488,2,0,P|75:82|58:46,1,75
84,236,102050,6,0,P|68:252|40:272,3,37.5
152,176,102425,2,0,P|176:172|200:176,3,37.5
232,188,102800,1,0,0:0:0:0:
292,236,102988,2,0,P|345:275|376:287,1,75
428,228,103363,6,0,L|489:182,1,75,4|0,0:0|0:0,0:0:0:0:
412,96,103738,2,0,L|365:169,1,75
294,123,104113,2,0,L|318:50,1,75
221,24,104488,2,0,L|215:114,1,75
84,122,105051,1,0,0:0:0:0:
84,122,105238,2,0,P|49:179|37:215,1,75
92,264,105613,2,0,P|116:228|136:172,1,75
128,198,105988,1,0,0:0:0:0:
240,340,106363,6,0,P|281:317|314:290,1,75,4|0,0:0|0:0,0:0:0:0:
368,236,106738,1,0,0:0:0:0:
388,148,106925,1,0,0:0:0:0:
300,172,107113,1,0,0:0:0:0:
212,164,107300,1,0,0:0:0:0:
136,112,107488,1,0,0:0:0:0:
108,196,107675,1,0,0:0:0:0:
288,172,108051,6,0,L|350:174,2,37.5
247,83,108426,1,0,0:0:0:0:
176,152,108613,2,0,L|136:184,3,37.5
180,212,108988,2,0,L|148:272,3,37.5
256,192,109362,12,0,110862,0:0:0:0:
75,84,111237,5,0,0:0:0:0:
269,72,111612,1,0,0:0:0:0:
220,148,111801,1,0,0:0:0:0:
140,192,111988,2,0,P|108:224|88:276,1,75
156,316,112362,6,0,P|225:308|297:244,1,150,4|0,0:0|0:0,0:0:0:0:
220,92,113112,2,0,P|158:112|92:178,1,150
276,176,113863,2,0,L|326:166,2,37.5
216,108,114237,1,0,0:0:0:0:
176,284,114613,2,0,P|271:286|341:268,1,150
424,124,115363,6,0,L|483:106,2,37.5,4|0|0,0:0|0:0|0:0,0:0:0:0:
344,88,115737,1,0,0:0:0:0:
164,68,116113,2,0,L|108:32,2,37.5
196,152,116488,1,0,0:0:0:0:
360,224,116863,2,0,L|400:268,2,37.5
272,236,117238,1,0,0:0:0:0:
79,267,117613,2,0,P|27:222|12:187,1,75,4|0,0:0|0:0,0:0:0:0:
68,136,117988,2,0,P|132:133|165:117,1,75
212,72,118363,6,0,P|268:36|368:24,1,150,4|0,0:0|0:0,0:0:0:0:
432,56,118926,2,0,P|408:92|372:108,1,75
288,260,119488,2,0,P|231:286|197:291,1,75
144,240,119863,2,0,P|97:307|165:340,1,150
224,320,120425,1,0,0:0:0:0:
273,238,120613,1,0,0:0:0:0:
284,148,120800,2,0,P|320:124|377:109,1,75
432,173,121176,1,0,0:0:0:0:
415,268,121363,6,0,P|344:236|266:241,1,150,4|0,0:0|0:0,0:0:0:0:
256,152,121926,2,0,P|319:106|353:36,1,150
440,72,122489,2,0,P|447:149|491:214,1,150
415,268,123051,2,0,P|344:236|266:241,1,150
152,276,123613,1,0,0:0:0:0:
312,344,123988,1,0,0:0:0:0:
456,248,124363,6,0,P|416:228|400:188,1,75,4|0,0:0|0:0,0:0:0:0:
484,164,124738,1,0,0:0:0:0:
448,84,124925,1,0,0:0:0:0:
368,128,125113,2,0,P|326:112|281:69,1,75
240,28,125488,1,0,0:0:0:0:
76,100,125863,2,0,P|72:50|48:5,2,75,4|0|0,0:0|0:0|0:0,0:0:0:0:
88,188,126425,1,0,0:0:0:0:
164,232,126613,2,0,P|131:277|99:309,2,75
140,52,127363,6,0,P|204:76|252:148,1,150,4|0,0:0|0:0,0:0:0:0:
300,216,127926,1,0,0:0:0:0:
320,128,128113,2,0,P|320:72|385:4,1,150
404,92,128676,1,0,0:0:0:0:
488,60,128863,2,0,P|488:115|423:184,1,150
340,204,129426,1,0,0:0:0:0:
252,200,129613,2,0,P|208:208|164:240,2,75
252,200,130176,1,0,0:0:0:0:
324,148,130364,6,0,P|340:76|276:36,1,150,4|0,0:0|0:0,0:0:0:0:
196,16,130926,1,0,0:0:0:0:
108,28,131114,2,0,P|48:76|80:164,1,150
112,212,131676,1,0,0:0:0:0:
184,264,131864,2,0,P|272:304|332:312,1,150
408,324,132426,2,0,P|464:328|488:324,2,75
408,324,132989,1,0,0:0:0:0:
256,192,133364,12,0,136364,0:0:0:0:
347,55,151363,6,0,P|304:68|269:71,1,75
197,10,151738,2,0,P|150:21|114:51,1,75
80,120,152113,1,8,0:0:0:0:
73,216,152300,1,0,0:0:0:0:
170,228,152488,2,0,P|158:261|132:295,1,75
216,332,152863,2,0,P|269:344|296:342,1,75
300,252,153238,2,0,P|336:252|384:264,1,75
368,352,153613,2,0,P|408:356|464:348,1,75,8|0,0:0|0:0,0:0:0:0:
442,352,153988,1,0,0:0:0:0:
420,264,154175,1,0,0:0:0:0:
420,264,154363,6,0,L|338:209,1,75
284,168,154738,2,0,L|284:87,1,75
352,36,155113,2,0,L|421:6,1,75,8|0,0:0|0:0,0:0:0:0:
436,96,155488,2,0,L|491:132,2,37.5
348,120,155864,2,0,B|308:136|276:176,1,75
236,240,156238,2,0,P|220:272|212:332,1,75
304,308,156614,1,8,0:0:0:0:
304,308,156801,1,0,0:0:0:0:
400,308,156989,2,0,P|444:296|484:256,1,75
400,220,157363,6,0,P|384:180|352:144,1,75
324,236,157738,2,0,P|304:196|272:168,1,75
216,236,158113,2,0,L|189:198,2,37.5,8|0|0,0:0|0:0|0:0,0:0:0:0:
128,252,158488,2,0,L|120:186,2,37.5
140,340,158863,2,0,P|179:326|218:285,1,75
264,240,159238,1,0,0:0:0:0:
308,164,159425,1,0,0:0:0:0:
340,80,159613,2,0,P|279:71|235:79,1,75,8|0,0:0|0:0,0:0:0:0:
216,148,159988,2,0,P|152:161|113:160,1,75
52,164,160363,6,0,P|60:208|80:248,1,75
164,232,160738,2,0,P|180:277|183:314,1,75
272,292,161114,2,0,P|288:264|332:220,1,75
404,216,161488,2,0,P|448:172|484:156,1,75
283,273,163364,6,0,P|244:264|216:244,1,75
149,176,163739,2,0,P|184:143|220:130,1,75
301,101,164114,1,0,0:0:0:0:
301,101,164301,1,0,0:0:0:0:
378,160,164489,1,0,0:0:0:0:
378,160,164676,1,0,0:0:0:0:
405,253,164864,2,0,P|372:268|332:280,1,75,4|0,0:0|0:0,0:0:0:0:
288,197,165239,2,0,P|297:132|287:103,1,75
197,122,165614,2,0,P|148:124|110:118,1,75
117,218,165989,2,0,B|112:271|118:302|118:301,1,75
205,334,166364,6,0,P|272:338|300:333,1,75
365,289,166739,1,0,0:0:0:0:
306,211,166926,1,0,0:0:0:0:
403,205,167114,2,0,P|436:161|447:117,1,75
423,46,167489,1,0,0:0:0:0:
423,46,167676,1,0,0:0:0:0:
348,109,167864,6,0,P|299:120|255:124,1,75,4|0,0:0|0:0,0:0:0:0:
177,107,168239,1,0,0:0:0:0:
106,174,168426,1,0,0:0:0:0:
116,271,168614,2,0,L|122:320,2,37.5
208,239,168989,1,0,0:0:0:0:
384,157,169364,5,4,0:0:0:0:
452,225,169551,1,0,0:0:0:0:
359,255,169739,1,0,0:0:0:0:
289,187,169926,1,0,0:0:0:0:
230,108,170114,2,0,P|177:63|147:46,1,75
139,152,170489,2,0,P|86:140|50:141,1,75
85,234,170864,1,4,0:0:0:0:
167,285,171051,2,0,L|199:303,2,37.5
259,252,171426,2,0,P|323:266|341:264,1,75
387,184,171801,1,0,0:0:0:0:
302,135,171989,1,0,0:0:0:0:
212,172,172176,1,0,0:0:0:0:
122,210,172364,6,0,P|81:161|76:133,1,75,4|0,0:0|0:0,0:0:0:0:
169,116,172739,2,0,P|217:108|249:92,1,75
336,79,173114,2,0,P|367:108|382:142,1,75
345,228,173489,2,0,P|385:258|426:270,1,75
325,317,173863,5,0,0:0:0:0:
238,270,174051,2,0,L|185:242,2,37.5
150,313,174426,1,0,0:0:0:0:
59,277,174614,1,0,0:0:0:0:
72,180,174801,2,0,P|65:111|53:75,2,75
155,230,175364,6,0,L|244:189,1,75,4|0,0:0|0:0,0:0:0:0:
142,143,175739,2,0,L|231:102,1,75
297,166,176114,2,0,L|386:125,1,75
284,79,176489,2,0,L|373:38,1,75
435,99,176864,1,0,0:0:0:0:
435,99,177051,1,0,0:0:0:0:
439,196,177239,1,0,0:0:0:0:
439,196,177426,1,0,0:0:0:0:
371,266,177614,2,0,L|396:293,2,37.5
278,296,177988,2,0,L|278:351,2,37.5
181,275,178364,6,0,P|126:316|99:328,1,75,4|0,0:0|0:0,0:0:0:0:
104,222,178739,2,0,P|120:161|137:132,1,75
205,205,179114,2,0,P|240:216|296:216,1,75
252,132,179489,2,0,P|244:96|216:47,1,75
164,124,179864,6,0,P|136:148|108:197,1,75
96,268,180239,1,0,0:0:0:0:
136,348,180426,1,0,0:0:0:0:
228,344,180614,2,0,P|204:284|171:266,1,75
116,240,180989,2,0,P|96:216|88:164,1,75
176,168,181364,6,0,P|166:110|168:60,1,75,4|0,0:0|0:0,0:0:0:0:
252,124,181739,2,0,P|256:84|252:32,1,75
344,96,182114,2,0,P|341:133|333:170,1,75
424,184,182489,2,0,P|417:220|394:250,1,75
316,292,182864,1,0,0:0:0:0:
228,272,183051,1,0,0:0:0:0:
168,204,183239,1,0,0:0:0:0:
164,112,183425,1,0,0:0:0:0:
200,32,183614,2,0,P|164:24|124:32,1,75
48,76,183989,2,0,P|36:112|52:164,1,75
80,228,184364,6,0,L|88:272,2,37.5,4|0|0,0:0|0:0|0:0,0:0:0:0:
128,152,184739,2,0,P|152:120|200:92,1,75
264,64,185114,2,0,L|272:20,2,37.5
328,128,185489,2,0,P|300:152|252:152,1,75
172,144,185864,5,0,0:0:0:0:
104,204,186050,1,0,0:0:0:0:
108,292,186239,1,0,0:0:0:0:
184,340,186426,1,0,0:0:0:0:
260,292,186614,2,0,P|385:294|436:319,2,150,0|0|4,0:0|0:0|0:0,0:0:0:0:
80,80,198425,5,0,0:0:0:0:
168,68,198613,1,0,0:0:0:0:
256,84,198801,1,0,0:0:0:0:
320,148,198989,1,0,0:0:0:0:
344,236,199176,1,0,0:0:0:0:
328,324,199364,6,0,P|273:329|224:317,1,75
156,296,199739,2,0,P|108:242|103:215,1,75
96,148,200114,1,8,0:0:0:0:
201,144,200301,1,0,0:0:0:0:
120,56,200489,1,0,0:0:0:0:
281,213,200864,6,0,P|339:195|363:177,1,75
312,96,201239,2,0,P|254:114|230:132,1,75
165,75,201614,1,8,0:0:0:0:
165,75,201801,1,0,0:0:0:0:
165,75,201989,1,0,0:0:0:0:
58,238,202364,2,0,L|28:316,2,75
150,207,202926,1,0,0:0:0:0:
246,194,203114,2,0,P|283:194|416:243,1,150,8|0,0:0|0:0,0:0:0:0:
306,50,203864,5,0,0:0:0:0:
306,50,204051,1,0,0:0:0:0:
132,88,204426,2,0,L|128:128,1,37.5
92,96,204614,2,0,P|48:134|31:167,2,75,8|0|0,0:0|0:0|0:0,0:0:0:0:
202,114,205176,1,0,0:0:0:0:
280,160,205364,2,0,P|348:156|368:144,1,75
326,302,205926,2,0,L|271:378,2,75,0|8|0,0:0|0:0|0:0,0:0:0:0:
124,172,206864,5,0,0:0:0:0:
164,92,207051,1,0,0:0:0:0:
252,68,207239,1,0,0:0:0:0:
336,104,207426,1,0,0:0:0:0:
412,148,207614,2,0,L|480:196,2,75,8|0|0,0:0|0:0|0:0,0:0:0:0:
412,148,208175,1,0,0:0:0:0:
412,148,208363,1,0,0:0:0:0:
248,228,208739,5,0,0:0:0:0:
69,224,209113,1,0,0:0:0:0:
69,224,209488,1,0,0:0:0:0:
164,68,209864,2,0,B|208:112|272:104|272:104|308:148|308:148|364:128|428:176,1,300
92,68,211364,5,0,0:0:0:0:
188,63,211550,1,0,0:0:0:0:
144,150,211739,2,0,L|237:155,1,75,8|0,0:0|0:0,0:0:0:0:
172,248,212114,2,0,L|90:213,1,75
64,292,212489,1,8,0:0:0:0:
160,336,212675,1,0,0:0:0:0:
255,323,212864,2,0,P|222:265|214:228,1,75
314,235,213239,2,0,P|292:189|290:136,1,75,8|0,0:0|0:0,0:0:0:0:
385,175,213614,2,0,P|378:132|379:82,1,75
470,141,213989,2,0,P|465:100|479:35,1,75,8|0,0:0|0:0,0:0:0:0:
396,16,214364,5,0,0:0:0:0:
312,44,214550,1,0,0:0:0:0:
244,100,214739,2,0,L|199:163,1,75,8|0,0:0|0:0,0:0:0:0:
136,224,215114,1,0,0:0:0:0:
196,292,215300,1,0,0:0:0:0:
272,245,215489,2,0,L|330:166,1,75,8|0,0:0|0:0,0:0:0:0:
285,91,215864,1,0,0:0:0:0:
196,72,216050,1,0,0:0:0:0:
116,116,216239,1,8,0:0:0:0:
96,204,216425,1,0,0:0:0:0:
184,200,216614,2,0,P|222:173|275:166,1,75
316,228,216989,2,0,P|374:256|404:260,1,75,8|0,0:0|0:0,0:0:0:0:
461,320,217364,6,0,L|473:242,1,75,4|0,0:0|0:0,0:0:0:0:
456,156,217739,1,8,0:0:0:0:
380,108,217926,2,0,L|303:96,1,75
216,112,218300,1,0,0:0:0:0:
232,200,218489,1,8,0:0:0:0:
144,180,218675,1,0,0:0:0:0:
84,248,218864,2,0,L|32:316,1,75
128,320,219239,1,8,0:0:0:0:
220,324,219425,1,8,0:0:0:0:
188,240,219614,1,0,0:0:0:0:
127,151,219800,6,0,L|58:86,2,75,0|8|0,0:0|0:0|0:0,0:0:0:0:
223,170,220364,1,0,0:0:0:0:
223,170,220550,1,0,0:0:0:0:
267,82,220739,2,0,P|274:20|275:1,1,75,8|0,0:0|0:0,0:0:0:0:
370,103,221114,1,0,0:0:0:0:
370,103,221300,1,0,0:0:0:0:
428,182,221489,2,0,P|400:245|385:268,1,75,8|0,0:0|0:0,0:0:0:0:
303,278,221864,6,0,L|323:362,2,75,4|0|0,0:0|0:0|0:0,0:0:0:0:
231,211,222426,2,0,L|287:143,2,75,4|0|0,0:0|0:0|0:0,0:0:0:0:
147,260,222989,2,0,L|78:180,1,75,4|0,0:0|0:0,0:0:0:0:
60,120,223364,1,0,0:0:0:0:
92,36,223550,1,0,0:0:0:0:
176,4,223739,1,8,0:0:0:0:
256,48,223925,1,0,0:0:0:0:
232,136,224114,2,0,L|143:121,1,75
196,204,224489,2,0,L|260:246,1,75,8|0,0:0|0:0,0:0:0:0:
192,308,224864,5,0,0:0:0:0:
124,252,225050,1,0,0:0:0:0:
84,172,225238,2,0,P|72:124|72:88,1,75,8|0,0:0|0:0,0:0:0:0:
158,123,225614,1,0,0:0:0:0:
242,171,225800,1,0,0:0:0:0:
348,180,225989,2,0,P|396:168|428:148,1,75,8|0,0:0|0:0,0:0:0:0:
449,244,226364,2,0,P|413:268|352:280,1,75
308,329,226739,1,8,0:0:0:0:
260,244,226925,1,0,0:0:0:0:
192,315,227114,1,0,0:0:0:0:
153,226,227300,1,0,0:0:0:0:
102,142,227489,2,0,P|146:134|208:149,1,75,8|0,0:0|0:0,0:0:0:0:
210,45,227864,5,0,0:0:0:0:
311,45,228050,1,0,0:0:0:0:
388,118,228239,2,0,P|340:151|328:186,1,75,8|0,0:0|0:0,0:0:0:0:
363,257,228614,2,0,P|404:224|419:193,1,75
319,180,228989,2,0,L|249:165,2,37.5,8|0|0,0:0|0:0|0:0,0:0:0:0:
266,261,229364,6,0,L|202:299,1,75,4|0,0:0|0:0,0:0:0:0:
112,288,229739,1,8,0:0:0:0:
64,212,229925,1,0,0:0:0:0:
72,124,230114,2,0,L|152:80,1,75
224,108,230489,1,8,0:0:0:0:
240,15,230675,1,0,0:0:0:0:
308,84,230864,2,0,L|364:167,1,75
384,239,231239,1,8,0:0:0:0:
292,208,231425,1,0,0:0:0:0:
249,120,231614,2,0,L|163:122,1,75
100,187,231989,1,8,0:0:0:0:
193,210,232175,1,0,0:0:0:0:
290,194,232364,6,0,L|352:138,2,75,0|0|8,0:0|0:0|0:0,0:0:0:0:
290,194,232925,1,0,0:0:0:0:
224,256,233114,2,0,L|162:312,2,75,0|0|8,0:0|0:0|0:0,0:0:0:0:
187,175,233676,2,0,L|166:128,2,37.5
89,173,234051,1,0,0:0:0:0:
89,173,234239,1,8,0:0:0:0:
119,80,234426,6,0,P|169:43|207:39,1,75
271,74,234801,2,0,L|306:63,2,37.5,0|0|8,0:0|0:0|0:0,0:0:0:0:
233,163,235175,1,0,0:0:0:0:
328,188,235364,5,4,0:0:0:0:
425,183,235551,1,0,0:0:0:0:
384,271,235739,1,0,0:0:0:0:
287,278,235926,1,0,0:0:0:0:
189,282,236114,2,0,P|131:293|83:312,1,75
138,202,236489,2,0,P|68:183|51:157,1,75
126,104,236864,2,4,L|209:65,1,75,4|0,0:0|0:0,0:0:0:0:
291,74,237239,2,0,L|371:114,1,75
282,169,237614,2,0,L|224:236,1,75
330,236,237989,2,0,L|420:292,1,75
308,323,238364,6,0,B|212:312,1,75,4|0,0:0|0:0,0:0:0:0:
166,243,238739,2,0,L|105:174,1,75
207,151,239114,1,0,0:0:0:0:
294,107,239300,1,0,0:0:0:0:
364,173,239489,1,0,0:0:0:0:
412,87,239675,1,0,0:0:0:0:
300,28,239864,6,0,P|248:16|201:16,1,75,4|0,0:0|0:0,0:0:0:0:
204,132,240239,2,0,P|256:144|303:144,1,75
364,189,240614,1,0,0:0:0:0:
390,283,240800,1,0,0:0:0:0:
293,290,240989,1,0,0:0:0:0:
201,254,241175,1,0,0:0:0:0:
256,192,241363,12,0,246614,0:0:0:0:
64,80,247363,5,4,0:0:0:0:
64,180,247550,1,0,0:0:0:0:
152,132,247738,1,0,0:0:0:0:
232,96,247925,2,0,P|268:80|316:72,1,75
392,68,248300,2,0,P|444:80|480:100,2,75
344,144,248863,2,0,P|316:184|280:208,1,75,4|0,0:0|0:0,0:0:0:0:
295,199,249238,1,0,0:0:0:0:
208,204,249425,2,0,P|216:244|244:276,2,75
204,112,249988,2,0,L|204:48,2,37.5
140,172,250363,6,0,P|112:216|68:248,1,75,4|0,0:0|0:0,0:0:0:0:
16,276,250738,2,0,P|52:312|100:320,1,75
164,320,251113,1,0,0:0:0:0:
244,276,251300,1,0,0:0:0:0:
316,220,251488,2,0,P|364:200|412:200,1,75
476,204,251863,6,0,P|468:152|424:124,2,75,4|0|0,0:0|0:0|0:0,0:0:0:0:
452,292,252425,1,0,0:0:0:0:
376,340,252613,1,0,0:0:0:0:
288,332,252801,2,0,P|253:318|222:297,1,75
164,228,253175,1,0,0:0:0:0:
132,144,253363,2,0,P|104:108|68:84,2,75,4|0|0,0:0|0:0|0:0,0:0:0:0:
220,140,253925,2,0,P|272:144|320:160,1,75
376,184,254300,1,0,0:0:0:0:
424,260,254488,1,0,0:0:0:0:
376,336,254675,1,0,0:0:0:0:
284,340,254863,6,0,P|236:336|184:312,1,75,4|0,0:0|0:0,0:0:0:0:
136,276,255238,1,0,0:0:0:0:
80,204,255425,2,0,P|64:156|60:112,1,75
140,92,255800,2,0,P|92:48|52:44,2,75
184,172,256363,6,0,P|216:204|260:224,1,75
332,236,256738,2,0,P|388:220|412:180,1,75
376,128,257113,2,0,P|420:124|468:156,2,75
296,168,257675,1,0,0:0:0:0:
220,216,257863,2,0,P|184:236|128:244,1,75,4|0,0:0|0:0,0:0:0:0:
76,296,258238,2,0,P|56:252|76:208,1,75
92,152,258613,6,0,P|152:100|224:100,1,150
