osu file format v13

[General]
AudioFilename: From Under Cover (Caught Up In A Love Song).mp3
AudioLeadIn: 1000
PreviewTime: 58313
Countdown: 0
SampleSet: Soft
StackLeniency: 0.7
Mode: 0
LetterboxInBreaks: 0
WidescreenStoryboard: 0

[Editor]
DistanceSpacing: 0.9
BeatDivisor: 4
GridSize: 4
TimelineZoom: 2.999999

[Metadata]
Title:From Under Cover (Caught Up In A Love Song)
TitleUnicode:From Under Cover (Caught Up In A Love Song)
Artist:Foreground Eclipse
ArtistUnicode:Foreground Eclipse
Creator:keeeeeeko
Version:Insane
Source:
Tags:めらみぽっぷ Meramipop Merami Teto screamo Stories That Last Through The Sleepless Nights C85 litoluna Naryuga
BeatmapID:384718
BeatmapSetID:150739

[Difficulty]
HPDrainRate:7
CircleSize:4
OverallDifficulty:8
ApproachRate:9
SliderMultiplier:1.8
SliderTickRate:2

[Events]
//Background and Video events
0,0,"BG.jpg",0,0
//Break Periods
2,87313,88763
2,128263,132263
//Storyboard Layer 0 (Background)
//Storyboard Layer 1 (Fail)
//Storyboard Layer 2 (Pass)
//Storyboard Layer 3 (Foreground)
//Storyboard Sound Samples
//Background Colour Transformations
3,100,163,162,255

[TimingPoints]
863,300,4,2,0,10,1,0
863,-133.333333333333,4,2,0,10,0,0
1313,-133.333333333333,4,2,0,13,0,0
2063,-133.333333333333,4,2,0,15,0,0
2663,-133.333333333333,4,2,0,18,0,0
3263,-133.333333333333,4,2,0,20,0,0
3713,-133.333333333333,4,2,0,23,0,0
4463,-133.333333333333,4,2,0,25,0,0
5063,-133.333333333333,4,2,0,28,0,0
5663,-133.333333333333,4,2,0,30,0,0
6113,-133.333333333333,4,2,0,35,0,0
6863,-133.333333333333,4,2,0,40,0,0
7463,-133.333333333333,4,2,0,45,0,0
8063,-133.333333333333,4,2,0,50,0,0
8513,-133.333333333333,4,2,0,55,0,0
9263,-100,4,2,1,60,0,0
10163,-100,4,2,1,40,0,0
10463,-100,4,2,1,60,0,1
10538,-100,4,2,1,60,0,0
11663,-100,4,2,3,50,0,0
11738,-100,4,2,1,60,0,0
14063,-100,4,2,3,50,0,0
14138,-100,4,2,1,60,0,0
16463,-100,4,2,3,50,0,0
16538,-100,4,2,1,60,0,0
20213,-100,4,2,5,50,0,0
20288,-100,4,2,1,60,0,0
21263,-100,4,2,3,50,0,0
21338,-100,4,2,1,60,0,0
23663,-100,4,2,3,50,0,0
23738,-100,4,2,1,60,0,0
26063,-100,4,2,3,50,0,0
26138,-100,4,2,1,60,0,0
29663,-133.333333333333,4,1,1,50,0,0
30263,-133.333333333333,4,1,2,40,0,0
30338,-133.333333333333,4,1,1,50,0,0
31463,-133.333333333333,4,1,2,40,0,0
31538,-133.333333333333,4,1,1,50,0,0
32663,-133.333333333333,4,1,2,40,0,0
32738,-133.333333333333,4,1,1,50,0,0
33863,-133.333333333333,4,1,2,40,0,0
33938,-133.333333333333,4,1,1,50,0,0
35063,-133.333333333333,4,1,2,40,0,0
35138,-133.333333333333,4,1,1,50,0,0
38963,-100,4,2,1,50,0,0
39263,-100,4,2,1,60,0,1
39338,-100,4,2,1,60,0,0
40613,-100,4,2,5,50,0,0
40688,-100,4,2,1,60,0,0
41063,-100,4,2,3,50,0,0
41138,-100,4,2,1,60,0,0
43013,-100,4,2,5,50,0,0
43088,-100,4,2,1,60,0,0
43613,-100,4,2,5,50,0,0
43688,-100,4,2,1,60,0,0
45413,-100,4,2,5,50,0,0
45488,-100,4,2,1,60,0,0
50213,-100,4,2,5,50,0,0
50288,-100,4,2,1,60,0,0
52613,-100,4,2,5,50,0,0
52688,-100,4,2,1,60,0,0
55013,-100,4,2,5,50,0,0
55088,-100,4,2,1,60,0,0
56063,-100,4,2,1,100,0,1
56138,-100,4,2,1,100,0,0
57263,-100,4,2,1,100,0,1
57338,-100,4,2,1,100,0,0
58163,-100,4,1,1,60,0,0
58463,-100,4,2,1,65,0,1
64013,-100,4,2,5,55,0,1
64088,-100,4,2,1,65,0,1
64613,-100,4,2,5,55,0,1
64688,-100,4,2,1,65,0,1
66713,-133.333333333333,4,2,1,65,0,1
66863,-133.333333333333,4,2,2,55,0,1
66938,-133.333333333333,4,2,1,65,0,1
67463,-133.333333333333,4,2,2,55,0,1
67538,-133.333333333333,4,2,1,65,0,1
67763,-100,4,2,1,80,0,0
68063,-100,4,2,1,65,0,1
73463,-100,4,2,3,55,0,1
73538,-100,4,2,1,65,0,1
76463,-100,4,2,2,55,0,1
76538,-100,4,2,1,65,0,1
77063,-100,4,2,1,100,0,1
77363,-100,4,2,1,100,0,0
77513,-200,4,1,1,55,0,0
77813,-100,4,1,1,55,0,0
78263,-100,4,1,1,70,0,0
78338,-100,4,1,1,55,0,0
78713,-200,4,1,1,55,0,0
79013,-100,4,1,1,55,0,0
79463,-100,4,1,1,70,0,0
79538,-100,4,1,1,55,0,0
79913,-200,4,1,1,55,0,0
80213,-100,4,1,1,55,0,0
80663,-100,4,1,1,70,0,0
80738,-100,4,1,1,55,0,0
81113,-200,4,1,1,55,0,0
81413,-100,4,1,1,55,0,0
81863,-100,4,1,1,70,0,0
82313,-200,4,1,1,55,0,0
82613,-100,4,1,1,55,0,0
84713,-100,4,1,1,70,0,0
84788,-100,4,1,1,55,0,0
86513,-100,4,1,1,85,0,0
86588,-100,4,1,1,55,0,0
86963,-100,4,1,1,85,0,0
87038,-100,4,1,1,55,0,0
89663,-100,4,1,1,55,0,0
89963,-100,4,1,1,65,0,0
90038,-100,4,1,1,55,0,0
90563,-100,4,1,1,65,0,0
90638,-100,4,1,1,55,0,0
91013,-100,4,1,2,45,0,0
91088,-100,4,1,1,55,0,0
91163,-100,4,1,1,65,0,0
91238,-100,4,1,1,55,0,0
91463,-100,4,1,4,45,0,0
91538,-100,4,1,1,55,0,0
91763,-100,4,1,1,65,0,0
91838,-100,4,1,1,55,0,0
92363,-100,4,1,1,65,0,0
92438,-100,4,1,1,55,0,0
92963,-100,4,1,1,65,0,0
93038,-100,4,1,1,55,0,0
93413,-100,4,1,2,45,0,0
93488,-100,4,1,1,55,0,0
93563,-100,4,1,1,65,0,0
93638,-100,4,1,1,55,0,0
94013,-100,4,1,2,45,0,0
94088,-100,4,1,1,55,0,0
94163,-100,4,1,1,65,0,0
94238,-100,4,1,1,55,0,0
94763,-100,4,1,1,65,0,0
94838,-100,4,1,1,55,0,0
95363,-100,4,1,1,65,0,0
95438,-100,4,1,1,55,0,0
95813,-100,4,1,2,45,0,0
95888,-100,4,1,1,55,0,0
95963,-100,4,1,1,65,0,0
96038,-100,4,1,1,55,0,0
96563,-100,4,1,1,65,0,0
96638,-100,4,1,1,55,0,0
96713,-100,4,1,2,45,0,0
96788,-100,4,1,1,55,0,0
97163,-100,4,1,1,65,0,0
97238,-100,4,1,1,55,0,0
97763,-100,4,1,1,65,0,0
97838,-100,4,1,1,55,0,0
98063,-100,4,1,1,65,0,0
98138,-100,4,1,1,55,0,0
98363,-100,4,1,1,65,0,0
98438,-100,4,1,1,55,0,0
98663,-100,4,1,1,65,0,0
98738,-100,4,1,1,55,0,0
98963,-80,4,1,1,75,0,0
99263,-100,4,2,1,60,0,0
100613,-100,4,2,5,50,0,0
100688,-100,4,2,1,60,0,0
102713,-100,4,2,5,50,0,0
102788,-100,4,2,1,60,0,0
106463,-100,4,2,1,65,0,1
110213,-100,4,2,5,55,0,1
110288,-100,4,2,1,65,0,1
112613,-100,4,2,5,55,0,1
112688,-100,4,2,1,65,0,1
114263,-100,4,2,3,55,0,1
114338,-100,4,2,1,65,0,1
114863,-100,4,2,2,55,0,1
114938,-100,4,2,1,65,0,1
115613,-100,4,2,1,80,0,1
115688,-100,4,2,1,65,0,1
115763,-100,4,2,1,55,0,0
116063,-100,4,2,1,65,0,1
121463,-100,4,2,3,55,0,1
121538,-100,4,2,1,65,0,1
122213,-100,4,2,5,55,0,1
122288,-100,4,2,1,65,0,1
124463,-100,4,2,2,55,0,1
124538,-100,4,2,1,65,0,1
126863,-100,4,2,1,65,0,0
132863,-100,4,1,1,35,0,0
133163,-100,4,1,1,40,0,0
133463,-100,4,1,1,45,0,0
133763,-100,4,1,1,50,0,0
134063,-100,4,2,1,55,0,0
134363,-100,4,2,1,60,0,0
134663,-100,4,2,1,65,0,0
135413,-100,4,2,5,55,0,0
135488,-100,4,2,1,65,0,0
136463,-100,4,2,3,55,0,0
136538,-100,4,2,1,65,0,0
138863,-100,4,2,3,55,0,0
138938,-100,4,2,1,65,0,0
139163,-100,4,2,1,80,0,0
139238,-100,4,2,1,65,0,0
139763,-100,4,2,1,80,0,0
139838,-100,4,2,1,65,0,0
139913,-100,4,2,5,55,0,0
139988,-100,4,2,1,65,0,0
143663,-100,4,2,1,80,0,0
143813,-100,4,2,1,65,0,0
144113,-100,4,2,1,80,0,0
144263,-100,4,2,1,65,0,0
144863,-133.333333333333,4,1,1,55,0,0
149663,-133.333333333333,4,1,1,45,0,0
152663,-133.333333333333,4,1,1,55,0,0
152738,-133.333333333333,4,1,1,45,0,0
153863,-133.333333333333,4,1,1,85,0,0
154463,-133.333333333333,4,1,1,55,0,0
155063,-133.333333333333,4,1,1,65,0,0
155138,-133.333333333333,4,1,1,55,0,0
156263,-133.333333333333,4,1,1,65,0,0
156338,-133.333333333333,4,1,1,55,0,0
157463,-133.333333333333,4,1,1,65,0,0
157538,-133.333333333333,4,1,1,55,0,0
158663,-133.333333333333,4,1,1,65,0,0
158738,-133.333333333333,4,1,1,55,0,0
159863,-133.333333333333,4,1,1,65,0,0
159938,-133.333333333333,4,1,1,55,0,0
161063,-133.333333333333,4,1,1,65,0,0
161138,-133.333333333333,4,1,1,55,0,0
162263,-133.333333333333,4,1,1,65,0,0
162338,-133.333333333333,4,1,1,55,0,0
163463,-133.333333333333,4,1,1,65,0,0
163538,-133.333333333333,4,1,1,55,0,0
164663,-133.333333333333,4,1,1,65,0,0
164738,-133.333333333333,4,1,1,55,0,0
165863,-133.333333333333,4,1,1,65,0,0
165938,-133.333333333333,4,1,1,55,0,0
167063,-133.333333333333,4,1,1,65,0,0
167138,-133.333333333333,4,1,1,55,0,0
168263,-133.333333333333,4,1,1,65,0,0
168338,-133.333333333333,4,1,1,55,0,0
168788,-100,4,2,1,35,0,0
169163,-100,4,2,1,38,0,0
169463,-100,4,2,1,40,0,0
169763,-100,4,2,1,43,0,0
170063,-100,4,2,1,45,0,0
170363,-100,4,2,1,48,0,0
170663,-100,4,2,1,50,0,0
170963,-100,4,2,1,53,0,0
171263,-100,4,2,1,55,0,0
171563,-100,4,2,1,58,0,0
171863,-100,4,2,1,60,0,0
172163,-100,4,2,1,63,0,0
172463,-100,4,2,1,65,0,0
172763,-100,4,2,1,70,0,0
173063,-100,4,2,1,100,0,1
173138,-100,4,2,1,100,0,0
173663,-100,4,2,1,75,0,1
179813,-100,4,2,5,65,0,1
179888,-100,4,2,1,75,0,1
182063,-100,4,2,2,65,0,1
182138,-100,4,2,1,75,0,1
182963,-100,4,2,1,85,0,0
183038,-100,4,2,1,75,0,0
183263,-100,4,2,1,75,0,1
188663,-100,4,2,3,65,0,1
188738,-100,4,2,1,75,0,1
191663,-100,4,2,2,65,0,1
191738,-100,4,2,1,75,0,1
194063,-100,4,2,1,65,0,0
195263,-100,4,1,1,65,0,0
196463,-100,4,1,4,55,0,0
196538,-100,4,1,1,65,0,0
198863,-100,4,1,4,55,0,0
198938,-100,4,1,1,65,0,0
202163,-80,4,2,1,100,0,0

[Colours]
Combo1 : 64,128,128
Combo2 : 128,0,0
Combo3 : 64,0,128
Combo4 : 128,64,0

[HitObjects]
144,108,863,6,0,L|132:180,1,67.5000025749208,2|0,0:0|0:0,0:0:0:0:
176,268,1163,1,0,0:0:0:0:
272,224,1313,2,0,L|260:152,1,67.5000025749208,2|0,0:0|0:0,0:0:0:0:
248,56,1613,1,0,0:0:0:0:
348,76,1763,2,0,L|436:84,1,67.5000025749208,2|0,0:0|0:0,0:0:0:0:
452,228,2063,6,0,L|364:220,1,67.5000025749208,2|0,0:0|0:0,0:0:0:0:
272,224,2363,2,0,L|279:317,1,67.5000025749208,0|0,0:0|0:0,0:0:0:0:
408,156,2663,2,0,L|417:58,1,67.5000025749208,2|0,0:0|0:0,0:0:0:0:
295,150,2963,2,0,P|260:148|228:144,1,67.5000025749208,2|0,0:0|0:0,0:0:0:0:
64,132,3263,5,2,0:0:0:0:
140,200,3413,1,0,0:0:0:0:
60,264,3563,1,0,0:0:0:0:
156,364,3713,2,0,L|148:284,1,67.5000025749208,2|0,0:0|0:0,0:0:0:0:
140,200,4013,1,0,0:0:0:0:
235,113,4163,1,2,0:0:0:0:
240,224,4313,1,0,0:0:0:0:
168,120,4463,6,0,L|235:113,1,67.5000025749208,2|0,0:0|0:0,0:0:0:0:
307,230,4763,2,0,L|240:224,1,67.5000025749208
140,212,5063,1,2,0:0:0:0:
77,338,5213,1,0,0:0:0:0:
167,305,5363,1,2,0:0:0:0:
44,248,5513,1,0,0:0:0:0:
24,112,5663,6,0,L|12:32,1,67.5000025749208,2|0,0:0|0:0,0:0:0:0:
116,16,5963,1,0,0:0:0:0:
208,100,6113,2,0,L|197:166,1,67.5000025749208,2|0,0:0|0:0,0:0:0:0:
284,248,6413,1,0,0:0:0:0:
384,180,6563,1,2,0:0:0:0:
304,88,6713,1,0,0:0:0:0:
384,180,6863,6,0,L|372:260,1,67.5000025749208,2|0,0:0|0:0,0:0:0:0:
512,332,7163,2,0,L|500:252,1,67.5000025749208,0|0,0:0|0:0,0:0:0:0:
332,152,7463,2,0,L|320:232,1,67.5000025749208,2|0,0:0|0:0,0:0:0:0:
460,304,7763,2,0,L|448:224,1,67.5000025749208,2|0,0:0|0:0,0:0:0:0:
436,112,8063,5,2,0:0:0:0:
340,20,8213,1,0,0:0:0:0:
384,180,8363,1,0,0:0:0:0:
272,60,8513,1,2,0:0:0:0:
256,192,8663,2,0,L|321:207,1,67.5000025749208
436,112,8963,2,0,L|370:97,1,67.5000025749208,2|0,0:0|0:0,0:0:0:0:
256,192,9263,5,4,1:0:0:0:
256,192,9563,1,4,1:0:0:0:
256,192,9863,1,4,1:0:0:0:
256,216,9938,1,0,1:0:0:0:
256,240,10013,1,0,1:0:0:0:
256,264,10088,1,0,1:0:0:0:
256,288,10163,2,0,L|256:320,5,30,12|0|0|0|0|0,1:0|1:0|1:0|1:0|1:0|1:0,1:0:0:0:
256,336,10463,6,0,P|208:344|168:336,1,90,6|0,1:0|1:0,0:0:0:0:
88,276,10763,1,10,0:0:0:0:
80,176,10913,1,0,1:0:0:0:
105,139,10988,1,0,1:0:0:0:
140,112,11063,2,0,P|180:88|222:78,1,90,2|0,1:0|1:0,0:0:0:0:
320,64,11363,1,10,0:0:0:0:
372,200,11513,6,0,B|317:224|317:224|269:184|197:200,1,180,0|0,1:0|1:0,0:0:0:0:
169,289,11963,2,0,P|209:273|268:277,1,90,10|0,0:0|1:0,0:0:0:0:
326,308,12188,1,0,1:0:0:0:
326,308,12263,2,0,P|371:308|413:292,1,90,2|0,1:0|1:0,0:0:0:0:
484,188,12563,1,10,0:0:0:0:
424,76,12713,1,0,1:0:0:0:
256,192,12863,6,0,P|212:200|168:192,1,90,6|0,1:0|1:0,0:0:0:0:
80,124,13163,1,10,0:0:0:0:
25,207,13313,1,0,1:0:0:0:
20,252,13388,1,0,1:2:0:0:
32,296,13463,2,0,P|47:338|76:372,1,90,2|0,1:0|1:0,0:0:0:0:
196,356,13763,1,10,0:0:0:0:
256,192,13913,6,0,B|207:157|207:157|216:84|160:52,1,180,0|0,1:0|1:0,0:0:0:0:
284,64,14363,1,10,0:0:0:0:
120,132,14513,1,0,1:0:0:0:
120,132,14588,1,0,1:0:0:0:
120,132,14663,2,0,B|84:166|93:223,1,90,2|0,1:0|1:0,1:0:0:0:
120,328,14963,1,14,0:0:0:0:
176,196,15113,1,0,1:0:0:0:
344,244,15263,6,0,P|388:228|416:188,1,90,6|0,1:0|1:0,0:0:0:0:
368,32,15563,1,10,0:0:0:0:
204,48,15713,1,0,1:0:0:0:
216,92,15788,1,0,1:0:0:0:
248,124,15863,2,0,P|287:143|343:151,1,90,2|0,1:0|1:0,0:0:0:0:
452,124,16163,1,10,0:0:0:0:
401,286,16313,6,0,B|381:350|381:350|344:244,1,180,0|0,1:0|1:0,0:0:0:0:
258,318,16763,1,10,0:0:0:0:
184,120,16913,1,0,1:0:0:0:
140,112,16988,1,0,1:0:0:0:
96,120,17063,2,0,B|60:128|32:144|32:144|24:168,1,90,2|0,1:0|1:0,0:0:0:0:
84,352,17363,2,0,L|76:288,1,45,10|0,0:0|1:0,0:0:0:0:
156,256,17513,2,0,L|161:211,1,45,0|0,1:0|1:0,0:0:0:0:
184,121,17663,6,0,L|268:56,1,90,6|0,1:0|1:0,0:0:0:0:
328,263,17963,2,0,L|244:328,1,90,10|0,0:0|1:0,0:0:0:0:
220,97,18263,6,0,L|324:73,1,90,10|0,0:0|1:0,0:0:0:0:
291,286,18563,2,0,L|187:310,1,90,10|0,0:0|1:0,0:0:0:0:
116,320,18863,5,2,1:0:0:0:
100,308,18938,1,0,0:0:0:0:
93,287,19013,1,8,0:0:0:0:
92,264,19088,1,8,0:0:0:0:
96,240,19163,1,2,1:2:0:0:
108,220,19238,1,0,0:0:0:0:
128,208,19313,1,8,0:0:0:0:
152,204,19388,1,8,0:0:0:0:
188,200,19463,5,10,1:0:0:0:
224,192,19538,1,8,0:0:0:0:
248,168,19613,1,8,0:0:0:0:
260,136,19688,1,8,0:0:0:0:
260,100,19763,1,10,1:2:0:0:
248,64,19838,1,8,0:0:0:0:
228,36,19913,1,8,0:0:0:0:
192,24,19988,1,8,0:0:0:0:
156,20,20063,6,0,P|70:40|37:124,1,180,14|10,1:0|0:0,0:2:0:0:
180,168,20513,1,0,1:0:0:0:
180,168,20588,1,0,1:0:0:0:
180,168,20663,2,0,L|108:80,1,90,2|0,1:0|1:0,0:0:0:0:
272,48,20963,1,10,0:0:0:0:
380,184,21113,6,0,P|384:260|292:300,1,180,0|0,1:0|1:0,0:2:0:0:
208,248,21563,2,0,P|164:256|108:264,1,90,10|0,0:0|1:0,0:0:0:0:
44,244,21788,1,0,1:0:0:0:
44,244,21863,2,0,P|24:200|28:140,1,90,2|0,1:0|1:0,0:0:0:0:
159,82,22163,2,0,P|178:123|180:168,1,90,10|0,0:0|1:0,0:0:0:0:
172,340,22463,5,6,1:0:0:0:
276,228,22613,1,0,1:0:0:0:
328,372,22763,1,10,0:0:0:0:
276,228,22913,1,0,1:0:0:0:
276,228,22988,1,0,1:0:0:0:
276,228,23063,2,0,L|246:142,1,90,2|0,1:0|1:0,0:0:0:0:
159,82,23363,1,10,0:0:0:0:
232,288,23513,6,0,P|308:292|344:200,1,180,0|0,1:0|1:0,0:2:0:0:
332,72,23963,2,0,L|420:28,1,90,10|0,0:0|1:0,0:0:0:0:
484,64,24188,1,0,1:0:0:0:
484,64,24263,2,0,P|492:112|484:164,1,90,2|0,1:0|1:0,0:0:0:0:
428,288,24563,1,10,0:0:0:0:
352,164,24713,1,0,1:0:0:0:
232,288,24863,6,0,L|200:176,1,90,6|0,1:0|1:0,0:0:0:0:
164,64,25163,1,10,0:0:0:0:
68,148,25313,1,0,1:0:0:0:
68,148,25388,1,0,1:0:0:0:
68,148,25463,2,0,L|92:234,1,90,2|0,1:0|1:0,0:0:0:0:
232,288,25763,1,10,0:0:0:0:
352,164,25913,6,0,P|352:80|276:32,1,180,0|0,1:0|1:0,0:2:0:0:
164,64,26363,2,0,L|140:160,1,90,10|0,0:0|1:0,0:0:0:0:
210,201,26588,1,0,1:0:0:0:
210,201,26663,2,0,L|234:297,1,90,10|0,0:0|1:0,0:0:0:0:
96,344,26963,2,0,L|84:288,1,45,10|8,0:0|1:0,0:0:0:0:
8,236,27113,2,0,L|17:191,1,45,8|4,1:3|1:3,0:0:0:0:
78,112,27263,6,0,L|194:112,1,90,6|0,1:0|1:0,0:0:0:0:
283,112,27563,1,10,1:0:0:0:
288,116,27863,1,10,1:0:0:0:
292,120,28163,1,10,1:0:0:0:
488,280,28463,6,0,L|372:280,1,90,10|8,1:0|1:0,0:0:0:0:
284,280,28763,1,2,1:0:0:0:
288,284,28913,2,0,L|288:348,2,45,8|8|10,1:0|1:0|1:0,0:0:0:0:
287,116,29213,5,0,1:0:0:0:
320,132,29288,1,0,1:0:0:0:
344,160,29363,1,10,1:0:0:0:
352,196,29438,1,8,1:3:0:0:
344,232,29513,1,4,1:3:0:0:
320,264,29588,1,0,1:0:0:0:
287,285,29663,6,0,P|356:301|416:285,1,135.000005149842,4|2,0:0|0:0,0:0:0:0:
432,168,30113,2,0,P|380:80|292:32,1,202.500007724762,0|2,2:0|0:0,0:0:0:0:
225,285,30863,6,0,P|156:301|96:285,1,135.000005149842,0|2,0:0|0:0,0:0:0:0:
80,168,31313,2,0,P|132:80|220:32,1,202.500007724762,0|2,2:0|0:0,0:0:0:0:
228,52,32063,6,0,P|297:68|357:52,1,135.000005149842,4|2,0:0|0:0,0:0:0:0:
452,80,32513,2,0,P|468:144|452:209,1,135.000005149842,0|0,2:0|2:0,0:0:0:0:
368,288,32963,2,0,L|358:195,1,67.5000025749208,2|0,0:0|2:0,0:0:0:0:
228,52,33263,6,0,L|212:208,1,135.000005149842,0|2,0:0|0:0,0:0:0:0:
312,336,33713,2,0,L|296:180,1,135.000005149842,0|0,2:0|2:0,0:0:0:0:
164,88,34163,1,2,0:0:0:0:
148,104,34463,6,0,P|83:99|23:151,1,135.000005149842,4|2,0:0|0:0,0:0:0:0:
16,272,34913,2,0,P|80:352|181:332,1,202.500007724762,0|2,2:0|0:0,0:0:0:0:
348,100,35663,5,0,0:0:0:0:
80,168,35963,1,2,0:0:0:0:
224,16,36263,1,0,0:0:0:0:
168,276,36563,1,2,0:0:0:0:
160,296,36863,6,0,L|316:304,1,135.000005149842,4|2,0:0|0:0,0:0:0:0:
352,88,37463,2,0,L|196:80,1,135.000005149842,0|2,0:0|0:0,0:0:0:0:
56,88,38063,5,2,0:2:0:0:
116,184,38363,1,2,0:2:0:0:
184,72,38663,1,2,0:2:0:0:
256,192,38963,5,10,1:0:0:0:
256,192,39038,1,8,1:0:0:0:
256,192,39113,1,8,1:0:0:0:
256,192,39188,1,8,1:0:0:0:
256,192,39263,6,0,L|280:96,1,90,6|0,1:0|1:0,0:0:0:0:
444,24,39563,2,0,L|422:111,1,90,10|0,0:0|1:0,0:0:0:0:
392,224,39863,1,2,1:0:0:0:
492,128,40013,1,0,1:0:0:0:
328,40,40163,1,10,0:0:0:0:
256,192,40313,1,0,1:0:0:0:
256,192,40388,1,0,1:0:0:0:
256,192,40463,6,0,P|240:276|152:296,1,180,2|10,1:0|0:0,0:0:0:0:
80,324,40913,2,0,P|96:240|184:220,1,180,0|0,1:0|1:0,0:0:0:0:
336,224,41363,1,10,0:0:0:0:
188,140,41513,1,0,1:0:0:0:
268,320,41663,5,2,1:0:0:0:
336,224,41813,1,0,1:0:0:0:
252,90,41963,2,0,P|244:45|243:1,1,90,10|0,0:0|1:0,0:0:0:0:
256,192,42263,2,0,L|156:184,1,90,2|0,1:0|1:0,0:0:0:0:
325,42,42563,2,0,L|425:34,1,90,10|0,0:0|1:0,0:0:0:0:
463,188,42863,6,0,P|409:255|324:244,1,180,2|10,1:0|0:0,0:0:0:0:
360,120,43313,1,0,1:0:0:0:
256,192,43463,2,0,P|203:125|117:136,1,180,2|10,1:0|0:0,0:0:0:0:
134,290,43913,2,0,L|170:208,1,90,0|6,1:0|1:0,0:0:0:0:
232,56,44213,5,0,1:0:0:0:
256,192,44363,1,10,0:0:0:0:
332,80,44513,1,0,1:0:0:0:
164,140,44663,1,2,1:0:0:0:
328,248,44813,1,0,1:0:0:0:
196,320,44963,2,0,P|168:284|160:232,1,90,10|0,0:0|1:0,0:0:0:0:
232,56,45263,6,0,P|315:78|381:23,1,180,2|10,1:0|0:0,0:0:0:0:
480,160,45713,1,0,1:0:0:0:
480,160,45788,1,0,1:0:0:0:
480,160,45863,2,0,L|456:288,1,90,2|0,1:0|1:0,0:0:0:0:
344,336,46163,2,0,L|320:208,1,90,10|0,0:0|1:0,0:0:0:0:
312,112,46463,6,0,P|264:116|216:140,1,90,6|0,1:0|1:0,0:0:0:0:
132,208,46763,1,10,0:0:0:0:
56,120,46913,1,0,1:0:0:0:
56,120,46988,1,0,1:0:0:0:
56,120,47063,2,0,L|32:248,1,90,2|0,1:0|1:0,0:0:0:0:
204,308,47363,2,0,L|228:180,1,90,10|0,0:0|1:0,0:0:0:0:
228,52,47663,6,0,P|276:40|324:40,1,90,6|0,1:0|1:0,0:0:0:0:
436,84,47963,1,10,0:0:0:0:
248,124,48113,1,0,1:0:0:0:
212,136,48188,1,0,1:0:0:0:
188,160,48263,1,2,1:0:0:0:
180,196,48338,1,0,1:0:0:0:
192,228,48413,1,0,1:0:0:0:
220,252,48488,1,0,1:0:0:0:
256,260,48563,2,0,L|343:281,1,90,14|0,0:0|1:0,0:0:0:0:
343,282,48788,1,0,1:0:0:0:
343,282,48863,5,6,1:0:0:0:
512,240,49013,1,0,1:0:0:0:
400,136,49163,2,0,L|310:117,1,90,10|0,0:0|1:0,0:0:0:0:
248,192,49388,1,0,1:0:0:0:
248,192,49463,2,0,L|159:208,1,90,2|0,1:0|1:0,0:0:0:0:
48,224,49763,1,10,0:0:0:0:
124,336,49913,1,0,1:0:0:0:
156,132,50063,6,0,P|216:70|300:90,1,180,2|10,1:0|0:0,0:0:0:0:
248,192,50513,1,0,1:0:0:0:
248,192,50588,1,0,1:0:0:0:
248,192,50663,1,2,1:0:0:0:
156,132,50813,1,0,1:0:0:0:
76,208,50963,1,10,0:0:0:0:
64,68,51113,1,0,1:0:0:0:
182,233,51263,6,0,P|227:231|272:224,1,90,2|0,1:0|1:0,0:0:0:0:
400,177,51563,2,0,L|389:286,1,90,10|0,0:0|1:0,0:0:0:0:
232,120,51863,2,0,L|223:10,1,90,2|0,1:0|1:0,0:0:0:0:
360,24,52163,2,0,L|449:37,1,90,10|0,0:0|1:0,0:0:0:0:
492,208,52463,6,0,P|437:275|352:263,1,180,2|10,1:0|0:0,0:0:0:0:
224,160,52913,1,0,1:0:0:0:
224,160,52988,1,0,1:0:0:0:
224,160,53063,2,0,P|184:132|132:128,1,90,2|0,1:0|1:0,0:0:0:0:
152,220,53363,1,10,0:0:0:0:
176,44,53513,1,0,1:0:0:0:
314,151,53663,5,6,1:0:0:0:
376,32,53813,1,0,1:0:0:0:
448,144,53963,2,0,L|444:240,1,90,10|0,0:0|1:0,0:0:0:0:
400,300,54188,1,0,1:0:0:0:
400,300,54263,2,0,P|360:327|320:326,1,90,2|0,1:0|1:0,0:0:0:0:
314,151,54563,2,0,P|340:186|343:238,1,90,10|0,0:0|1:0,0:0:0:0:
320,326,54863,6,0,B|248:280|264:216|264:216|216:216,1,180,2|10,1:0|0:0,0:0:0:0:
80,216,55313,1,0,1:0:0:0:
80,216,55388,1,0,1:0:0:0:
80,216,55463,2,0,L|104:96,1,90,2|0,1:0|1:0,0:0:0:0:
200,104,55763,1,10,0:0:0:0:
256,12,55913,1,0,1:0:0:0:
256,192,56063,5,2,1:0:0:0:
256,192,57263,5,2,1:0:0:0:
271,207,58163,5,8,1:2:0:0:
271,207,58238,1,8,1:2:0:0:
271,207,58313,1,8,1:2:0:0:
271,207,58388,1,8,1:2:0:0:
271,207,58463,6,0,L|295:95,1,90,6|0,1:0|0:0,0:0:0:0:
124,168,58763,2,0,L|100:280,1,90,10|0,0:0|0:0,0:0:0:0:
188,360,59063,1,2,1:0:0:0:
300,296,59213,1,0,1:0:0:0:
190,217,59363,1,10,0:0:0:0:
364,180,59513,1,0,1:0:0:0:
364,180,59663,6,0,B|376:136|376:136|368:84,1,90,2|0,0:1|1:0,0:0:0:0:
272,136,59963,2,0,B|260:180|260:180|268:232,1,90,10|0,0:0|1:0,0:0:0:0:
440,168,60263,2,0,B|452:124|452:124|444:72,1,90,2|0,1:0|1:0,0:0:0:0:
196,144,60563,2,0,B|184:188|184:188|190:231,1,90,10|0,0:0|1:0,0:0:0:0:
191,232,60788,1,0,1:0:0:0:
191,232,60863,5,2,1:0:0:0:
364,180,61013,1,0,0:0:0:0:
316,276,61163,2,0,B|299:317|264:352,1,90,10|0,0:0|0:0,0:0:0:0:
116,240,61463,2,0,B|88:205|76:160,1,90,2|0,1:0|1:0,0:0:0:0:
278,47,61763,2,0,B|284:90|272:136,1,90,10|0,0:0|1:0,0:0:0:0:
116,328,62063,6,0,B|88:293|75:248,1,90,2|0,0:1|1:0,0:0:0:0:
120,132,62363,1,10,0:0:0:0:
192,232,62513,1,0,1:0:0:0:
40,116,62663,2,0,P|60:76|100:52,1,90,2|0,1:0|1:0,0:0:0:0:
240,36,62963,1,10,0:0:0:0:
332,276,63113,1,0,1:0:0:0:
332,276,63188,1,0,1:0:0:0:
332,276,63263,6,0,P|356:184|432:172,1,180,6|10,1:0|0:0,0:0:0:0:
404,356,63713,1,0,0:0:0:0:
408,248,63863,2,0,P|364:172|280:148,1,180,2|10,1:0|0:0,0:0:0:0:
208,248,64313,1,0,1:0:0:0:
316,228,64463,6,0,P|392:184|416:100,1,180,2|10,0:1|0:0,0:0:0:0:
336,28,64913,1,0,1:0:0:0:
212,28,65063,1,2,1:0:0:0:
276,136,65213,1,0,1:0:0:0:
136,92,65363,2,0,P|120:56|120:4,1,90,10|0,0:0|0:0,0:0:0:0:
20,112,65663,6,0,L|4:204,2,90,6|0|10,1:0|0:0|0:0,0:0:0:0:
108,288,66113,2,0,P|152:296|196:288,1,90,0|2,0:0|1:0,0:0:0:0:
308,252,66413,1,0,1:0:0:0:
220,172,66563,1,10,0:0:0:0:
304,32,66713,6,0,B|368:52|368:52|412:104,1,135.000005149842,4|0,1:0|1:0,0:0:0:0:
416,214,67163,1,10,0:0:0:0:
308,253,67313,2,0,B|244:233|244:233|200:181,1,135.000005149842,4|0,1:0|1:0,0:0:0:0:
196,72,67763,1,14,0:0:0:0:
196,72,68063,6,0,P|132:88|92:188,1,180,6|10,1:0|0:0,0:0:0:0:
124,288,68513,1,0,0:0:0:0:
216,248,68663,2,0,L|272:168,1,90,2|0,1:0|1:0,0:0:0:0:
320,288,68963,2,0,L|264:368,1,90,10|0,0:0|1:0,0:0:0:0:
216,248,69263,5,2,0:1:0:0:
320,196,69413,1,0,1:0:0:0:
320,288,69563,1,10,0:0:0:0:
216,156,69713,1,0,1:0:0:0:
320,100,69863,2,0,P|364:112|400:148,1,90,2|0,1:0|1:0,0:0:0:0:
216,340,70163,2,0,P|172:328|136:292,1,90,10|0,0:0|0:0,0:0:0:0:
72,188,70463,6,0,P|131:254|216:248,1,180,2|10,1:0|0:0,0:0:0:0:
180,120,70913,1,0,0:0:0:0:
72,188,71063,2,0,P|40:220|36:268,1,90,2|0,1:0|1:0,0:0:0:0:
164,340,71363,1,10,0:0:0:0:
104,252,71513,1,0,1:0:0:0:
280,200,71663,5,2,0:1:0:0:
287,305,71813,1,0,1:0:0:0:
176,168,71963,1,10,0:0:0:0:
356,136,72113,1,0,1:0:0:0:
192,268,72263,2,0,L|108:320,1,90,2|0,1:0|1:0,0:0:0:0:
164,68,72563,2,0,L|240:20,1,90,10|0,0:0|0:0,0:0:0:0:
432,80,72863,6,0,P|443:165|377:220,1,180,6|10,1:0|0:0,0:0:0:0:
312,276,73313,2,0,P|301:191|368:137,1,180,0|0,0:0|1:0,0:0:0:0:
458,257,73763,2,0,L|377:220,1,90,10|0,0:0|1:0,0:0:0:0:
184,160,74063,6,0,L|156:264,1,90,2|0,0:1|1:0,0:0:0:0:
240,360,74363,1,10,0:0:0:0:
324,232,74513,1,0,1:0:0:0:
324,232,74588,1,0,1:0:0:0:
324,232,74663,2,0,L|352:128,1,90,10|0,0:0|1:0,0:0:0:0:
239,50,74963,1,10,0:0:0:0:
239,50,75038,1,8,0:0:0:0:
239,50,75113,1,8,0:0:0:0:
239,50,75188,1,8,0:0:0:0:
239,50,75263,5,2,1:0:0:0:
235,95,75338,1,8,0:0:0:0:
216,136,75413,1,8,0:0:0:0:
179,160,75488,1,8,0:0:0:0:
134,165,75563,1,10,0:0:0:0:
144,76,75713,1,0,1:0:0:0:
144,76,75788,1,0,1:0:0:0:
144,76,75863,1,10,0:0:0:0:
276,184,76013,2,8,L|352:248,1,90,0|10,1:0|0:0,0:0:0:0:
312,332,76313,6,0,P|222:355|130:323,1,180,0|8,1:0|1:2,0:0:0:0:
112,308,76688,1,8,0:0:0:0:
92,276,76763,1,10,0:0:0:0:
84,240,76838,1,8,0:0:0:0:
84,204,76913,1,8,1:2:0:0:
92,168,76988,1,8,0:0:0:0:
112,140,77063,5,4,1:3:0:0:
256,72,77213,1,4,1:3:0:0:
392,140,77363,1,4,1:3:0:0:
256,252,77513,6,0,P|212:252|160:232,1,90,4|0,0:0|0:0,0:0:0:0:
64,204,77963,5,10,0:2:0:0:
72,72,78113,1,0,0:0:0:0:
116,64,78188,1,0,0:0:0:0:
160,72,78263,1,12,0:2:0:0:
256,136,78413,1,0,0:0:0:0:
352,72,78563,1,2,0:2:0:0:
116,64,78713,6,0,P|81:93|59:133,1,90,4|0,0:0|0:0,0:0:0:0:
44,228,79163,5,10,0:2:0:0:
148,324,79313,1,0,0:0:0:0:
192,344,79388,1,0,0:0:0:0:
236,344,79463,2,0,L|312:248,1,90,12|0,0:2|0:0,0:0:0:0:
356,188,79763,1,2,0:2:0:0:
104,144,79913,6,0,L|160:74,1,90,4|0,0:0|0:0,0:0:0:0:
272,32,80363,5,10,0:2:0:0:
356,188,80513,1,0,0:0:0:0:
364,232,80588,1,0,0:0:0:0:
356,276,80663,1,12,0:2:0:0:
264,332,80813,2,0,L|160:332,1,90,0|2,0:0|0:2,0:0:0:0:
344,112,81113,6,0,L|448:112,1,90,4|0,0:0|0:0,0:0:0:0:
356,188,81563,5,10,0:2:0:0:
316,40,81713,1,0,0:0:0:0:
272,32,81788,1,0,0:0:0:0:
228,40,81863,2,0,P|180:52|136:80,1,90,12|8,0:2|1:2,0:0:0:0:
92,160,82163,1,10,0:2:0:0:
264,332,82313,6,0,B|172:332,1,90,4|0,0:0|0:0,0:0:0:0:
160,152,82763,6,0,L|229:72,1,90,10|0,0:2|0:0,0:0:0:0:
352,232,83063,2,0,L|283:312,1,90,10|0,0:2|0:0,0:0:0:0:
192,108,83363,2,0,L|291:74,1,90,10|0,0:2|0:0,0:0:0:0:
318,274,83663,6,0,L|218:308,1,90,10|0,0:2|0:0,0:0:0:0:
241,88,83963,2,0,L|344:108,1,90,10|0,0:2|0:0,0:0:0:0:
269,295,84263,2,0,L|180:278,1,90,10|8,0:2|0:2,0:0:0:0:
181,278,84488,1,4,0:3:0:0:
181,278,84563,1,2,0:0:0:0:
295,95,84713,6,0,B|372:148|372:148|404:232,1,180,14|0,0:2|1:0,0:0:0:0:
404,364,85163,1,10,0:2:0:0:
296,348,85313,1,0,0:0:0:0:
216,276,85463,1,10,0:2:0:0:
188,156,85613,2,8,L|172:236,2,45,0|8|10,0:0|0:2|0:2,0:0:0:0:
108,244,85913,1,0,0:0:0:0:
92,140,86063,5,10,2:0:0:0:
123,106,86138,1,8,2:0:0:0:
164,84,86213,1,8,0:3:0:0:
208,84,86288,1,4,0:3:0:0:
248,104,86363,1,6,0:2:0:0:
280,136,86438,1,0,0:0:0:0:
308,172,86513,2,0,P|380:224|464:208,1,180,8|0,0:2|1:0,0:0:0:0:
416,48,86963,1,8,0:2:0:0:
356,324,87113,1,4,1:0:0:0:
256,84,89363,5,8,1:2:0:0:
256,84,89438,1,8,1:2:0:0:
256,84,89513,1,8,1:2:0:0:
256,84,89588,1,8,1:2:0:0:
256,84,89663,6,0,P|212:76|144:84,1,90,6|0,0:0|0:0,0:0:0:0:
32,208,89963,2,0,P|76:216|144:208,1,90,10|0,0:0|0:0,0:0:0:0:
121,213,90188,1,0,0:0:0:0:
121,213,90263,1,2,0:0:0:0:
256,196,90413,1,0,0:0:0:0:
166,78,90563,1,10,0:0:0:0:
312,52,90713,1,0,0:0:0:0:
348,192,90863,6,0,P|304:268|204:272,1,180,2|10,0:0|0:0,0:0:0:0:
126,282,91313,2,0,P|169:207|256:196,1,180
424,236,91763,1,10,0:0:0:0:
396,68,91913,1,0,0:0:0:0:
258,167,92063,5,2,0:0:0:0:
144,32,92213,1,0,0:0:0:0:
255,83,92363,2,0,P|269:124|257:167,1,90,10|0,0:0|0:0,0:0:0:0:
92,196,92663,2,0,P|111:156|150:134,1,90,2|0,0:0|0:0,0:0:0:0:
240,292,92963,2,0,P|200:272|178:233,1,90,10|0,0:0|0:0,0:0:0:0:
312,232,93263,6,0,P|324:312|260:384,1,180,2|10,0:0|0:0,0:0:0:0:
168,280,93713,1,0,0:0:0:0:
110,138,93863,2,0,P|176:194|258:167,1,180,2|10,0:0|0:0,0:0:0:0:
201,30,94313,2,0,L|189:134,1,90,0|6,0:0|0:0,0:0:0:0:
168,280,94613,5,0,0:0:0:0:
240,208,94763,1,10,0:0:0:0:
110,138,94913,1,0,0:0:0:0:
308,96,95063,2,0,L|396:81,1,90,2|0,0:0|0:0,0:0:0:0:
488,188,95363,1,10,0:0:0:0:
440,320,95513,1,0,0:0:0:0:
216,276,95663,6,0,P|168:208|220:140,1,180,2|10,0:0|0:0,0:0:0:0:
331,208,96113,1,0,0:0:0:0:
331,208,96188,1,0,0:0:0:0:
331,208,96263,2,0,L|232:208,1,90,2|0,0:0|0:0,0:0:0:0:
48,152,96563,2,0,P|122:109|114:24,1,180,10|2,0:0|0:0,0:0:0:0:
56,74,97013,5,0,0:0:0:0:
188,132,97163,1,10,0:0:0:0:
296,36,97313,1,0,1:0:0:0:
296,36,97388,1,0,1:0:0:0:
296,36,97463,2,0,L|412:76,1,90,2|0,0:0|0:0,0:0:0:0:
504,36,97763,1,14,0:0:0:0:
424,232,97913,1,0,0:0:0:0:
424,232,97988,1,0,0:0:0:0:
424,232,98063,6,0,L|440:296,3,45,10|0|0|0,0:0|0:0|0:0|0:0,0:0:0:0:
312,112,98363,2,0,L|323:68,3,45,10|0|0|0,0:0|0:0|0:0|0:0,0:0:0:0:
240,280,98663,2,0,L|164:244,1,45,10|0,0:0|2:0,0:0:0:0:
124,136,98813,2,0,L|200:100,1,45,0|0,0:0|0:0,0:0:0:0:
293,233,98963,2,0,P|285:334|224:348,1,168.75,14|0,0:2|0:0,0:0:0:0:
100,340,99263,5,6,1:0:0:0:
144,232,99413,1,0,1:0:0:0:
48,164,99563,2,0,P|28:124|20:80,1,90,10|0,0:0|1:0,0:0:0:0:
168,16,99863,2,0,P|188:56|196:100,1,90,2|0,1:0|1:0,0:0:0:0:
212,232,100163,1,10,0:0:0:0:
124,136,100313,1,0,1:0:0:0:
320,36,100463,6,0,P|400:32|456:108,1,180,2|10,1:0|0:0,0:0:0:0:
464,232,100913,1,0,1:0:0:0:
464,232,100988,1,0,1:0:0:0:
464,232,101063,2,0,L|408:344,1,90,2|0,1:0|1:0,0:0:0:0:
300,316,101363,1,10,0:0:0:0:
348,188,101513,1,0,1:0:0:0:
300,316,101663,5,2,1:0:0:0:
160,340,101813,1,0,1:0:0:0:
206,212,101963,1,10,0:0:0:0:
236,360,102113,1,0,1:0:0:0:
236,360,102188,1,0,1:0:0:0:
236,360,102263,1,2,1:0:0:0:
92,320,102413,1,0,1:0:0:0:
128,188,102563,2,0,P|193:133|273:166,1,180,10|2,0:0|1:0,0:0:0:0:
344,256,103013,5,0,1:0:0:0:
380,100,103163,2,0,L|272:68,1,90,10|0,0:0|1:0,0:0:0:0:
128,188,103463,2,0,L|232:156,1,90,2|0,1:0|1:0,0:0:0:0:
380,100,103763,1,10,0:0:0:0:
344,256,103913,1,0,1:0:0:0:
344,256,103988,1,0,1:0:0:0:
344,256,104063,6,0,L|240:296,1,90,6|0,1:0|1:0,0:0:0:0:
140,328,104363,1,10,0:0:0:0:
128,188,104513,1,0,1:0:0:0:
128,188,104588,1,0,1:0:0:0:
128,188,104663,2,0,L|120:132,2,45,10|0|0,0:0|1:0|1:0,0:0:0:0:
224,32,104963,2,0,L|216:88,2,45,10|0|0,0:0|1:0|1:0,0:0:0:0:
316,160,105263,1,14,0:0:0:0:
384,72,105413,5,8,0:0:0:0:
412,96,105488,1,8,0:0:0:0:
428,128,105563,1,10,0:0:0:0:
432,164,105638,1,8,0:0:0:0:
428,200,105713,1,0,1:0:0:0:
412,232,105788,1,0,1:0:0:0:
388,260,105863,6,0,P|348:280|300:288,1,90,10|0,0:0|1:0,0:0:0:0:
160,188,106163,1,10,0:0:0:0:
204,336,106313,1,0,1:0:0:0:
264,116,106463,6,0,P|232:36|144:12,1,180,6|10,1:0|0:0,0:0:0:0:
48,92,106913,1,0,0:0:0:0:
76,216,107063,2,0,P|80:260|100:304,1,90,2|0,1:0|1:0,0:0:0:0:
168,156,107363,2,0,P|172:112|192:68,1,90,10|0,0:0|1:0,0:0:0:0:
317,32,107663,5,2,0:1:0:0:
336,184,107813,1,0,1:0:0:0:
272,43,107963,1,10,0:0:0:0:
376,196,108113,1,0,1:0:0:0:
360,24,108263,1,2,1:0:0:0:
288,168,108413,1,0,1:0:0:0:
408,16,108563,2,0,L|428:120,1,90,10|0,0:0|0:0,0:0:0:0:
312,256,108863,6,0,P|258:188|301:115,1,180,2|10,1:0|0:0,0:0:0:0:
408,16,109313,1,0,0:0:0:0:
420,212,109463,2,0,P|428:256|420:304,1,90,2|0,1:0|1:0,0:0:0:0:
276,184,109763,2,0,P|268:140|276:92,1,90,10|0,0:0|1:0,0:0:0:0:
344,232,110063,6,0,P|268:274|203:220,1,180,2|10,0:1|0:0,0:0:0:0:
116,76,110513,1,0,1:0:0:0:
124,232,110663,1,2,1:0:0:0:
8,164,110813,1,0,1:0:0:0:
92,314,110963,2,0,P|115:275|124:232,1,90,10|0,0:0|1:0,0:0:0:0:
124,232,111188,1,0,1:0:0:0:
124,232,111263,5,6,1:0:0:0:
8,164,111413,1,0,0:0:0:0:
116,76,111563,2,0,P|158:60|202:53,1,90,10|0,0:0|0:0,0:0:0:0:
374,152,111863,2,0,P|327:169|250:172,1,90,2|0,1:0|1:0,0:0:0:0:
196,180,112163,1,10,0:0:0:0:
308,72,112313,1,0,1:0:0:0:
363,308,112463,6,0,P|288:349|212:307,1,180,2|10,0:1|0:0,0:0:0:0:
196,180,112913,1,0,1:0:0:0:
288,264,113063,1,2,1:0:0:0:
374,152,113213,1,0,1:0:0:0:
476,268,113363,2,0,L|476:164,1,90,10|0,0:0|0:0,0:0:0:0:
476,40,113663,5,6,1:0:0:0:
360,108,113813,1,0,0:0:0:0:
476,178,113963,1,10,0:0:0:0:
380,16,114113,2,0,P|296:36|268:136,1,180,0|0,0:0|1:0,0:0:0:0:
476,40,114563,1,10,0:0:0:0:
476,268,114713,6,0,P|407:320|325:292,1,180,4|0,1:0|1:0,0:0:0:0:
236,124,115163,1,10,0:0:0:0:
356,156,115313,2,0,P|384:188|391:238,1,90,4|2,1:0|0:1,0:0:0:0:
252,364,115613,1,4,1:2:0:0:
128,148,115763,1,10,0:0:0:0:
132,112,115838,1,8,1:3:0:0:
148,80,115913,1,4,1:3:0:0:
176,56,115988,1,0,1:0:0:0:
208,40,116063,6,0,P|300:40|360:112,1,180,6|10,1:0|0:0,0:0:0:0:
384,236,116513,1,0,0:0:0:0:
260,200,116663,2,0,P|220:180|156:184,1,90,2|0,1:0|1:0,0:0:0:0:
80,352,116963,2,0,P|124:350|164:330,1,90,10|0,0:0|1:0,0:0:0:0:
260,200,117263,5,2,0:1:0:0:
300,344,117413,1,0,1:0:0:0:
384,236,117563,2,0,P|400:192|384:136,1,90,10|0,0:0|1:0,0:0:0:0:
232,136,117863,2,0,P|262:171|318:186,1,90,2|0,1:0|1:0,0:0:0:0:
396,52,118163,2,0,P|349:60|309:102,1,90,10|0,0:0|0:0,0:0:0:0:
296,272,118463,6,0,P|376:312|464:288,1,180,2|10,1:0|0:0,0:0:0:0:
380,144,118913,1,0,0:0:0:0:
380,144,119063,2,0,P|383:190|384:234,1,90,2|0,1:0|1:0,0:0:0:0:
222,321,119363,2,0,L|224:276|226:231,1,90,10|0,0:0|1:0,0:0:0:0:
232,136,119663,5,2,0:1:0:0:
380,144,119813,1,0,1:0:0:0:
308,80,119963,1,10,0:0:0:0:
296,272,120113,1,0,1:0:0:0:
296,272,120188,1,0,1:0:0:0:
296,272,120263,2,0,P|252:271|207:263,1,90,2|0,1:0|1:0,0:0:0:0:
105,259,120563,2,0,L|116:368,1,90,10|0,0:0|0:0,0:0:0:0:
256,188,120863,6,0,L|265:78,1,90,6|0,1:0|0:0,0:0:0:0:
140,12,121163,1,10,0:0:0:0:
114,235,121313,2,0,P|198:252|256:188,1,180,0|0,0:0|1:0,0:0:0:0:
114,235,121763,2,0,L|122:343,1,90,10|0,0:0|1:0,0:0:0:0:
397,235,122063,6,0,P|340:171|256:188,1,180,2|10,0:1|0:0,0:0:0:0:
196,288,122513,2,0,L|72:326,1,90,0|2,1:0|1:0,0:0:0:0:
144,218,122813,1,0,1:0:0:0:
264,308,122963,1,10,0:0:0:0:
398,235,123113,1,0,0:0:0:0:
452,80,123263,5,2,1:0:0:0:
452,80,123338,1,0,1:0:0:0:
452,80,123413,1,0,1:0:0:0:
452,80,123488,1,0,1:0:0:0:
452,80,123563,2,0,L|332:60,1,90,10|0,0:0|1:0,0:0:0:0:
340,96,123788,1,0,1:0:0:0:
340,96,123863,2,0,L|224:112,1,90,10|0,0:0|1:0,0:0:0:0:
141,177,124163,1,10,0:0:0:0:
48,80,124313,6,0,P|112:12|188:36,1,180,0|0,1:0|1:0,0:0:0:0:
128,88,124688,1,0,1:0:0:0:
128,88,124763,2,0,L|145:202,1,90,10|0,0:0|1:0,0:0:0:0:
160,296,125063,1,2,0:1:0:0:
60,252,125213,1,0,1:0:0:0:
220,132,125363,1,10,0:0:0:0:
252,108,125438,1,8,0:0:0:0:
292,100,125513,1,8,0:0:0:0:
332,104,125588,1,8,0:0:0:0:
368,124,125663,5,6,1:0:0:0:
256,192,125738,12,4,128063,1:0:0:0:
256,252,132863,6,0,L|256:338,3,45,6|0|0|0,0:0|2:0|0:0|0:0,0:0:0:0:
298,233,133163,2,0,L|360:295,3,45,10|0|0|0,2:0|2:0|0:0|0:0,0:0:0:0:
316,192,133463,2,0,L|403:192,3,45,10|0|0|0,2:0|2:0|0:0|0:0,0:0:0:0:
298,148,133763,2,0,L|360:85,3,45,10|0|0|0,2:0|2:0|0:0|0:0,0:0:0:0:
256,131,134063,6,0,L|254:43,1,45,10|8,0:0|0:0,0:0:0:0:
213,148,134213,2,0,L|150:85,1,45,8|8,0:0|0:0,0:0:0:0:
194,190,134363,2,0,L|109:191,1,45,10|8,0:0|0:0,0:0:0:0:
211,234,134513,2,0,L|151:294,1,45,8|8,0:0|0:0,0:0:0:0:
256,252,134663,5,10,0:0:0:0:
298,233,134738,1,8,0:0:0:0:
316,192,134813,1,8,0:0:0:0:
298,148,134888,1,8,0:0:0:0:
256,131,134963,1,10,0:0:0:0:
240,87,135038,1,8,0:0:0:0:
257,45,135113,1,8,0:0:0:0:
299,26,135188,1,8,0:0:0:0:
344,36,135263,6,0,P|372:112|288:144,1,180,14|10,1:2|0:0,0:0:0:0:
144,120,135713,1,0,1:0:0:0:
102,137,135788,1,0,1:0:0:0:
83,179,135863,2,0,P|68:224|84:272,1,90,2|0,1:0|1:0,0:0:0:0:
180,336,136163,1,10,0:0:0:0:
368,208,136314,6,0,P|442:250|444:336,1,180,0|0,1:0|1:0,0:0:0:0:
351,302,136763,1,10,0:0:0:0:
356,119,136913,1,0,1:0:0:0:
356,119,136988,1,0,1:0:0:0:
356,119,137063,1,2,1:0:0:0:
451,303,137213,1,0,1:0:0:0:
300,206,137363,1,10,0:0:0:0:
461,125,137513,1,0,1:0:0:0:
280,16,137663,6,0,L|158:32,1,90,6|0,1:0|1:0,0:0:0:0:
72,52,137963,1,10,0:0:0:0:
68,172,138113,1,0,1:0:0:0:
68,172,138188,1,0,1:0:0:0:
68,172,138263,2,0,L|157:183,1,90,2|0,1:0|1:0,0:0:0:0:
276,196,138563,1,10,0:0:0:0:
272,376,138713,6,0,P|188:376|144:296,1,180,0|0,1:0|1:0,0:0:0:0:
116,140,139163,1,14,0:0:0:0:
276,196,139313,1,0,1:0:0:0:
276,196,139388,1,0,1:0:0:0:
276,196,139463,2,0,L|231:291,1,90,2|0,1:0|1:0,0:0:0:0:
252,84,139763,2,0,P|336:84|380:164,1,180,14|6,0:0|1:0,0:0:0:0:
276,196,140213,5,0,1:0:0:0:
388,304,140363,2,0,L|455:243,1,90,10|0,0:0|1:0,0:0:0:0:
455,244,140588,1,0,1:0:0:0:
455,244,140663,1,2,1:0:0:0:
492,352,140813,1,0,1:0:0:0:
348,208,140963,2,0,P|314:239|281:268,1,90,10|0,0:0|1:0,0:0:0:0:
112,199,141263,6,0,L|147:171|183:144,1,90,2|0,1:0|1:0,0:0:0:0:
196,288,141563,2,0,P|227:321|256:354,1,90,10|0,0:0|1:0,0:0:0:0:
272,128,141863,2,0,P|240:94|211:61,1,90,2|0,1:0|1:0,0:0:0:0:
112,199,142163,2,0,L|56:248,2,45,10|0|0,0:0|1:0|1:0,0:0:0:0:
212,61,142463,6,0,L|306:48,1,90,6|0,1:0|1:0,0:0:0:0:
397,226,142763,2,0,L|307:213,1,90,10|0,0:0|1:0,0:0:0:0:
159,106,143063,2,0,L|253:93,1,90,10|0,0:0|1:0,0:0:0:0:
344,271,143363,2,0,L|254:258,1,90,10|0,0:0|1:0,0:0:0:0:
108,156,143663,6,0,L|180:144,2,45,14|0|12,0:0|0:0|0:0,0:0:0:0:
296,324,143963,1,2,1:0:0:0:
296,324,144038,1,0,1:0:0:0:
296,324,144113,2,0,L|224:312,2,45,12|0|14,0:0|0:0|0:0,0:0:0:0:
64,212,144413,1,0,1:0:0:0:
256,192,144563,1,10,0:0:0:0:
256,192,144638,1,8,0:0:0:0:
256,192,144713,1,8,1:3:0:0:
256,192,144788,1,4,1:3:0:0:
256,192,144863,6,0,L|412:176,1,135.000005149842,4|2,0:0|0:0,0:0:0:0:
292,28,145463,1,8,0:0:0:0:
204,104,145613,2,0,L|48:88,1,135.000005149842,0|0,1:0|1:0,0:0:0:0:
132,244,146213,6,0,L|160:332,1,67.5000025749208,0|2,0:0|0:0,0:0:0:0:
256,384,146513,2,0,L|284:296,1,67.5000025749208,0|8,0:0|0:0,0:0:0:0:
280,316,146813,1,0,0:0:0:0:
360,180,147113,1,8,2:0:0:0:
360,180,147188,1,8,2:0:0:0:
360,180,147263,6,0,L|204:164,1,135.000005149842,0|2,0:0|0:0,0:0:0:0:
52,48,147863,1,8,0:0:0:0:
48,52,148013,1,0,0:0:0:0:
48,312,148313,2,0,L|204:296,1,135.000005149842
308,360,148763,5,2,0:0:0:0:
312,364,148913,1,0,0:0:0:0:
216,172,149063,1,8,0:0:0:0:
212,168,149213,1,0,0:0:0:0:
48,312,149513,2,0,L|22:351,2,33.7500012874604,8|8|4,2:0|2:0|0:0,0:0:0:0:
32,40,149963,5,2,0:0:0:0:
168,140,150263,2,0,L|136:216,1,67.5000025749208,8|0,0:0|0:0,0:0:0:0:
147,38,150713,2,0,P|211:32|255:81,1,135.000005149842,0|0,0:0|0:0,0:0:0:0:
168,140,151163,5,2,0:0:0:0:
132,248,151313,1,0,0:0:0:0:
244,224,151463,1,8,0:0:0:0:
252,348,151613,2,0,P|316:332|356:268,1,135.000005149842,0|8,0:0|2:0,0:0:0:0:
353,277,151988,1,8,2:0:0:0:
353,277,152063,5,0,0:0:0:0:
348,112,152363,1,2,0:0:0:0:
180,204,152663,1,8,0:0:0:0:
176,208,152813,1,0,0:0:0:0:
308,40,153113,1,0,0:0:0:0:
464,188,153413,5,0,0:0:0:0:
460,192,153563,2,0,L|380:196,1,67.5000025749208,2|0,0:0|0:0,0:0:0:0:
92,208,153863,5,8,2:0:0:0:
92,208,154013,1,8,0:2:0:0:
200,40,154463,6,0,L|172:120,1,67.5000025749208,4|0,0:0|2:0,0:0:0:0:
171,209,154763,1,2,0:0:0:0:
288,156,154913,2,0,L|304:252,1,67.5000025749208,0|8,2:0|0:0,0:0:0:0:
264,340,155213,1,0,0:0:0:0:
160,276,155363,2,0,L|171:209,1,67.5000025749208,2|0,2:3|0:0,0:0:0:0:
340,280,155663,6,0,L|252:272,1,67.5000025749208,2|0,2:3|0:0,0:0:0:0:
160,276,155963,2,0,L|167:369,1,67.5000025749208,2|0,0:0|0:0,0:0:0:0:
296,208,156263,2,0,L|305:110,1,67.5000025749208,8|0,0:0|0:0,0:0:0:0:
160,192,156563,1,2,2:3:0:0:
264,336,156713,1,8,2:0:0:0:
264,336,156788,1,8,2:0:0:0:
264,336,156863,6,0,L|356:348,1,67.5000025749208,2|0,0:3|2:0,0:0:0:0:
464,240,157163,1,2,0:0:0:0:
464,240,157313,2,0,L|372:252,1,67.5000025749208,0|8,2:0|0:0,0:0:0:0:
296,208,157613,1,0,0:0:0:0:
324,104,157763,1,2,2:3:0:0:
420,56,157913,1,0,0:0:0:0:
200,40,158063,5,2,2:3:0:0:
224,152,158213,1,0,0:0:0:0:
156,244,158363,2,0,L|64:256,1,67.5000025749208,2|0,0:0|0:0,0:0:0:0:
0,144,158663,2,0,L|66:135,1,67.5000025749208,8|0,0:0|0:0,0:0:0:0:
132,24,158963,1,2,2:3:0:0:
156,244,159113,1,8,2:0:0:0:
156,244,159188,1,8,2:0:0:0:
156,244,159263,6,0,L|168:336,1,67.5000025749208,4|0,0:0|2:0,0:0:0:0:
220,384,159563,1,2,0:0:0:0:
192,204,159713,2,0,L|204:296,1,67.5000025749208,0|8,2:0|0:0,0:0:0:0:
220,384,160013,1,0,0:0:0:0:
236,172,160163,2,0,L|248:264,1,67.5000025749208,2|0,2:3|0:0,0:0:0:0:
352,264,160463,6,0,P|368:220|356:172,1,67.5000025749208,2|0,2:3|0:0,0:0:0:0:
237,172,160763,2,0,P|267:207|313:220,1,67.5000025749208,2|0,0:0|0:0,0:0:0:0:
376,120,161063,2,0,P|329:128|296:156,1,67.5000025749208,8|0,0:0|0:0,0:0:0:0:
352,264,161363,2,0,P|368:220|356:172,1,67.5000025749208,2|8,2:3|2:0,0:0:0:0:
366,200,161588,1,8,2:0:0:0:
366,200,161663,5,2,0:3:0:0:
328,52,161813,1,0,2:0:0:0:
276,156,161963,1,2,0:0:0:0:
192,76,162113,1,0,2:0:0:0:
172,200,162263,2,0,L|160:280,1,67.5000025749208,8|0,0:0|0:0,0:0:0:0:
300,352,162563,2,0,L|288:272,1,67.5000025749208,2|0,2:3|0:0,0:0:0:0:
120,172,162863,6,0,L|108:252,1,67.5000025749208,2|0,2:3|0:0,0:0:0:0:
248,324,163163,2,0,L|236:244,1,67.5000025749208,2|0,0:0|0:0,0:0:0:0:
224,152,163463,1,8,0:0:0:0:
160,312,163613,1,8,2:0:0:0:
160,312,163688,1,8,2:0:0:0:
160,312,163763,2,0,L|148:252,3,33.7500012874604,8|8|8|4,0:0|0:0|0:3|0:3,0:0:0:0:
148,252,164063,6,0,L|224:236,1,67.5000025749208,4|0,0:0|2:0,0:0:0:0:
300,352,164363,1,2,0:0:0:0:
300,352,164513,2,0,L|234:339,1,67.5000025749208,0|8,2:0|0:0,0:0:0:0:
296,176,164813,1,0,0:0:0:0:
296,176,164963,2,0,L|309:242,1,67.5000025749208,2|0,2:3|0:0,0:0:0:0:
200,176,165263,6,0,L|186:109,1,67.5000025749208,2|0,2:3|0:0,0:0:0:0:
336,204,165563,2,0,L|349:270,1,67.5000025749208,2|0,0:0|0:0,0:0:0:0:
164,148,165863,2,0,L|150:81,1,67.5000025749208,8|0,0:0|0:0,0:0:0:0:
272,84,166163,1,2,2:3:0:0:
232,272,166313,1,8,2:0:0:0:
232,272,166388,1,8,2:0:0:0:
232,272,166463,6,0,L|246:339,1,67.5000025749208,2|0,0:3|2:0,0:0:0:0:
124,324,166763,1,2,0:0:0:0:
40,236,166913,2,0,L|26:169,1,67.5000025749208,0|8,2:0|0:0,0:0:0:0:
150,81,167213,2,0,L|164:148,1,67.5000025749208,0|2,0:0|2:3,0:0:0:0:
232,272,167513,1,0,0:0:0:0:
296,148,167663,5,2,2:3:0:0:
372,244,167813,1,0,0:0:0:0:
232,192,167963,1,2,0:0:0:0:
364,176,168113,1,0,0:0:0:0:
320,300,168263,1,8,0:0:0:0:
320,300,168413,2,0,P|288:312|252:308,1,67.5000025749208,0|2,0:0|2:3,0:0:0:0:
88,184,168713,1,8,2:0:0:0:
88,184,168788,1,8,2:0:0:0:
88,184,168863,6,8,L|64:252,3,45,14|8|8|8,0:0|0:0|0:0|0:0,0:0:0:0:
172,88,169163,2,8,L|148:20,3,45,10|8|8|8,0:0|0:0|0:0|0:0,0:0:0:0:
208,208,169463,6,8,L|276:232,3,45,10|8|8|8,0:0|0:0|0:0|0:0,0:0:0:0:
336,148,169763,2,8,L|378:133,3,45,10|8|8|8,0:0|0:0|0:0|0:0,0:0:0:0:
404,136,170063,5,10,0:0:0:0:
428,152,170138,1,8,0:0:0:0:
440,176,170213,1,8,0:0:0:0:
448,200,170288,1,8,0:0:0:0:
448,228,170363,1,10,0:0:0:0:
440,256,170438,1,8,0:0:0:0:
428,280,170513,1,8,0:0:0:0:
412,300,170588,1,8,0:0:0:0:
388,316,170663,6,8,L|345:301,1,45,10|8,0:0|0:0,0:0:0:0:
256,228,170813,2,8,L|213:243,1,45
248,120,170963,2,8,L|290:105,3,45,10|8|8|8,0:0|0:0|0:0|0:0,0:0:0:0:
404,136,171263,5,10,0:0:0:0:
404,136,171338,1,8,0:0:0:0:
404,136,171413,1,8,0:0:0:0:
404,136,171488,1,8,0:0:0:0:
404,136,171563,1,10,0:0:0:0:
404,136,171638,1,8,0:0:0:0:
404,136,171713,1,8,0:0:0:0:
404,136,171788,1,8,0:0:0:0:
404,136,171863,6,8,L|361:150,3,45,10|8|8|8,0:0|0:0|0:0|0:0,0:0:0:0:
248,68,172163,2,8,L|290:54,3,45,10|8|8|8,0:0|0:0|0:0|0:0,0:0:0:0:
264,184,172463,6,8,L|278:227,3,45,10|8|8|8,0:0|0:0|0:0|0:0,0:0:0:0:
180,304,172763,2,8,L|166:261,1,45,10|8,1:2|1:0,0:0:0:0:
88,196,172913,2,4,L|102:153,1,45,8|8,1:3|1:3,1:3:0:0:
148,56,173063,5,0,1:0:0:0:
148,56,173663,6,0,P|72:100|72:188,1,180,6|10,1:0|0:0,0:0:0:0:
152,284,174113,1,0,0:0:0:0:
280,212,174263,1,2,1:0:0:0:
152,144,174413,1,0,1:0:0:0:
236,280,174563,1,10,0:0:0:0:
340,156,174713,1,0,1:0:0:0:
255,9,174863,6,0,P|256:53|264:98,1,90,2|0,0:1|1:0,0:0:0:0:
280,212,175163,2,0,L|180:204,1,90,10|0,0:0|1:0,0:0:0:0:
337,50,175463,2,0,L|437:42,1,90,2|0,1:0|1:0,1:0:0:0:
345,258,175763,2,0,P|352:213|354:168,1,90,10|0,0:0|0:0,0:0:0:0:
337,50,176063,6,0,P|379:125|465:127,1,180,2|10,1:0|0:0,0:0:0:0:
444,8,176513,1,0,0:0:0:0:
337,50,176663,2,0,P|297:66|245:66,1,90,2|0,1:0|1:0,0:0:0:0:
144,8,176963,1,10,0:0:0:0:
108,124,177113,1,0,1:0:0:0:
323,241,177263,6,0,L|316:152,1,90,2|0,0:1|1:0,0:0:0:0:
141,220,177563,2,0,L|249:236,1,90,10|0,0:0|1:0,0:0:0:0:
324,242,177863,1,2,1:0:0:0:
220,348,178013,1,0,1:0:0:0:
240,144,178163,2,0,L|248:36,1,90,10|0,0:0|1:0,0:0:0:0:
246,54,178388,1,0,1:0:0:0:
246,54,178463,5,6,1:0:0:0:
108,124,178613,1,0,0:0:0:0:
249,240,178763,1,10,0:0:0:0:
316,152,178913,1,0,0:0:0:0:
141,220,179063,1,2,1:0:0:0:
188,40,179213,1,0,1:0:0:0:
249,240,179363,1,10,0:0:0:0:
108,124,179513,1,0,1:0:0:0:
328,80,179663,6,0,P|272:144|180:100,1,180,2|10,0:1|0:0,0:0:0:0:
128,16,180113,1,0,1:0:0:0:
253,77,180263,2,0,P|274:117|288:160,1,90,2|0,1:0|1:0,0:0:0:0:
200,352,180563,2,0,P|179:312|166:270,1,90,10|0,0:0|0:0,0:0:0:0:
176,68,180863,6,0,P|232:4|324:48,1,180,2|10,1:0|0:0,0:0:0:0:
277,164,181313,2,0,P|262:115|249:48,1,90,0|2,0:0|1:0,0:0:0:0:
368,216,181613,2,0,P|353:265|340:332,1,90,0|10,1:0|0:0,0:0:0:0:
360,104,181913,6,0,P|416:40|508:84,1,180,4|0,1:0|1:0,0:0:0:0:
464,200,182363,1,10,0:0:0:0:
464,200,182438,1,0,0:0:0:0:
464,200,182513,2,0,P|456:152|428:100,1,90,4|2,1:0|0:1,0:0:0:0:
312,0,182813,2,0,P|293:40|286:85,1,90,0|14,1:0|0:0,0:0:0:0:
232,336,183113,1,0,1:0:0:0:
232,336,183188,1,0,1:0:0:0:
232,336,183263,6,0,P|188:328|132:308,1,90,6|0,1:0|0:0,0:0:0:0:
24,216,183563,2,0,P|66:201|110:193,1,90,10|0,0:0|0:0,0:0:0:0:
220,180,183863,1,2,1:0:0:0:
176,284,184013,1,0,1:0:0:0:
112,108,184163,1,10,0:0:0:0:
64,288,184313,1,0,1:0:0:0:
300,200,184463,6,0,L|314:111,1,90,2|0,0:1|1:0,0:0:0:0:
436,0,184763,2,0,L|447:89,1,90,10|0,0:0|1:0,0:0:0:0:
257,256,185063,2,0,L|271:167,1,90,2|0,1:0|1:0,0:0:0:0:
392,56,185363,2,0,L|403:145,1,90,10|0,0:0|0:0,0:0:0:0:
244,332,185663,6,0,P|180:276|224:184,1,180,6|10,1:0|0:0,0:0:0:0:
269,78,186113,1,0,0:0:0:0:
269,78,186263,2,0,L|165:54,1,90,2|0,1:0|1:0,0:0:0:0:
63,215,186563,2,0,L|152:200,1,90,10|0,0:0|1:0,0:0:0:0:
28,80,186863,5,2,0:1:0:0:
60,200,187013,2,8,L|148:184,1,90,0|10,1:0|0:0,0:0:0:0:
269,78,187313,1,0,1:0:0:0:
216,244,187463,1,2,1:0:0:0:
128,104,187613,1,0,1:0:0:0:
288,176,187763,1,10,0:0:0:0:
128,296,187913,1,0,0:0:0:0:
269,78,188063,6,0,P|347:43|413:98,1,180,6|10,1:0|0:0,0:0:0:0:
320,264,188513,2,0,P|285:184|340:118,1,180,0|0,0:0|1:0,0:0:0:0:
448,202,188963,2,0,P|402:206|358:194,1,90,10|0,0:0|1:0,0:0:0:0:
268,78,189263,6,0,P|220:62|180:62,2,90,2|0|10,0:1|1:0|0:0,0:0:0:0:
392,160,189713,1,0,1:0:0:0:
300,300,189863,2,0,P|255:298|212:283,1,90,2|0,1:0|1:0,0:0:0:0:
172,124,190163,2,0,P|216:125|259:140,1,90,10|0,0:0|0:0,0:0:0:0:
348,232,190463,5,6,1:0:0:0:
224,264,190613,1,0,0:0:0:0:
259,140,190763,1,10,0:0:0:0:
300,300,190913,1,0,0:0:0:0:
392,160,191063,1,2,1:0:0:0:
172,124,191213,2,0,P|127:125|84:140,1,90,0|10,1:0|0:0,0:0:0:0:
224,192,191513,6,0,P|259:113|207:47,1,180,0|0,1:0|1:0,0:0:0:0:
206,46,191888,1,0,1:0:0:0:
206,46,191963,1,10,0:0:0:0:
344,28,192113,2,0,L|433:35,1,90,0|2,1:0|0:1,0:0:0:0:
493,174,192413,5,8,0:0:0:0:
493,221,192488,1,8,0:0:0:0:
472,261,192563,1,10,1:0:0:0:
437,286,192638,1,8,0:0:0:0:
391,291,192713,1,8,0:0:0:0:
350,276,192788,1,8,0:0:0:0:
320,246,192863,1,14,1:0:0:0:
256,192,192938,12,10,194963,0:0:0:0:
424,192,195263,6,0,P|379:184|337:198,1,90,2|0,0:0|0:0,0:0:0:0:
202,332,195563,2,0,P|239:305|259:266,1,90,10|0,2:0|0:0,0:0:0:0:
258,266,195788,1,0,0:0:0:0:
258,266,195863,1,2,0:0:0:0:
252,108,196013,2,0,P|204:108|152:96,1,90,0|10,0:0|2:0,0:0:0:0:
68,28,196313,6,0,P|146:62|213:8,1,180,0|0,0:0|0:0,0:0:0:0:
252,108,196763,2,0,P|251:152|259:197,1,90,10|0,2:0|0:0,0:0:0:0:
260,197,196988,1,0,0:0:0:0:
260,197,197063,1,2,0:0:0:0:
292,332,197213,1,0,0:0:0:0:
168,292,197363,1,10,2:0:0:0:
340,249,197513,1,0,0:0:0:0:
492,364,197663,6,0,L|516:256,1,90,6|0,0:0|0:0,0:0:0:0:
416,189,197963,2,0,L|396:101,1,90,10|0,2:0|0:0,0:0:0:0:
396,101,198188,1,0,0:0:0:0:
396,101,198263,1,2,0:0:0:0:
260,197,198413,1,0,0:0:0:0:
292,332,198563,1,10,2:0:0:0:
415,189,198713,6,0,P|335:154|260:197,1,180,0|0,0:0|0:0,0:0:0:0:
176,300,199163,2,0,P|137:328|93:332,1,90,10|0,2:0|0:0,0:0:0:0:
32,276,199388,1,0,0:0:0:0:
32,276,199463,2,0,L|7:180,1,90,2|0,0:0|0:0,0:0:0:0:
116,68,199763,2,0,L|138:155,1,90,10|0,2:0|0:0,0:0:0:0:
176,300,200063,6,0,P|224:304|269:292,1,90,6|0,0:0|0:0,0:0:0:0:
400,260,200363,1,10,2:0:0:0:
376,120,200513,1,0,1:0:0:0:
372,124,200588,1,0,1:0:0:0:
368,128,200663,2,0,L|248:112,1,90,10|0,2:0|1:0,0:0:0:0:
228,196,200888,1,0,1:0:0:0:
224,200,200963,2,0,L|108:216,1,90,10|0,2:0|1:0,0:0:0:0:
320,32,201263,5,14,2:0:0:0:
448,144,201413,1,8,2:0:0:0:
428,184,201488,1,8,2:0:0:0:
388,204,201563,1,2,1:2:0:0:
344,204,201638,1,0,1:2:0:0:
304,184,201713,1,8,2:0:0:0:
288,144,201788,1,8,2:0:0:0:
248,124,201863,1,14,1:2:0:0:
204,124,201938,1,8,1:0:0:0:
164,144,202013,1,8,1:3:0:0:
144,184,202088,1,4,1:3:0:0:
148,228,202163,6,0,L|32:284,1,112.5,6|0,1:0|1:0,0:0:0:0:
