osu file format v9

[General]
AudioFilename: Flames Within These Black Feathers.mp3
AudioLeadIn: 1000
PreviewTime: -1
Countdown: 0
SampleSet: Soft
StackLeniency: 0.7
Mode: 0
LetterboxInBreaks: 0

[Editor]
DistanceSpacing: 1.3
BeatDivisor: 4
GridSize: 4

[Metadata]
Title:Flames Within These Black Feathers
Artist:Foreground Eclipse
Creator:Saten
Version:Regou
Source:Touhou
Tags:Okuu Utsuho Reiuji Cocktail M49 Merami Suzuori Nuclear Fusion Hellfire Mantle OnosakiHito Regou Nyquill Saten-san

[Difficulty]
HPDrainRate:6
CircleSize:4
OverallDifficulty:7
ApproachRate:8
SliderMultiplier:1.8
SliderTickRate:1

[Events]
//Background and Video events
0,0,"okuu.jpg"
//Break Periods
2,76849,88207
2,138388,144822
//Storyboard Layer 0 (Background)
Sprite,Background,Centre,"okuu2.jpg",320,240 M,0,52034,,320,240 S,0,52034,,0.625 F,0,52034,71726,1 F,0,71726,,0 F,0,116034,135726,1 F,0,135726,,0 F,0,165264,204649,1 F,0,204649,,0
//Storyboard Layer 1 (Fail)
//Storyboard Layer 2 (Pass)
//Storyboard Layer 3 (Foreground)
Sprite,Foreground,Centre,"White.jpg",320,240 M,0,52034,,320,240 S,0,52034,,2 F,0,52034,52341,0.75,0 F,0,71726,73264,0.75,0 F,0,116034,116341,0.75,0 F,0,135726,137264,0.75,0 F,0,165264,165572,0.75,0 F,0,184957,185264,0.75,0 F,0,204649,207110,0.75,0
//Storyboard Sound Samples
//Background Colour Transformations
3,100,0,0,0

[TimingPoints]
341.715025906736,307.692307692308,4,2,1,80,1,0
29880,-200,4,2,1,80,0,0
39726,-100,4,2,1,80,0,0
51418,-200,4,2,1,80,0,0
51518,-133.333333333333,4,2,1,80,0,0
52034,-100,4,2,1,80,0,1
71726,-100,4,2,1,80,0,0
101264,-200,4,2,1,80,0,0
103726,-100,4,2,1,80,0,0
111110,-200,4,2,1,80,0,0
116034,-100,4,2,1,80,0,1
135726,-100,4,2,1,80,0,0
164034,-200,4,2,1,80,0,0
165264,-100,4,2,1,80,0,1
184956,-100,4,2,1,80,0,0
184957,-100,4,2,1,80,0,1
204649,-100,4,2,1,80,0,0

[Colours]
Combo1 : 170,85,255
Combo2 : 255,83,83
Combo3 : 111,255,111
Combo4 : 106,106,255
Combo5 : 255,255,0
Combo6 : 255,168,81

[HitObjects]
132,40,342,2,0,B|192:76|184:152|112:192,1,180,12|2
72,264,803,2,0,B|168:216|248:296,1,180,2|0
328,320,1265,1,8
400,248,1418,1,0
416,144,1572,6,0,B|344:168|304:88|208:128,1,180,2|8
176,192,2034,1,2
176,192,2111,1,0
176,192,2188,2,0,B|168:144|168:144|144:112,1,90,2|0
256,248,2495,2,0,B|264:296|264:296|296:336,1,90,0|8
384,320,2803,6,0,B|408:232|384:128,1,180,4|8
304,96,3265,1,0
288,88,3342,1,0
272,80,3418,2,0,B|184:64,1,90,2|0
32,120,3726,2,0,B|128:136,1,90,8|2
144,224,4034,6,0,B|232:184|320:232,1,180,0|8
360,328,4495,1,0
416,240,4649,2,0,B|456:160|456:160|440:56,1,180,2|8
128,176,5265,6,0,B|80:264|168:344,1,180,4|8
64,328,5726,2,0,B|112:232|232:272,1,180,2|0
312,304,6188,1,8
296,200,6342,1,0
200,168,6495,6,0,B|112:152|112:152|56:80,1,180,2|8
160,56,6957,1,0
256,96,7111,1,2
256,96,7188,1,0
256,96,7265,1,8
360,56,7418,1,10
440,120,7572,1,0
400,216,7726,6,0,B|320:168|368:32,1,180,4|8
112,168,8342,2,0,B|192:216|144:352,1,180,2|8
256,320,8803,1,0
256,224,8957,5,0
264,240,9034,1,0
280,256,9111,1,0
296,268,9188,1,0
316,276,9265,1,8
336,280,9342,1,0
356,280,9418,2,0,B|376:192,1,90,0|2
316,108,9726,1,0
216,136,9880,2,0,B|104:124,1,90,2|0
72,208,10188,6,0,B|164:216|164:216|220:320,1,180,4|8
288,336,10649,1,0
288,336,10726,1,0
288,336,10803,2,0,B|376:340,1,90,8|0
464,56,11265,5,4
48,56,11572,1,0
48,152,11726,2,0,B|92:180|140:168,1,90,8|0
360,124,12034,2,0,B|316:100|256:116,1,90
128,272,12342,2,0,B|168:292|224:280,1,90
260,368,12649,5,4
48,56,12957,1,8
464,56,13265,1,0
408,136,13418,2,0,B|356:136|356:136|304:100|304:100|220:100,1,180,0|4
44,272,14034,5,4
468,272,14342,1,0
468,272,14418,1,0
468,272,14495,2,8,B|368:264,1,90,0|8
136,188,14803,2,0,B|232:196,1,90,8|0
40,364,15111,6,0,B|24:268|24:268|28:172,1,180,4|8
88,104,15572,1,0
108,96,15649,1,0
128,88,15726,2,0,B|240:88,1,90,8|0
488,304,16188,5,4
24,304,16495,1,0
108,264,16649,1,8
196,224,16803,2,0,B|216:184|200:132,1,90
344,240,17111,2,0,B|316:276|344:328,1,90,0|8
364,320,17342,1,0
388,316,17418,1,0
412,312,17495,1,0
436,308,17572,6,0,B|440:212,1,90,4|0
384,136,17880,2,0,B|292:136|292:136|216:192,1,180,8|0
292,248,18342,1,0
156,124,18495,1,8
128,296,18649,5,4
472,36,18957,1,0
472,36,19034,1,0
472,36,19111,2,0,B|456:128|456:128,1,90,8|0
420,212,19418,1,0
400,208,19495,1,0
380,212,19572,1,0
364,224,19649,1,0
352,240,19726,1,8
348,260,19803,1,0
352,280,19880,2,0,B|316:232|264:224,1,90,0|4
188,260,20188,5,0
120,324,20342,2,0,B|68:292|72:204|136:168,1,180,8|0
44,144,20803,1,8
468,144,21111,5,4
424,232,21265,1,0
408,236,21342,1,0
388,240,21418,2,0,B|396:192|396:192|376:136,1,90,0|8
256,236,21726,2,0,B|244:280|244:280|256:328,1,90
128,232,22034,2,0,B|136:184|136:184|116:128,1,90,0|8
48,80,22342,1,0
24,176,22495,6,0,B|24:268|24:268|84:344,1,180,4|8
168,300,22957,1,0
184,308,23034,1,0
204,320,23111,2,0,B|244:344|300:336,1,90,0|8
480,220,23572,5,4
32,164,23880,1,8
92,244,24034,1,8
92,244,24111,1,0
92,244,24188,2,0,B|132:208|120:144,1,90,0|0
272,84,24495,2,0,B|244:128|256:184,1,90,0|8
348,192,24803,1,0
156,152,24957,6,0,B|64:136|64:136|24:56,1,180,4|8
120,48,25418,1,0
25,58,25572,1,0
25,58,25726,1,8
488,328,26034,6,0,B|432:336|392:292|392:292|308:296,1,180,4|0
236,240,26495,1,8
152,288,26649,1,0
152,288,26726,1,0
152,288,26803,2,0,B|104:260|104:204,1,90
24,268,27111,1,8
28,244,27188,1,0
32,220,27265,1,0
36,196,27342,1,0
40,172,27418,6,0,B|84:188|136:172|136:172|168:92,1,180,4|8
260,48,27880,1,0
352,92,28034,1,0
448,48,28188,1,8
64,336,28495,5,4
164,344,28649,1,0
164,344,28726,1,0
164,344,28803,2,0,B|176:248,1,90,0|8
176,80,29111,2,0,B|188:176,1,90
264,288,29418,1,0
392,260,29572,1,8
404,128,29726,1,0
276,72,29880,6,0,B|244:136|292:212,1,135,4|0
360,192,30495,1,8
436,212,30649,1,0
372,340,30957,1,0
300,316,31111,2,0,B|220:276|160:292,1,135,2|0
160,292,31649,1,0
152,296,31726,1,8
32,256,32034,2,0,B|44:236|44:200|44:200|44:200,1,45,8|0
104,56,32342,6,0,B|72:96|72:156,1,90,2|8
248,240,33111,1,8
248,240,33418,1,0
276,172,33572,2,0,B|284:152|280:128,1,45,2|0
176,212,33880,2,0,B|168:240|168:272,1,45,0|8
168,268,34111,1,0
168,280,34188,1,8
288,320,34495,1,0
424,352,34803,6,0,B|452:288|432:208,1,135,6|8
464,152,35418,2,0,B|396:180|320:140,1,135
264,112,36034,1,8
232,240,36342,5,8
224,232,36418,1,0
216,224,36495,2,0,B|160:224,1,45,8|0
108,268,36803,1,0
108,268,36957,2,0,B|64:236|72:172,1,90,8|6
256,192,37342,12,4,38495
232,88,38649,5,0
232,88,38726,1,0
232,88,38803,1,8
216,280,38957,1,0
340,144,39111,1,8
156,180,39265,1,0
324,256,39418,1,8
88,100,39726,6,0,B|44:184|44:184|80:280,1,180,4|8
224,320,40188,1,0
212,304,40265,1,0
200,288,40342,2,0,B|160:204,1,90
248,100,40649,2,0,B|288:188,1,90,8|0
400,320,40957,6,0,B|452:292|444:240|444:240|468:160,1,180,0|8
204,24,41418,2,0,B|112:88|160:184,1,180
244,120,41880,1,8
60,124,42034,1,0
156,280,42188,6,0,B|248:280|248:280|324:236,2,180,4|8|0
72,332,42957,2,0,B|40:224,1,90,0|8
124,180,43265,1,0
224,144,43418,5,0
224,144,43495,1,0
224,144,43572,2,0,B|260:112|316:112,1,90,0|8
280,296,43880,2,0,B|234:280|206:232,1,90,0|0
384,180,44188,2,0,B|393:227|365:275,1,90,0|8
124,180,44649,6,0,B|72:172|72:172|36:108|104:56,1,180,4|8
184,104,45111,1,0
204,104,45188,1,0
228,104,45265,2,0,B|320:104,1,90
204,264,45572,2,0,B|84:264,1,90,8|0
304,192,45880,6,0,B|392:248|328:356,1,180,0|8
140,304,46342,2,0,B|140:240|72:216|72:216|20:148,1,180
232,64,46803,2,0,B|264:112|220:164,1,90,8|0
288,356,47111,6,0,B|228:276|312:184,2,180,4|8|0
380,320,47880,1,0
392,308,47957,1,0
404,296,48034,2,0,B|420:196,1,90,8|0
432,112,48342,5,0
416,108,48418,1,0
400,108,48495,1,0
384,112,48572,1,0
368,120,48649,1,8
356,132,48726,1,0
344,148,48803,1,0
336,168,48880,1,0
336,192,48957,5,4
232,296,49111,1,0
112,224,49265,1,8
140,84,49418,1,0
284,72,49572,5,4
228,312,49880,1,6
376,220,50188,1,4
136,164,50496,1,6
256,192,50803,5,0
184,260,50957,1,0
184,260,51034,1,0
184,260,51111,1,8
288,288,51265,1,0
288,288,51342,1,0
288,288,51418,6,0,B|236:240|252:160,1,135,8|0
428,96,52034,6,0,B|496:176|444:296|444:296,1,180,4|8
184,340,52495,2,0,B|188:288|140:260|140:260|104:176,1,180
60,88,52957,1,8
156,92,53111,1,0
208,184,53265,6,0,B|304:224|368:116,1,180,0|8
156,92,53726,2,0,B|80:172|144:272,1,180
204,328,54188,1,8
300,304,54342,1,0
352,212,54495,6,0,B|300:192|256:216,1,90,4|0
244,220,54726,1,0
228,232,54803,1,8
136,272,54957,1,0
48,312,55111,1,0
48,312,55265,6,0,B|76:224|52:124,1,180,8|0
132,76,55726,2,0,B|152:184,1,90
280,332,56034,2,0,B|336:312|336:312|384:268|376:200,1,180,8|0
340,80,56495,1,0
340,80,56572,1,0
340,80,56649,1,8
212,124,56803,1,0
248,244,56957,6,0,B|200:276|148:264|148:264|68:284,1,180,4|8
128,104,57418,2,0,B|176:16|284:56,1,180
368,276,57880,2,0,B|324:248|340:184,1,90,8|0
472,112,58188,6,0,B|528:184|496:288,1,180,0|8
260,220,58649,2,0,B|192:172|128:184|128:184|92:228|92:228,1,180
340,296,59111,2,0,B|372:256|356:204,1,90,8|0
328,120,59418,6,0,B|136:120,1,180,4|8
112,344,59880,1,0
96,328,59957,1,0
80,316,60034,2,0,B|60:280|72:224,1,90
84,140,60342,1,8
100,128,60418,1,0
112,112,60495,1,0
116,92,60572,1,0
108,72,60649,6,0,B|160:168|272:144|272:144,1,180,0|8
280,328,61111,1,0
376,176,61265,1,0
204,244,61418,1,0
392,284,61572,1,8
392,284,61880,6,0,B|436:204|404:100,1,180,4|8
92,160,62342,2,0,B|116:228|196:244|252:188,1,180
136,80,62803,2,0,B|88:56|32:80,1,90,8|0
260,344,63111,6,0,B|336:312|308:232|308:232|308:164,1,180,0|8
272,100,63572,1,0
272,100,63649,1,0
272,100,63726,2,0,B|164:96,1,90
368,264,64034,2,0,B|464:272,1,90,8|0
168,168,64342,6,0,B|88:224|88:224|52:272|72:332,1,180,4|8
296,240,64803,1,0
296,240,64880,1,0
296,240,64957,2,0,B|364:168|296:52,1,180,0|8
220,116,65418,1,0
128,148,65572,6,0,B|92:112|116:52,1,90,4|0
220,116,65880,2,0,B|288:184|232:292,1,180,8|0
160,340,66342,2,0,B|120:304|60:320,1,90,0|8
44,224,66649,1,0
360,260,66803,6,0,B|416:192|416:192|400:96,1,180,4|8
172,152,67265,2,0,B|124:240|180:324,1,180
272,192,67726,2,0,B|288:96,1,90,8|0
72,184,68034,2,0,B|32:248|44:324|44:324|96:356,1,180,0|8
164,296,68495,1,0
164,296,68572,1,0
164,296,68649,5,0
312,256,68803,1,0
280,108,68957,1,8
128,144,69111,1,0
324,340,69265,6,0,B|420:320,1,90,4|0
188,340,69572,2,0,B|92:320,1,90,8|0
356,264,69880,2,0,B|420:196,1,90
156,264,70188,2,0,B|92:196,1,90,8|0
256,276,70495,5,0
256,256,70572,1,0
256,240,70649,1,0
256,220,70726,1,0
256,200,70803,1,8
256,180,70880,1,0
256,160,70957,1,0
256,144,71034,1,0
256,128,71111,2,0,B|256:84,7,45,0|0|0|0|8|0|0|0
256,68,71726,1,4
256,192,71803,12,4,74188
400,332,74495,5,8
400,332,74649,2,0,B|344:268|344:268|356:168,1,180
424,108,75111,1,8
424,108,75265,6,0,B|340:56|252:116,1,180,4|0
204,196,75726,1,8
196,284,75880,2,0,B|224:196|156:108,1,180
144,104,76265,1,0
124,96,76342,1,8
104,92,76418,1,0
84,92,76495,1,0
64,96,76572,1,0
44,104,76649,1,4
256,192,88957,12,8,91111
96,72,91418,6,0,B|140:156|88:252,1,180,4|8
164,308,91880,1,0
180,300,91957,1,0
196,288,92034,2,0,B|244:284|296:312,1,90
412,272,92342,2,0,B|376:240|376:180,1,90,8|0
280,84,92649,6,0,B|272:204|152:208,1,180,0|8
104,348,93111,2,0,B|24:308|56:236|56:236|32:176,1,180
60,96,93572,1,8
148,140,93726,1,0
216,64,93880,6,0,B|156:152|216:256,1,180,4|8
256,312,94342,1,0
276,304,94418,1,0
296,300,94495,2,0,B|348:292|388:316,1,90,0|0
452,252,94803,1,8
444,160,94957,1,0
348,192,95111,6,0,B|328:136|384:64|456:64,1,180,0|8
444,160,95572,1,0
348,192,95726,1,0
332,200,95803,1,0
312,212,95880,1,0
304,228,95957,1,0
296,244,96034,1,8
292,268,96111,1,0
296,288,96188,1,0
308,308,96265,1,0
324,328,96342,6,0,B|280:240|168:248,1,180,4|8
104,308,96803,1,0
104,308,96880,1,0
104,308,96957,2,0,B|72:216,1,90
96,56,97265,2,0,B|120:148,1,90,8|0
216,304,97572,6,0,B|160:224|216:108,1,180,0|8
300,80,98034,1,0
304,184,98188,1,0
304,184,98265,1,0
304,184,98342,2,0,B|336:224|412:216,1,90,0|8
428,308,98649,1,0
428,308,98803,6,0,B|488:240|448:136,1,180,4|8
204,276,99265,1,0
204,276,99418,2,0,B|112:276,1,90
148,112,99726,1,8
168,112,99803,1,0
188,116,99880,1,0
208,128,99957,1,0
228,136,100034,6,0,B|328:184|288:312,1,180,0|8
220,364,100495,1,0
204,212,100649,1,0
364,204,100803,1,0
376,356,100957,1,8
36,352,101265,6,0,B|24:256,1,90,4|8
72,68,102034,1,8
200,128,102342,1,0
200,128,102495,2,0,B|224:180|284:184,1,90,8|0
304,160,102906,5,0
348,140,103008,1,0
400,152,103111,1,0
440,188,103213,1,0
440,240,103316,1,0
408,276,103418,1,8
360,292,103521,1,0
308,268,103624,1,0
280,216,103726,6,0,B|180:176|112:256,2,180,4|8|0
236,304,104495,1,0
236,304,104572,1,0
236,304,104649,2,0,B|136:336,1,90,8|0
320,344,104957,6,0,B|384:268|316:160,1,180,4|8
232,160,105418,1,0
188,76,105572,2,0,B|144:56|96:84,1,90
268,252,105880,2,0,B|312:272|368:244,1,90,8|0
112,200,106188,6,0,B|88:256|120:312|120:312|48:352,1,180,4|8
20,256,106649,1,0
20,256,106726,1,0
20,256,106803,2,0,B|36:208|12:152,1,90
68,80,107111,1,8
160,116,107265,1,0
240,184,107418,6,0,B|344:172|344:44,1,180,0|8
244,92,107880,2,0,B|360:160|360:160|376:220,1,180
364,300,108342,1,8
340,296,108418,1,0
320,296,108495,1,0
296,300,108572,1,0
272,308,108649,6,0,B|184:320|184:320|92:300,2,180,4|8|0
280,216,109418,1,0
280,216,109495,1,0
280,216,109572,2,0,B|308:172|292:116,1,90,8|0
204,64,109880,6,0,B|288:8|380:72,1,180,0|8
400,160,110342,1,0
188,244,110495,2,0,B|152:212|152:212|148:156,1,90
360,256,110803,2,0,B|396:284|396:284|400:328,1,90,8|0
308,340,111111,5,4
308,340,111265,1,0
232,336,111418,1,10
232,336,111572,1,0
148,332,111726,1,0
148,332,111880,1,0
56,324,112034,1,10
56,324,112188,1,0
108,240,112342,6,0,B|92:184,1,45
192,168,112649,2,0,B|192:112,1,45,10|0
404,240,112957,2,0,B|420:184,1,45
320,168,113264,2,0,B|320:112,1,45,10|0
256,240,113572,5,4
136,300,113726,1,0
136,180,113880,1,8
256,104,114034,1,0
372,184,114188,1,2
368,308,114342,1,8
252,368,114495,1,8
136,300,114649,1,8
256,256,114803,2,0,B|260:232,3,22.5
260,208,115110,2,0,B|256:184,3,22.5
256,152,115418,5,8
12,364,115649,1,8
404,344,115880,1,8
448,260,116034,6,0,B|392:224|308:272|312:344,1,180,4|8
224,316,116495,1,0
204,312,116572,1,0
184,308,116649,2,0,B|92:296,1,90
256,224,116957,2,0,B|352:240,1,90,8|0
96,192,117265,6,0,B|76:84|192:56,1,180,0|8
184,284,117726,2,0,B|88:320|16:240,1,180
24,224,118111,1,0
28,200,118188,1,8
40,96,118342,1,0
128,160,118495,6,0,B|216:160|216:160|296:112,1,180,4|8
356,352,118957,2,0,B|416:272|368:180,1,180
296,260,119418,1,8
204,296,119572,1,0
112,324,119726,6,0,B|96:220,1,90
84,216,119957,1,0
72,200,120034,1,8
100,104,120188,1,0
168,184,120342,2,0,B|208:204|260:184,1,90
448,100,120649,2,0,B|408:84|352:100,1,90,8|0
256,348,120957,6,0,B|292:312|348:320|348:320|404:288|388:232,1,180,4|8
120,76,121418,2,0,B|64:160|124:256,1,180
208,196,121880,1,8
308,216,122034,1,0
240,280,122188,6,0,B|308:208|428:240,1,180,0|8
112,332,122649,2,0,B|44:292|60:216|60:216|28:140,1,180
96,24,123111,2,0,B|136:108,1,90,8|0
200,272,123418,5,4
284,220,123572,1,0
284,220,123649,1,0
284,220,123726,1,8
272,108,123880,1,0
364,160,124034,2,0,B|408:188|476:164,1,90
344,332,124342,2,0,B|296:300|232:328,1,90,8|0
168,352,124649,6,0,B|208:264|172:168,1,180,0|8
48,52,125111,1,0
84,232,125265,1,0
164,72,125418,1,0
8,152,125572,1,8
176,176,125726,1,0
192,180,125803,1,0
212,184,125880,6,0,B|256:204|256:204|340:192|344:104,1,180,4|8
96,140,126342,2,0,B|36:216|92:312,1,180
424,300,126803,2,0,B|448:256|428:196,1,90,8|0
456,48,127111,6,0,B|392:24|312:72|328:152,1,180,0|8
264,344,127572,1,0
264,344,127649,1,0
264,344,127726,2,0,B|288:288|264:240,1,90
200,192,128034,1,8
180,188,128111,1,0
160,184,128188,1,0
140,180,128265,1,0
120,176,128342,6,0,B|212:132|196:28,1,180,4|8
292,68,128803,1,0
292,68,128957,2,0,B|296:168,1,90
40,288,129265,2,0,B|36:196,1,90,8|0
384,128,129572,6,0,B|432:212|356:300,2,180,0|8|0
236,128,130342,1,0
160,256,130495,1,8
308,252,130649,1,0
236,128,130803,6,0,B|148:64|64:148,1,180,4|8
308,344,131265,2,0,B|384:328|400:256|400:256|432:212,1,180
496,140,131726,1,8
396,124,131880,1,0
304,88,132034,6,0,B|284:168|340:224|424:224,1,180,0|8
428,316,132495,1,0
428,316,132572,1,0
428,316,132649,2,0,B|460:224,1,90
216,352,132957,2,0,B|248:260,1,90,8|0
76,188,133265,6,0,B|40:288,1,90,4|0
188,152,133572,2,0,B|160:60,1,90,8|0
312,196,133880,2,0,B|276:296,1,90,0|0
424,160,134187,2,0,B|396:68,1,90,8|0
312,128,134495,5,0
200,128,134649,1,0
200,128,134726,1,0
200,128,134803,1,8
256,216,134957,1,0
256,216,135034,1,0
256,216,135111,1,8
152,252,135265,1,0
360,256,135418,1,8
256,320,135572,1,0
256,320,135726,1,4
256,192,135803,12,4,138188
120,88,145572,6,0,B|80:112|80:112|80:260,1,180,4|8
228,340,146034,2,0,B|268:312|268:312|268:176,1,180
432,88,146495,2,0,B|432:188,1,90,8|0
180,272,146803,6,0,B|132:272|132:272|64:248|64:248|0:248,1,180,0|8
256,212,147264,2,0,B|300:212|300:212|384:240|384:240|448:240,1,180
416,336,147726,1,8
452,152,147880,1,0
300,48,148034,6,0,B|208:48,1,90,4|0
24,96,148341,2,0,B|76:112|124:92|124:92|188:160,1,180,8|0
268,128,148803,1,4
500,352,149110,6,0,B|408:352|408:352|300:324,1,180,4|0
144,296,149572,2,0,B|236:312,1,90,8|0
296,240,149880,1,0
336,148,150034,1,0
300,64,150187,1,8
212,36,150341,1,0
120,64,150495,6,0,B|80:144|120:240,1,180,4|8
144,332,150957,1,0
236,280,151110,1,8
236,280,151264,2,0,B|324:248|416:304,1,180,8|0
488,212,151726,6,0,B|392:212|392:212|296:168,1,180,4|8
120,284,152187,2,0,B|120:240|120:240|100:160|100:160|100:104,1,180
212,252,152649,2,0,B|212:360|212:360,1,90,8|0
120,376,152957,5,4
120,284,153110,1,0
108,188,153264,2,0,B|132:88|24:28,1,180,8|4
16,136,153726,1,0
496,136,154034,5,4
496,136,154341,2,0,B|476:244,1,90,0|8
252,348,154649,2,0,B|272:252|272:256,1,90
288,248,154880,1,0
300,228,154957,1,0
304,208,155034,1,0
304,184,155110,1,8
296,164,155187,1,0
280,148,155264,1,0
260,140,155341,1,0
240,132,155418,6,0,B|332:160|420:88,1,180,4|8
156,84,155880,2,0,B|144:156|144:156|108:184|108:184|96:252,1,180
160,316,156341,1,8
192,228,156495,1,0
216,136,156649,6,0,B|264:136|264:136|340:128|340:128|396:128,1,180,0|8
452,204,157110,1,0
452,204,157187,1,0
452,204,157264,2,0,B|468:256|448:300,1,90
268,208,157572,2,0,B|252:168|268:120,1,90,8|0
344,60,157880,5,0
436,88,158034,1,0
436,88,158110,1,0
436,88,158187,2,0,B|368:152,1,90,8|0
356,236,158495,2,0,B|292:216|228:248|232:344,2,180,0|8|0
328,324,159264,5,0
144,304,159418,2,0,B|84:296|84:296|96:232|40:192,1,180,8|0
56,104,159880,2,0,B|40:52,2,45,0|0|8
152,120,160187,1,0
244,76,160341,5,0
336,84,160495,1,0
380,176,160649,1,8
288,168,160803,1,0
232,252,160957,2,0,B|188:232|176:184,1,90
300,296,161264,2,0,B|352:292|388:328,1,90,8|0
476,336,161572,5,0
476,336,161726,1,0
460,240,161880,1,8
460,240,162034,1,0
440,148,162187,2,0,B|452:104|504:88|504:92,1,90
360,156,162495,2,0,B|328:192|268:176,1,90,8|0
196,232,162803,6,0,B|116:164|12:228,1,180,4|8
20,240,163187,1,0
20,264,163264,1,0
32,288,163341,1,0
52,300,163418,1,0
72,304,163495,1,0
88,300,163572,1,0
104,288,163649,1,0
116,272,163726,2,0,B|116:228|116:228|128:156|128:156|128:80,1,180,8|2
220,72,164341,5,0
220,72,164649,2,0,B|280:112|260:200,1,135,2|0
240,284,165264,6,0,B|300:284|300:284|360:268|360:268|432:268,1,180,4|8
476,60,165726,2,0,B|372:20|324:124,1,180
264,188,166187,1,8
172,216,166341,1,0
80,248,166495,6,0,B|48:160|48:160|72:68,1,180,0|8
264,188,166957,2,0,B|304:272|304:272|272:360,1,180
186,304,167418,2,0,B|170:200,1,90,8|0
456,64,167726,6,0,B|480:152|456:252,1,180,4|8
376,304,168187,1,0
280,296,168341,1,0
280,296,168495,2,0,B|176:280|96:360,1,180,8|0
176,160,168957,6,0,B|76:144|72:24,2,180,0|8|0
260,112,169726,1,0
276,108,169803,1,0
292,100,169880,2,0,B|380:60,1,90,8|0
268,240,170187,6,0,B|184:260|184:260|120:344,1,180,4|8
440,272,170649,2,0,B|512:208|476:88,1,180
480,106,171110,1,8
344,120,171264,1,0
200,92,171418,6,0,B|112:52|20:92,1,180,0|8
140,288,171880,2,0,B|216:304|216:304|272:296|284:224,1,180
52,216,172341,2,0,B|24:260|48:312,1,90,8|0
420,340,172649,6,0,B|452:148,1,180,0|8
360,184,173110,2,0,B|344:264|344:264|240:264,1,180
156,240,173572,1,8
60,264,173726,1,0
52,284,173803,1,0
40,304,173880,6,0,B|52:208|12:124,1,180,0|8
92,64,174341,1,0
168,132,174495,2,0,B|164:200,2,45
256,80,174803,2,0,B|260:24,2,45,8|0|0
344,128,175110,6,0,B|412:100|464:188|404:240,1,180,4|8
204,260,175572,2,0,B|156:260|156:260|88:292|88:292|32:296,1,180
36,200,176034,2,0,B|24:112,1,90,8|0
276,188,176341,6,0,B|300:236|288:296|288:296|380:316,1,180,0|8
440,336,176803,1,0
440,336,176880,1,0
440,336,176957,1,0
416,244,177110,1,0
456,160,177264,2,0,B|512:160,2,45,8|0|0
452,64,177572,6,0,B|356:24|288:120,1,180,4|8
200,136,178034,1,0
116,176,178187,1,0
32,212,178341,2,0,B|16:164|16:164|64:100|28:24,1,180,8|0
192,228,178803,6,0,B|204:280|160:328|160:328|232:360,1,180,0|8
304,300,179264,1,0
304,300,179418,2,0,B|336:216|304:116,1,180,0|8
96,328,180034,6,0,B|96:240|96:240|76:140,1,180,0|8
180,28,180495,2,0,B|180:128|180:128|200:224,1,180
248,280,180957,2,0,B|312:288|356:244|340:148,2,180,8|0|8
176,72,181880,1,0
348,164,182034,1,0
164,164,182187,1,8
336,72,182341,1,0
256,120,182495,1,4
256,192,182572,12,8,184649
184,40,184957,6,0,B|184:184|184:184|152:204,1,180,4|8
268,352,185418,2,0,B|268:208|268:208|300:188,1,180
460,76,185880,2,0,B|504:128|472:188|472:188|436:188|420:248,2,180,8|0|8
384,136,186649,5,0
384,136,186726,1,0
384,136,186803,2,0,B|336:148|296:144,1,90
136,192,187110,2,0,B|184:184|248:196,1,90,8|0
68,264,187418,6,0,B|4:184|80:92,1,180,4|8
324,252,187880,1,0
324,252,188034,2,0,B|312:364,1,90,0|8
68,264,188495,1,0
68,264,188649,6,0,B|168:224|232:344,1,180,0|8
219,323,189110,1,0
248,232,189264,2,0,B|264:184|252:136,1,90
340,40,189572,2,0,B|324:80|336:132,1,90,8|0
400,240,189880,6,0,B|448:164|428:56,1,180,4|8
255,146,190341,2,0,B|191:146|183:226|83:222,1,180
24,280,190803,2,0,B|-8:188|72:100,1,180,8|0
144,68,191264,5,0
168,68,191341,1,0
192,68,191418,2,0,B|284:68,1,90,8|0
282,68,191726,1,0
316,236,191880,1,0
168,176,192034,2,0,B|268:136|320:240,1,180,8|4
88,324,192649,5,8
88,324,192803,2,0,B|88:240|88:240|68:128,1,180
140,24,193264,2,0,B|164:128,1,90,8|0
252,152,193572,6,0,B|288:212|384:192|400:112,1,180,0|8
312,80,194034,1,0
236,264,194187,1,0
436,236,194341,1,0
312,80,194495,1,8
28,344,194803,6,0,B|44:164,1,180,4|8
240,48,195264,2,0,B|224:240,1,180
116,108,195726,2,0,B|96:68|124:8,1,90,8|0
464,192,196034,6,0,B|488:300|392:360,1,180,0|8
312,336,196495,1,0
292,332,196572,1,0
272,328,196649,2,0,B|176:320,1,90
112,252,196957,2,0,B|152:216|212:240|212:240|248:136,1,180,8|4
236,170,197572,5,8
308,100,197726,2,0,B|320:200|320:200|416:244,1,180
124,176,198187,2,0,B|112:72,1,90,8|0
64,336,198495,6,0,B|52:244|52:244|16:144,1,180,0|8
196,120,198957,2,0,B|204:212|204:212|236:304,1,180
316,336,199418,1,8
336,320,199495,1,0
356,312,199572,1,0
380,312,199649,1,0
404,320,199726,6,0,B|348:228|400:124,1,180,4|8
108,64,200187,2,0,B|164:156|112:260,1,180,0|0
44,292,200649,2,8,B|8:88,2,180
256,304,201572,5,0
190,101,201726,1,0
362,226,201880,1,8
149,226,202034,1,0
321,101,202187,1,4
256,192,202264,12,4,204649
