osu file format v12

[General]
AudioFilename: Flames Within These Black Feathers.mp3
AudioLeadIn: 1000
PreviewTime: -1
Countdown: 0
SampleSet: None
StackLeniency: 0.7
Mode: 0
LetterboxInBreaks: 0
SkinPreference:Ecchi
WidescreenStoryboard: 0

[Editor]
DistanceSpacing: 1
BeatDivisor: 2
GridSize: 4

[Metadata]
Title:Flames Within These Black Feathers
TitleUnicode:Flames Within These Black Feathers
Artist:Foreground Eclipse
ArtistUnicode:Foreground Eclipse
Creator:Saten
Version:Normal
Source:Touhou
Tags:Okuu Utsuho Reiuji Cocktail M49 Merami Suzuori Nuclear Fusion Hellfire Mantle OnosakiHito Regou Nyquill Saten-san
BeatmapID:292334
BeatmapSetID:47599

[Difficulty]
HPDrainRate:4
CircleSize:3
OverallDifficulty:4
ApproachRate:5
SliderMultiplier:0.999999999999999
SliderTickRate:1

[Events]
//Background and Video events
0,0,"okuu.jpg",0,0
//Break Periods
2,10387,18834
2,76649,90218
2,138387,143757
//Storyboard Layer 0 (Background)
Sprite,Background,Centre,"okuu2.jpg",320,240 M,0,52034,,320,240 S,0,52034,,0.625 F,0,52034,71726,1 F,0,71726,,0 F,0,116034,135726,1 F,0,135726,,0 F,0,165264,204649,1 F,0,204649,,0
//Storyboard Layer 1 (Fail)
//Storyboard Layer 2 (Pass)
//Storyboard Layer 3 (Foreground)
Sprite,Foreground,Centre,"White.jpg",320,240 M,0,52034,,320,240 S,0,52034,,2 F,0,52034,52341,0.75,0 F,0,71726,73264,0.75,0 F,0,116034,116341,0.75,0 F,0,135726,137264,0.75,0 F,0,165264,165572,0.75,0 F,0,184957,185264,0.75,0 F,0,204649,207110,0.75,0
//Storyboard Sound Samples
//Background Colour Transformations
3,100,0,0,0

[TimingPoints]
341.715025906736,307.692307692308,4,2,1,80,1,0
52034,-100,4,2,1,80,0,1
71726,-100,4,2,1,80,0,0
116034,-100,4,2,1,80,0,1
135726,-100,4,2,1,80,0,0
165264,-100,4,2,1,80,0,1
184956,-100,4,2,1,80,0,0
184957,-100,4,2,1,80,0,1
204649,-100,4,2,1,80,0,0

[Colours]
Combo1 : 170,85,255
Combo2 : 255,83,83
Combo3 : 111,255,111
Combo4 : 106,106,255
Combo5 : 255,255,0
Combo6 : 255,168,81

[HitObjects]
232,320,341,2,0,B|280:320|332:292|364:248|356:192,1,200,4|0,0:0|0:0,0:0:0:0:
256,192,1264,1,0,0:0:0:0:
156,192,1572,2,0,B|148:136|180:92|232:64|280:64,1,200
376,92,2495,1,0,0:0:0:0:
456,152,2803,6,0,B|444:200|412:248|360:260|304:260|244:224|224:172|228:112|280:64,2,400,0|0|4,0:0|0:0|0:0,0:0:0:0:
56,232,6495,2,0,B|68:184|100:136|152:124|208:124|268:160|288:212|284:272|232:320,2,400,0|4|0,0:0|0:0|0:0,0:0:0:0:
108,320,9264,5,0,0:0:0:0:
168,240,9572,1,0,0:0:0:0:
256,192,9880,2,0,B|356:192,1,99.9999999999999,0|4,0:0|0:0,0:0:0:0:
256,40,20034,6,0,B|164:80,2,99.9999999999999,4|8|0,0:0|0:0|0:0,0:0:0:0:
400,80,21110,2,0,B|432:228,1,150,8|8,0:0|0:0,0:0:0:0:
352,288,21880,2,0,B|256:260,1,99.9999999999999,0|8,0:0|0:0,0:0:0:0:
256,160,22495,5,4,0:0:0:0:
300,72,22803,1,8,0:0:0:0:
400,80,23110,2,0,B|432:228,2,150,0|8|8,0:0|0:0|0:0,0:0:0:0:
300,72,24341,2,0,B|204:104,2,99.9999999999999,0|0|4,0:0|0:0|0:0,0:0:0:0:
344,164,25264,5,8,0:0:0:0:
256,212,25572,2,0,B|204:216|152:192|132:144,2,150,0|8|8,0:0|0:0|0:0,0:0:0:0:
344,164,26803,2,0,B|300:72,1,99.9999999999999,0|0,0:0|0:0,0:0:0:0:
204,104,27418,5,4,0:0:0:0:
188,204,27726,1,8,0:0:0:0:
220,300,28034,2,0,B|272:315|317:298|356:254,2,150,0|8|8,0:0|0:0|0:0,0:0:0:0:
152,228,29264,1,0,0:0:0:0:
52,236,29572,1,12,0:0:0:0:
8,324,29880,6,0,B|48:360|104:360|156:336|208:296|204:244|196:184|164:136|96:128,1,400,4|0,0:0|0:0,0:0:0:0:
256,8,31726,1,8,0:0:0:0:
416,128,32341,2,0,B|348:136|316:184|308:244|304:296|356:336|408:360|464:360|504:324,1,400
460,236,33880,1,0,0:0:0:0:
360,228,34187,1,8,0:0:0:0:
264,256,34495,1,2,0:0:0:0:
192,328,34803,6,0,B|144:324|96:292|84:224|96:180,1,200,4|8,0:0|0:0,0:0:0:0:
320,328,36034,2,0,B|368:324|416:292|428:224|416:180,1,200,0|8,0:0|0:0,0:0:0:0:
256,64,37264,6,0,B|160:84,2,99.9999999999999,0|0|8,0:0|0:0|0:0,0:0:0:0:
344,108,38187,1,0,0:0:0:0:
348,208,38495,1,0,0:0:0:0:
256,252,38803,1,0,0:0:0:0:
164,216,39110,2,0,B|76:168,1,99.9999999999999,8|12,0:0|0:0,0:0:0:0:
77,69,39726,6,0,B|117:33|169:25|221:29|256:76,1,200,4|0,0:0|0:0,0:0:0:0:
256,176,40649,1,8,0:0:0:0:
256,76,40957,2,0,B|290:29|342:25|394:33|434:69,2,200
256,176,42495,6,0,B|256:376,1,200,8|8,0:0|0:0,0:0:0:0:
352,352,43418,2,0,B|416:276,1,99.9999999999999,0|8,0:0|0:0,0:0:0:0:
352,200,44034,2,0,B|256:176,1,99.9999999999999,0|12,0:0|0:0,0:0:0:0:
256,276,44649,6,0,B|203:281|152:254|115:208|126:145|145:97|206:81,1,300,4|8,0:0|0:0,0:0:0:0:
305,81,45880,2,0,B|366:97|385:145|396:208|359:254|308:281|256:276,1,300,0|8,0:0|0:0,0:0:0:0:
256,176,47110,6,0,B|202:171|154:207|138:259|162:311,1,200,4|0,0:0|0:0,0:0:0:0:
256,276,48034,1,8,0:0:0:0:
256,176,48341,2,0,B|309:171|357:207|373:259|349:311,1,200
256,276,49264,1,8,0:0:0:0:
256,176,49572,6,0,B|256:76,1,99.9999999999999,4|4,0:0|0:0,0:0:0:0:
352,48,50187,2,0,B|428:116,1,99.9999999999999,4|4,0:0|0:0,0:0:0:0:
476,204,50803,2,0,B|452:260|400:276|344:268|312:224,1,200,8|12,0:0|0:0,0:0:0:0:
256,32,52034,6,0,B|204:20|156:36|124:80|124:140,2,200,4|8|0,0:0|0:0|0:0,0:0:0:0:
392,180,53880,1,8,0:0:0:0:
192,192,54495,2,0,B|148:217|118:266|124:322|158:365,1,200,4|8,0:0|0:0,0:0:0:0:
256,372,55418,1,0,0:0:0:0:
353,365,55726,6,0,B|387:322|393:266|363:217|320:192,1,200,0|8,0:0|0:0,0:0:0:0:
256,272,56649,1,12,0:0:0:0:
160,300,56957,2,0,B|109:286|72:239|73:189|103:139,1,200,4|8,0:0|0:0,0:0:0:0:
352,300,58187,6,0,B|402:286|439:239|438:189|408:139,1,200,0|8,0:0|0:0,0:0:0:0:
332,76,59110,1,0,0:0:0:0:
240,40,59418,2,0,B|144:68,1,99.9999999999999,4|0,0:0|0:0,0:0:0:0:
88,152,60034,2,0,B|176:196,1,99.9999999999999,8|8,0:0|0:0,0:0:0:0:
256,256,60649,2,0,B|248:308|208:340|152:352|100:324,2,200,0|0|4,0:0|0:0|0:0,0:0:0:0:
256,56,62495,5,8,0:0:0:0:
108,192,63110,2,0,B|88:244|104:300|156:336|204:328,1,200,0|8,0:0|0:0,0:0:0:0:
256,240,64034,1,0,0:0:0:0:
308,328,64341,2,0,B|356:336|408:300|424:244|404:192,1,200,4|8,0:0|0:0,0:0:0:0:
316,148,65264,6,0,B|216:148,2,99.9999999999999
392,84,66187,1,8,0:0:0:0:
308,28,66495,1,8,0:0:0:0:
204,28,66803,6,0,B|152:36|108:80|104:128|120:180,2,200,4|8|0,0:0|0:0|0:0,0:0:0:0:
256,220,68649,1,0,0:0:0:0:
308,28,69264,2,0,B|360:36|404:80|408:128|392:180,2,200,4|0|0,0:0|0:0|0:0,0:0:0:0:
256,220,71110,5,0,0:0:0:0:
160,244,71418,1,8,0:0:0:0:
72,192,71726,1,4,0:0:0:0:
256,192,72034,12,4,74187,0:0:0:0:
256,344,91418,6,0,B|304:352|352:328,2,99.9999999999999,4|8|0,0:0|0:0|0:0,0:0:0:0:
180,280,92341,1,8,0:0:0:0:
168,180,92649,2,0,B|180:128|224:96|284:100,2,150,0|0|8,0:0|0:0|0:0,0:0:0:0:
260,216,93880,6,0,B|312:224|372:208|396:152|388:104,1,200
196,44,95110,1,0,0:0:0:0:
136,124,95418,1,8,0:0:0:0:
124,224,95726,2,0,B|136:276|176:312,1,99.9999999999999,0|12,0:0|0:0,0:0:0:0:
256,256,96341,6,0,B|256:56,2,200,4|0|0,0:0|0:0|0:0,0:0:0:0:
324,328,97880,1,8,0:0:0:0:
424,336,98187,2,0,B|452:292|452:240,1,99.9999999999999,0|8,0:0|0:0,0:0:0:0:
352,224,98803,6,0,B|304:208|268:172|260:112|280:60,1,200,4|0,0:0|0:0,0:0:0:0:
376,28,99726,1,8,0:0:0:0:
364,128,100034,2,0,B|332:164|276:180|228:172|184:136,1,200,0|8,0:0|0:0,0:0:0:0:
156,40,100957,1,8,0:0:0:0:
256,28,101264,6,0,B|308:48|336:108|316:160|256:192|196:224|176:276|204:336|256:356,2,400,4|8|4,0:0|0:0|0:0,0:0:0:0:
60,68,104341,1,0,0:0:0:0:
24,160,104649,1,8,0:0:0:0:
72,248,104957,2,0,B|160:200,1,99.9999999999999,0|8,0:0|0:0,0:0:0:0:
256,224,105572,2,0,B|256:324,1,99.9999999999999,0|12,0:0|0:0,0:0:0:0:
352,352,106187,6,0,B|408:356|456:324|472:276|444:220,1,200,4|0,0:0|0:0,0:0:0:0:
348,192,107110,1,8,0:0:0:0:
256,156,107418,2,0,B|228:100|244:52|292:20|348:24,1,200
448,32,108341,1,8,0:0:0:0:
488,124,108649,6,0,B|488:324,1,200,4|0,0:0|0:0,0:0:0:0:
388,336,109572,1,8,0:0:0:0:
288,316,109880,2,0,B|240:296|212:252,1,99.9999999999999,0|8,0:0|0:0,0:0:0:0:
192,156,110495,2,0,B|220:112|268:92,1,99.9999999999999,0|8,0:0|0:0,0:0:0:0:
364,60,111110,6,0,B|473:153|464:304|332:416|180:416|48:304|39:153|148:60,2,799.999999999999,4|12|4,0:0|0:0|0:0,0:0:0:0:
256,228,116649,5,8,0:0:0:0:
147,60,117264,1,0,0:0:0:0:
16,212,117880,1,8,0:0:0:0:
60,300,118187,1,0,0:0:0:0:
156,324,118495,6,0,B|200:328|260:300|280:240|256:192,1,200,4|8,0:0|0:0,0:0:0:0:
256,92,119418,1,0,0:0:0:0:
256,191,119726,2,0,B|232:240|252:300|312:328|356:324,1,200,0|12,0:0|0:0,0:0:0:0:
456,308,120649,1,8,0:0:0:0:
492,216,120957,6,0,B|480:160|448:128|388:128,2,150,4|0|0,0:0|0:0|0:0,0:0:0:0:
392,220,122187,2,0,B|332:220|300:188|288:132,2,150
387,127,123418,6,0,B|380:76|344:32|268:28|236:56,1,200,4|8,0:0|0:0,0:0:0:0:
124,256,124649,2,0,B|132:308|168:352|244:356|276:328,1,200
256,192,125880,5,4,0:0:0:0:
180,124,126187,1,0,0:0:0:0:
80,124,126495,1,8,0:0:0:0:
8,192,126803,1,0,0:0:0:0:
32,288,127110,2,0,B|60:328|120:344|180:320|200:276,1,200,0|8,0:0|0:0,0:0:0:0:
480,288,128341,6,0,B|452:328|392:344|332:320|312:276,1,200,4|8,0:0|0:0,0:0:0:0:
256,192,129264,1,0,0:0:0:0:
256,92,129572,2,0,B|288:52|340:40,1,99.9999999999999
396,124,130187,2,0,B|400:224,1,99.9999999999999,8|8,0:0|0:0,0:0:0:0:
312,276,130803,6,0,B|264:304|216:296|176:256,2,150,4|0|0,0:0|0:0|0:0,0:0:0:0:
256,192,132034,2,0,B|220:148|168:156,1,99.9999999999999
76,192,132649,1,8,0:0:0:0:
36,284,132957,1,8,0:0:0:0:
112,348,133264,6,0,B|160:372|208:344|208:344|248:372|304:352,2,200,4|0|0,0:0|0:0|0:0,0:0:0:0:
148,152,135110,1,0,0:0:0:0:
212,76,135418,1,8,0:0:0:0:
312,72,135726,1,4,0:0:0:0:
256,192,136034,12,0,138187,0:0:0:0:
256,336,144957,5,0,0:0:0:0:
344,288,145264,1,12,0:0:0:0:
368,192,145572,2,0,B|368:92,1,99.9999999999999,4|8,0:0|0:0,0:0:0:0:
280,40,146187,1,0,0:0:0:0:
280,40,146341,2,0,B|184:72,1,99.9999999999999,0|4,0:0|0:0,0:0:0:0:
112,140,146957,1,0,0:0:0:0:
112,140,147110,2,0,B|144:240,1,99.9999999999999,8|8,0:0|0:0,0:0:0:0:
232,280,147726,1,0,0:0:0:0:
324,244,148034,6,0,B|324:192|296:148,1,99.9999999999999,0|8,0:0|0:0,0:0:0:0:
220,84,148649,1,0,0:0:0:0:
220,84,148803,2,0,B|200:136|224:184,1,99.9999999999999,8|4,0:0|0:0,0:0:0:0:
232,280,149418,1,0,0:0:0:0:
232,280,149572,2,0,B|192:312|140:312,1,99.9999999999999
48,272,150187,1,0,0:0:0:0:
12,180,150495,6,0,B|20:132,2,50,4|0|8,0:0|0:0|0:0,0:0:0:0:
112,192,151110,1,8,0:0:0:0:
112,192,151264,2,0,B|168:176|192:136,1,99.9999999999999,0|4,0:0|0:0,0:0:0:0:
256,60,151880,1,0,0:0:0:0:
256,60,152034,2,0,B|304:60|348:96,1,99.9999999999999,8|0,0:0|0:0,0:0:0:0:
380,192,152649,1,0,0:0:0:0:
348,288,152957,5,4,0:0:0:0:
256,328,153264,1,8,0:0:0:0:
164,288,153572,1,8,0:0:0:0:
164,288,153726,2,0,B|144:240|152:188,1,99.9999999999999,0|4,0:0|0:0,0:0:0:0:
216,112,154341,6,0,B|260:88,2,50,0|8|8,0:0|0:0|0:0,0:0:0:0:
212,164,154803,2,0,B|232:208|284:240|340:232|380:192,1,200,8|4,0:0|0:0,0:0:0:0:
384,92,155726,1,8,0:0:0:0:
296,140,156034,2,0,B|288:188|292:244|336:280|392:288,1,200
468,224,156957,1,8,0:0:0:0:
376,184,157264,2,0,B|328:204|296:248|292:304|320:352,1,200,0|4,0:0|0:0,0:0:0:0:
416,372,158187,1,8,0:0:0:0:
396,272,158495,2,0,B|344:240|296:236|244:260|220:304,2,200
488,96,160341,6,8,B|460:56,7,50
412,40,161572,6,8,B|360:32,7,50
312,24,162803,6,0,B|264:48|236:88|228:152|256:192,2,200,12|8|8,0:0|0:0|0:0,0:0:0:0:
200,360,165264,6,0,B|248:336|276:296|284:232|256:192,2,200,4|8|0,0:0|0:0|0:0,0:0:0:0:
108,320,166803,1,0,0:0:0:0:
76,224,167110,2,0,B|96:124,1,99.9999999999999,8|0,0:0|0:0,0:0:0:0:
196,124,167726,2,0,B|240:152|296:160|348:124|360:76,1,200,4|8,0:0|0:0,0:0:0:0:
264,44,168649,5,0,0:0:0:0:
196,124,168957,2,0,B|168:168|160:224|196:276|244:288,1,200,0|8,0:0|0:0,0:0:0:0:
336,248,169880,1,0,0:0:0:0:
288,160,170187,6,0,B|336:140|392:148|420:196,2,150,4|0|0,0:0|0:0|0:0,0:0:0:0:
204,216,171418,2,0,B|156:236|100:228|72:180,2,150
152,132,172649,2,0,B|176:88|232:64|292:88|320:128,1,200,4|8,0:0|0:0,0:0:0:0:
320,228,173572,5,8,0:0:0:0:
256,304,173880,2,0,B|204:312|156:304,1,99.9999999999999,0|8,0:0|0:0,0:0:0:0:
108,216,174495,2,0,B|132:172|176:144,1,99.9999999999999,0|8,0:0|0:0,0:0:0:0:
256,204,175110,6,0,B|313:201|355:168|373:115|346:61,1,200,4|8,0:0|0:0,0:0:0:0:
256,104,176034,1,0,0:0:0:0:
256,204,176341,2,0,B|198:201|156:168|138:115|165:61,2,200,0|8|4,0:0|0:0|0:0,0:0:0:0:
256,324,178187,5,8,0:0:0:0:
160,352,178495,1,0,0:0:0:0:
68,312,178803,2,0,B|40:264|48:216,1,99.9999999999999
144,244,179418,2,0,B|172:196|164:148,1,99.9999999999999,8|0,0:0|0:0,0:0:0:0:
68,120,180034,6,0,B|76:68|104:24|164:-4|216:12|268:36|272:100,1,300,4|0,0:0|0:0,0:0:0:0:
256,200,181264,1,0,0:0:0:0:
264,300,181572,1,0,0:0:0:0:
348,356,181880,6,0,B|392:332|420:288,1,99.9999999999999,8|8,0:0|0:0,0:0:0:0:
332,240,182495,2,0,B|294:278|243:298|190:281|155:240,1,200,4|8,0:0|0:0,0:0:0:0:
332,144,183726,2,0,B|294:105|243:85|190:102|155:143,1,200,8|8,0:0|0:0,0:0:0:0:
244,192,184649,1,12,0:0:0:0:
332,240,184957,6,0,B|384:228|420:192|436:132|408:84,1,200,4|12,0:0|0:0,0:0:0:0:
180,240,186187,2,0,B|128:228|92:192|76:132|104:84,1,200,4|12,0:0|0:0,0:0:0:0:
188,36,187110,1,0,0:0:0:0:
288,48,187418,6,0,B|312:96|304:144,2,99.9999999999999,4|0|12,0:0|0:0|0:0,0:0:0:0:
224,336,188649,2,0,B|200:288|208:240,2,99.9999999999999,4|0|12,0:0|0:0|0:0,0:0:0:0:
324,352,189572,1,0,0:0:0:0:
412,300,189880,6,0,B|432:248|416:192|360:164|311:168,1,200,4|12,0:0|0:0,0:0:0:0:
256,252,190803,1,0,0:0:0:0:
200,168,191110,2,0,B|152:164|96:192|80:248|100:300,2,200,4|12|4,0:0|0:0|0:0,0:0:0:0:
256,360,192957,1,12,0:0:0:0:
392,212,193572,2,0,B|428:172|432:120,1,99.9999999999999,8|0,0:0|0:0,0:0:0:0:
332,108,194187,2,0,B|276:116|232:92,1,99.9999999999999,12|8,0:0|0:0,0:0:0:0:
136,80,194803,6,0,B|84:100|72:156|84:212|132:244,1,200,4|12,0:0|0:0,0:0:0:0:
376,80,196034,2,0,B|428:100|440:156|428:212|380:244,1,200,4|12,0:0|0:0,0:0:0:0:
288,280,196957,1,0,0:0:0:0:
200,232,197264,2,0,B|200:132,1,99.9999999999999,4|0,0:0|0:0,0:0:0:0:
288,88,197880,2,0,B|340:172,1,99.9999999999999,12|0,0:0|0:0,0:0:0:0:
396,256,198495,6,0,B|396:312|364:356|304:368|256:352,1,200,4|12,0:0|0:0,0:0:0:0:
256,252,199418,1,0,0:0:0:0:
256,352,199726,2,0,B|208:368|148:356|116:312|116:256,2,200,4|12|4,0:0|0:0|0:0,0:0:0:0:
256,152,201572,5,12,0:0:0:0:
172,96,201880,1,0,0:0:0:0:
72,100,202187,2,0,B|36:144|28:196|56:244|112:264,1,200
208,268,203110,1,12,0:0:0:0:
292,212,203418,6,0,B|292:112,1,99.9999999999999,8|12,0:0|0:0,0:0:0:0:
392,128,204034,2,0,B|392:228,1,99.9999999999999,0|12,0:0|0:0,0:0:0:0:
392,328,204649,1,4,0:0:0:0:
256,192,204957,12,4,207110,0:0:0:0:
