osu file format v12

[General]
AudioFilename: Flames Within These Black Feathers.mp3
AudioLeadIn: 1000
PreviewTime: -1
Countdown: 0
SampleSet: None
StackLeniency: 0.7
Mode: 0
LetterboxInBreaks: 0
WidescreenStoryboard: 0

[Editor]
Bookmarks: 150649
DistanceSpacing: 1.5
BeatDivisor: 2
GridSize: 4

[Metadata]
Title:Flames Within These Black Feathers
TitleUnicode:
Artist:Foreground Eclipse
ArtistUnicode:
Creator:Saten
Version:Easy
Source:Touhou
Tags:Okuu Utsuho Reiuji Cocktail M49 Merami Suzuori Nuclear Fusion Hellfire Mantle OnosakiHito Regou Nyquill Saten-san
BeatmapID:292333
BeatmapSetID:47599

[Difficulty]
HPDrainRate:2
CircleSize:3
OverallDifficulty:2
ApproachRate:3
SliderMultiplier:0.599999999999999
SliderTickRate:1

[Events]
//Background and Video events
0,0,"okuu.jpg",0,0
//Break Periods
2,10387,18594
2,76649,89978
2,138387,143517
//Storyboard Layer 0 (Background)
Sprite,Background,Centre,"okuu2.jpg",320,240 M,0,52034,,320,240 S,0,52034,,0.625 F,0,52034,71726,1 F,0,71726,,0 F,0,116034,135726,1 F,0,135726,,0 F,0,165264,204649,1 F,0,204649,,0
//Storyboard Layer 1 (Fail)
//Storyboard Layer 2 (Pass)
//Storyboard Layer 3 (Foreground)
Sprite,Foreground,Centre,"White.jpg",320,240 M,0,52034,,320,240 S,0,52034,,2 F,0,52034,52341,0.75,0 F,0,71726,73264,0.75,0 F,0,116034,116341,0.75,0 F,0,135726,137264,0.75,0 F,0,165264,165572,0.75,0 F,0,184957,185264,0.75,0 F,0,204649,207110,0.75,0
//Storyboard Sound Samples
//Background Colour Transformations
3,100,0,0,0

[TimingPoints]
341.715025906736,307.692307692308,4,2,1,80,1,0
52034,-100,4,2,1,80,0,1
71726,-100,4,2,1,80,0,0
116034,-100,4,2,1,80,0,1
135726,-100,4,2,1,80,0,0
160341,-90.9090909090909,4,2,1,80,0,0
164034,-100,4,2,1,80,0,0
165264,-100,4,2,1,80,0,1
184956,-100,4,2,1,80,0,0
184957,-100,4,2,1,80,0,1
204649,-100,4,2,1,80,0,0

[Colours]
Combo1 : 170,85,255
Combo2 : 255,83,83
Combo3 : 111,255,111
Combo4 : 106,106,255
Combo5 : 255,255,0
Combo6 : 255,168,81

[HitObjects]
456,192,341,6,0,B|432:132|376:100|300:104|256:148,1,240,4|0,0:0|0:0,0:0:0:0:
256,268,2187,1,0,0:0:0:0:
140,304,2803,6,0,B|76:284|32:232|40:156|80:112,2,240,0|0|4,0:0|0:0|0:0,0:0:0:0:
256,96,6495,1,0,0:0:0:0:
256,336,7726,6,0,B|312:352|384:320|408:260|384:192,1,240,4|8,0:0|0:0,0:0:0:0:
320,128,9264,1,8,0:0:0:0:
232,112,9572,1,8,0:0:0:0:
156,160,9880,1,2,0:0:0:0:
140,248,10187,1,4,0:0:0:0:
256,52,20034,6,0,B|204:44|136:52,1,120,4|8,0:0|0:0,0:0:0:0:
68,108,21110,2,0,B|68:196,1,89.9999999999999,8|8,0:0|0:0,0:0:0:0:
128,204,21880,2,0,B|180:168,1,59.9999999999999,0|8,0:0|0:0,0:0:0:0:
256,212,22495,6,0,B|306:178|332:118,1,120,4|0,0:0|0:0,0:0:0:0:
256,72,23572,2,0,B|168:56,1,89.9999999999999,8|8,0:0|0:0,0:0:0:0:
112,80,24341,2,0,B|136:136,1,59.9999999999999
176,216,24957,6,0,B|148:272|88:296,1,120,4|0,0:0|0:0,0:0:0:0:
24,236,26034,2,0,B|8:148,1,89.9999999999999,8|8,0:0|0:0,0:0:0:0:
44,100,26803,2,0,B|104:120,1,59.9999999999999,0|8,0:0|0:0,0:0:0:0:
188,148,27418,6,0,B|248:148|300:112,1,120,4|0,0:0|0:0,0:0:0:0:
372,56,28495,2,0,B|460:80,1,89.9999999999999,8|8,0:0|0:0,0:0:0:0:
456,140,29264,2,0,B|404:168,1,59.9999999999999,0|8,0:0|0:0,0:0:0:0:
316,192,29880,6,0,B|244:188|208:132|204:68|256:16,1,240,4|0,0:0|0:0,0:0:0:0:
196,192,32341,6,0,B|268:196|304:252|308:316|256:368,1,240
76,348,34187,1,0,0:0:0:0:
20,176,34803,6,0,B|44:116|104:96,1,120,4|8,0:0|0:0,0:0:0:0:
256,192,36034,1,0,0:0:0:0:
408,96,36649,2,0,B|468:116|492:176,1,120,8|0,0:0|0:0,0:0:0:0:
344,276,37880,1,8,0:0:0:0:
256,120,38495,1,0,0:0:0:0:
408,216,39110,1,8,0:0:0:0:
228,200,39726,6,0,B|164:192|128:136,2,120,4|0|0,0:0|0:0|0:0,0:0:0:0:
384,108,41572,1,0,0:0:0:0:
284,256,42187,2,0,B|225:279|146:264|116:197|129:138,1,240
292,60,44034,1,0,0:0:0:0:
412,192,44649,6,0,B|392:312,2,120,4|0|0,0:0|0:0|0:0,0:0:0:0:
256,104,46495,1,0,0:0:0:0:
256,284,47110,2,0,B|196:296|140:264,1,120,4|0,0:0|0:0,0:0:0:0:
84,92,48341,5,0,0:0:0:0:
256,36,48957,1,0,0:0:0:0:
428,92,49572,2,4,B|426:160|396:220|316:252|256:192|196:132|116:164|86:224|84:292,1,479.999999999999
256,348,52649,1,8,0:0:0:0:
436,356,53264,6,0,B|488:320|492:256,1,120,0|8,0:0|0:0,0:0:0:0:
312,268,54495,2,0,B|244:260|220:200,1,120,4|8,0:0|0:0,0:0:0:0:
256,24,55726,1,0,0:0:0:0:
436,44,56341,5,8,0:0:0:0:
456,132,56649,1,8,0:0:0:0:
420,216,56957,2,0,B|180:216,1,240,4|0,0:0|0:0,0:0:0:0:
72,72,58803,2,0,B|192:72,2,120,8|4|8,0:0|0:0|0:0,0:0:0:0:
32,248,60649,5,0,0:0:0:0:
100,304,60957,1,0,0:0:0:0:
188,280,61264,2,0,B|217:226|225:165,1,120,0|4,0:0|0:0,0:0:0:0:
72,72,62495,1,8,0:0:0:0:
32,248,63110,5,0,0:0:0:0:
176,352,63726,1,8,0:0:0:0:
256,192,64341,2,0,B|256:72,1,120,4|8,0:0|0:0,0:0:0:0:
428,120,65572,2,0,B|428:240,1,120,0|8,0:0|0:0,0:0:0:0:
364,304,66495,1,8,0:0:0:0:
272,304,66803,6,0,B|200:252,2,89.9999999999999,4|0|0,0:0|0:0|0:0,0:0:0:0:
320,228,68034,1,0,0:0:0:0:
184,112,68649,1,0,0:0:0:0:
24,192,69264,5,4,0:0:0:0:
136,53,69880,1,0,0:0:0:0:
308,104,70495,2,0,B|308:224,1,120,0|8,0:0|0:0,0:0:0:0:
308,316,71418,1,8,0:0:0:0:
256,192,71726,12,4,74187,0:0:0:0:
476,192,91418,6,0,B|432:80,1,120,4|0,0:0|0:0,0:0:0:0:
292,40,92649,2,0,B|180:80,1,120
88,192,93880,1,0,0:0:0:0:
164,316,94495,1,0,0:0:0:0:
308,304,95110,2,0,B|344:248|324:188,2,120,0|0|4,0:0|0:0|0:0,0:0:0:0:
184,232,96957,1,0,0:0:0:0:
172,88,97572,6,0,B|216:44|284:24|344:52|376:108,1,240
256,192,99418,1,0,0:0:0:0:
135,275,100034,2,0,B|168:332|228:360|296:340|340:296,1,240,0|4,0:0|0:0,0:0:0:0:
72,192,102495,6,0,B|40:128|96:68|184:64|212:128,1,240,8|4,0:0|0:0,0:0:0:0:
256,264,104341,1,0,0:0:0:0:
148,360,104957,2,0,B|82:385|29:343,1,120
20,204,106187,5,4,0:0:0:0:
92,80,106803,1,0,0:0:0:0:
232,48,107418,2,0,B|276:44|320:56,2,89.9999999999999,0|0|8,0:0|0:0|0:0,0:0:0:0:
176,92,108649,6,0,B|172:156|212:204|280:228|344:192,1,240,4|0,0:0|0:0,0:0:0:0:
488,192,110495,1,0,0:0:0:0:
344,192,111110,2,0,B|280:156|212:180|172:228|176:292,2,240,4|4|12,0:0|0:0|0:0,0:0:0:0:
108,356,114803,6,0,B|48:320|24:260|48:192|104:160,1,240,0|4,0:0|0:0,0:0:0:0:
256,232,116649,1,8,0:0:0:0:
256,64,117264,2,0,B|216:40|168:40,2,89.9999999999999
256,148,118495,6,0,B|200:176|140:152,1,120,4|8,0:0|0:0,0:0:0:0:
44,288,119726,2,0,B|96:320|160:308,1,120,0|8,0:0|0:0,0:0:0:0:
236,272,120649,1,8,0:0:0:0:
272,196,120957,6,0,B|272:144|240:112,2,89.9999999999999,4|0|0,0:0|0:0|0:0,0:0:0:0:
188,180,122187,2,0,B|152:136|164:96,2,89.9999999999999
272,196,123418,2,0,B|361:195|378:150|396:108|488:108,1,240,4|0,0:0|0:0,0:0:0:0:
496,276,125264,1,0,0:0:0:0:
432,332,125572,1,8,0:0:0:0:
348,320,125880,6,0,B|296:276|288:208|328:148|400:144,1,240,4|0,0:0|0:0,0:0:0:0:
256,56,127726,1,8,0:0:0:0:
112,144,128341,2,0,B|184:148|224:208|216:276|164:320,1,240,4|0,0:0|0:0,0:0:0:0:
80,332,129880,1,0,0:0:0:0:
16,276,130188,1,8,0:0:0:0:
24,108,130803,6,0,B|96:48,2,89.9999999999999,4|0|0,0:0|0:0|0:0,0:0:0:0:
72,180,132034,2,0,B|128:216|188:192,1,120,0|8,0:0|0:0,0:0:0:0:
256,144,132957,1,8,0:0:0:0:
324,192,133264,2,0,B|384:216|440:180,1,120,4|0,0:0|0:0,0:0:0:0:
312,68,134495,6,0,B|256:32|200:68,1,120,0|8,0:0|0:0,0:0:0:0:
160,144,135418,1,8,0:0:0:0:
256,192,135726,12,0,138187,0:0:0:0:
256,192,144957,5,0,0:0:0:0:
328,160,145264,1,12,0:0:0:0:
372,96,145572,2,0,B|352:32|288:20,1,120,4|0,0:0|0:0,0:0:0:0:
176,60,146649,2,0,B|176:148,1,89.9999999999999,4|8,0:0|0:0,0:0:0:0:
216,220,147418,2,0,B|276:248|336:236,1,120,8|0,0:0|0:0,0:0:0:0:
392,184,148341,2,0,B|416:128,1,59.9999999999999,8|0,0:0|0:0,0:0:0:0:
488,220,149110,2,0,B|488:308,1,89.9999999999999,4|8,0:0|0:0,0:0:0:0:
420,352,149880,6,0,B|356:352|312:304,1,120
296,228,150803,1,8,0:0:0:0:
248,164,151110,2,0,B|200:180|176:216,2,89.9999999999999,8|4|8,0:0|0:0|0:0,0:0:0:0:
328,164,152341,1,0,0:0:0:0:
372,228,152649,1,0,0:0:0:0:
352,304,152957,2,0,B|292:324,2,59.9999999999999,4|8|8,0:0|0:0|0:0,0:0:0:0:
460,256,154034,2,0,B|480:208|472:168,1,89.9999999999999,4|8,0:0|0:0,0:0:0:0:
396,144,154803,6,0,B|336:168|280:144,2,120,8|4|0,0:0|0:0|0:0,0:0:0:0:
276,44,156649,2,0,B|216:32|156:56,1,120
84,192,157880,2,0,B|116:308,1,120,4|0,0:0|0:0,0:0:0:0:
256,240,159110,2,0,B|256:120,1,120
400,56,160341,6,0,B|440:100|440:168|384:228|304:236|216:204|164:164|144:92|192:24|256:-4|320:24|368:92|348:164|296:204|208:236|128:228|72:168|72:100|112:56,1,791.99997639656,12|12,0:0|0:0,0:0:0:0:
256,192,165264,6,0,B|256:264|220:320|144:320|92:288,1,240,4|0,0:0|0:0,0:0:0:0:
24,172,166957,2,0,B|64:92,1,89.9999999999999
156,88,167726,6,0,B|156:208,1,120,4|8,0:0|0:0,0:0:0:0:
256,356,168957,1,0,0:0:0:0:
424,292,169572,1,0,0:0:0:0:
256,228,170187,6,0,B|200:192|136:192|88:228,1,180,4|0,0:0|0:0,0:0:0:0:
156,288,171418,2,0,B|192:231|192:168|156:120,1,180
88,180,172649,2,0,B|144:216|208:216|256:180,1,180,4|0,0:0|0:0,0:0:0:0:
256,88,173880,6,0,B|152:32,1,120
64,56,174803,1,8,0:0:0:0:
28,140,175110,2,0,B|48:204|108:232|172:208,1,180,4|0,0:0|0:0,0:0:0:0:
256,176,176341,6,0,B|300:192|328:236,2,89.9999999999999
240,264,177572,2,0,B|272:324|340:320,2,120,4|8|0,0:0|0:0|0:0,0:0:0:0:
256,84,179418,5,8,0:0:0:0:
344,96,179726,1,0,0:0:0:0:
416,152,180034,2,0,B|464:228,2,89.9999999999999,4|0|0,0:0|0:0|0:0,0:0:0:0:
332,188,181264,6,0,B|272:208|216:172,1,120,0|8,0:0|0:0,0:0:0:0:
132,140,182187,1,8,0:0:0:0:
44,112,182495,2,0,B|4:160|20:224,1,120,4|8,0:0|0:0,0:0:0:0:
192,284,183726,2,0,B|232:236|216:172,1,120,8|8,0:0|0:0,0:0:0:0:
36,192,184957,5,4,0:0:0:0:
136,344,185572,1,12,0:0:0:0:
316,328,186187,1,4,0:0:0:0:
396,168,186803,1,12,0:0:0:0:
288,24,187418,6,0,B|224:52|204:108,1,120,4|12,0:0|0:0,0:0:0:0:
256,280,188649,2,0,B|192:284|144:244,1,120,4|12,0:0|0:0,0:0:0:0:
300,156,189880,2,0,B|416:112,1,120,4|12,0:0|0:0,0:0:0:0:
468,284,191110,2,0,B|428:336|364:336,1,120,4|12,0:0|0:0,0:0:0:0:
256,192,192341,2,0,B|256:72,1,120,4|8,0:0|0:0,0:0:0:0:
80,40,193572,6,0,B|32:80|12:144|40:208|96:244,1,240,0|4,0:0|0:0,0:0:0:0:
256,160,195418,1,12,0:0:0:0:
420,232,196034,2,0,B|460:280|452:344,2,120,4|12|4,0:0|0:0|0:0,0:0:0:0:
256,304,197880,1,12,0:0:0:0:
92,232,198495,2,0,B|52:280|60:344,2,120,4|12|4,0:0|0:0|0:0,0:0:0:0:
256,156,200341,1,12,0:0:0:0:
108,56,200957,2,0,B|48:64|12:120,1,120,4|12,0:0|0:0,0:0:0:0:
20,212,201880,1,0,0:0:0:0:
64,292,202187,6,0,B|112:336|176:300|176:300|228:340|288:300,1,240,12|8,0:0|0:0,0:0:0:0:
344,232,203726,1,12,0:0:0:0:
316,148,204034,1,0,0:0:0:0:
228,124,204341,1,12,0:0:0:0:
156,176,204649,1,4,0:0:0:0:
256,192,204957,12,4,207110,0:0:0:0:
