osu file format v12

[General]
AudioFilename: Flames Within These Black Feathers.mp3
AudioLeadIn: 1000
PreviewTime: -1
Countdown: 0
SampleSet: Soft
StackLeniency: 0.7
Mode: 0
LetterboxInBreaks: 0
WidescreenStoryboard: 0

[Editor]
DistanceSpacing: 0.5
BeatDivisor: 4
GridSize: 4

[Metadata]
Title:Flames Within These Black Feathers
TitleUnicode:
Artist:Foreground Eclipse
ArtistUnicode:
Creator:Saten
Version:CAUTION
Source:Touhou
Tags:Okuu Utsuho Reiuji Cocktail M49 Merami Suzuori Nuclear Fusion Hellfire Mantle OnosakiHito Regou Nyquill Saten-san
BeatmapID:147625
BeatmapSetID:47599

[Difficulty]
HPDrainRate:7
CircleSize:4
OverallDifficulty:7
ApproachRate:9
SliderMultiplier:2
SliderTickRate:1

[Events]
//Background and Video events
0,0,"okuu.jpg",0,0
//Break Periods
2,10387,19434
2,76649,90818
2,135926,139741
//Storyboard Layer 0 (Background)
Sprite,Background,Centre,"okuu2.jpg",320,240 M,0,52034,,320,240 S,0,52034,,0.625 F,0,52034,71726,1 F,0,71726,,0 F,0,116034,135726,1 F,0,135726,,0 F,0,165264,204649,1 F,0,204649,,0
//Storyboard Layer 1 (Fail)
//Storyboard Layer 2 (Pass)
//Storyboard Layer 3 (Foreground)
Sprite,Foreground,Centre,"White.jpg",320,240 M,0,52034,,320,240 S,0,52034,,2 F,0,52034,52341,0.75,0 F,0,71726,73264,0.75,0 F,0,116034,116341,0.75,0 F,0,135726,137264,0.75,0 F,0,165264,165572,0.75,0 F,0,184957,185264,0.75,0 F,0,204649,207110,0.75,0
//Storyboard Sound Samples
//Background Colour Transformations
3,100,0,0,0

[TimingPoints]
341.715025906736,307.692307692308,4,2,1,80,1,0
52034,-100,4,2,1,80,0,1
71726,-100,4,2,1,80,0,0
116034,-100,4,2,1,80,0,1
135726,-100,4,2,1,80,0,0
165264,-100,4,2,1,80,0,1
184956,-100,4,2,1,80,0,0
184957,-100,4,2,1,80,0,1
204649,-100,4,2,1,80,0,0

[Colours]
Combo1 : 170,85,255
Combo2 : 255,83,83
Combo3 : 111,255,111
Combo4 : 106,106,255
Combo5 : 255,255,0
Combo6 : 255,168,81

[HitObjects]
256,192,341,2,0,B|308:192|348:160|364:96|336:48,1,200,4|2,0:0|0:0,0:0:0:0:
140,92,957,2,0,B|140:292,1,200,0|2,0:0|0:0,0:0:0:0:
236,324,1418,1,0,0:0:0:0:
236,324,1572,2,0,B|296:332|344:312|368:264|356:208,2,200,0|2|0,0:0|0:0|0:0,0:0:0:0:
256,124,2495,5,2,0:0:0:0:
256,124,2649,1,0,0:0:0:0:
256,124,2803,2,0,B|240:72|192:44|132:44|88:72,1,200,0|2,0:0|0:0,0:0:0:0:
204,236,3418,5,0,0:0:0:0:
308,236,3572,1,0,0:0:0:0:
148,332,3726,1,2,0:0:0:0:
364,332,3880,1,0,0:0:0:0:
255,311,4034,2,0,B|232:268|240:208|276:168|330:156,1,200,0|2,0:0|0:0,0:0:0:0:
348,256,4495,2,0,B|312:288|256:300|200:288|164:256,1,200
181,156,4956,2,0,B|236:168|272:208|280:268|256:312,1,200,6|4,0:0|0:0,0:0:0:0:
56,284,5572,5,2,0:0:0:0:
20,192,5726,1,0,0:0:0:0:
56,100,5880,1,0,0:0:0:0:
256,192,6187,1,2,0:0:0:0:
352,164,6341,1,0,0:0:0:0:
384,68,6495,2,0,B|350:25|299:9|247:18|208:59,1,200,0|2,0:0|0:0,0:0:0:0:
180,156,6957,1,0,0:0:0:0:
200,252,7110,2,0,B|187:300|133:332|76:324|34:291,1,200,0|2,0:0|0:0,0:0:0:0:
20,192,7572,1,0,0:0:0:0:
72,108,7726,6,0,B|156:52,1,100,4|0,0:0|0:0,0:0:0:0:
180,156,8034,2,0,B|276:188,1,100,2|0,0:0|0:0,0:0:0:0:
200,252,8341,2,0,B|232:347,1,100,0|0,0:0|0:0,0:0:0:0:
132,352,8649,2,0,B|56:288,1,100,2|0,0:0|0:0,0:0:0:0:
20,192,8957,6,0,B|68:192,2,50,8|8|8,0:0|0:0|0:0,0:0:0:0:
72,108,9264,1,8,0:0:0:0:
168,84,9418,1,0,0:0:0:0:
168,84,9495,1,0,0:0:0:0:
168,84,9572,2,0,B|168:284,1,200,8|2,0:0|0:0,0:0:0:0:
168,284,10187,5,4,0:0:0:0:
400,140,20034,6,0,B|400:240,1,100,4|0,0:0|0:0,0:0:0:0:
112,244,20341,2,0,B|112:144,1,100,8|0,0:0|0:0,0:0:0:0:
336,180,20649,1,0,0:0:0:0:
176,204,20803,1,0,0:0:0:0:
304,126,20957,1,0,0:0:0:0:
207,257,21110,6,0,B|252:224|256:160|228:120|168:104,1,200,12|0,0:0|0:0,0:0:0:0:
80,152,21572,2,0,B|28:236,1,100,8|0,0:0|0:0,0:0:0:0:
72,328,21880,1,0,0:0:0:0:
96,332,21957,1,0,0:0:0:0:
120,336,22034,1,0,0:0:0:0:
144,340,22110,1,0,0:0:0:0:
168,344,22187,2,0,B|256:296,1,100,8|0,0:0|0:0,0:0:0:0:
324,224,22495,6,0,B|304:128,1,100,4|0,0:0|0:0,0:0:0:0:
188,224,22803,2,0,B|208:128,1,100,8|0,0:0|0:0,0:0:0:0:
256,40,23110,1,0,0:0:0:0:
256,344,23264,1,0,0:0:0:0:
170,120,23418,1,0,0:0:0:0:
341,263,23572,6,0,B|500:144,1,200,12|0,0:0|0:0,0:0:0:0:
452,56,24034,2,0,B|356:84,1,100,8|0,0:0|0:0,0:0:0:0:
268,132,24341,1,8,0:0:0:0:
252,152,24418,1,0,0:0:0:0:
244,176,24495,1,0,0:0:0:0:
248,200,24572,1,0,0:0:0:0:
260,220,24649,2,0,B|360:220,1,100,2|0,0:0|0:0,0:0:0:0:
432,292,24957,5,4,0:0:0:0:
428,316,25034,1,0,0:0:0:0:
412,336,25110,1,0,0:0:0:0:
388,344,25187,1,0,0:0:0:0:
364,340,25264,2,0,B|320:252,1,100,8|0,0:0|0:0,0:0:0:0:
256,60,25572,1,0,0:0:0:0:
192,250,25726,1,0,0:0:0:0:
356,132,25880,1,0,0:0:0:0:
156,132,26034,6,0,B|80:320,1,200,12|0,0:0|0:0,0:0:0:0:
24,232,26495,2,0,B|24:132,1,100,8|0,0:0|0:0,0:0:0:0:
92,56,26803,1,0,0:0:0:0:
112,40,26880,1,0,0:0:0:0:
136,32,26957,1,0,0:0:0:0:
160,32,27034,1,0,0:0:0:0:
184,40,27110,2,0,B|256:108,1,100,8|0,0:0|0:0,0:0:0:0:
200,192,27418,5,4,0:0:0:0:
312,192,27572,1,0,0:0:0:0:
184,224,27726,1,8,0:0:0:0:
328,224,27880,1,0,0:0:0:0:
168,260,28034,1,0,0:0:0:0:
344,260,28187,1,0,0:0:0:0:
152,292,28341,1,0,0:0:0:0:
360,292,28495,6,0,B|500:148,1,200,12|0,0:0|0:0,0:0:0:0:
420,88,28957,2,0,B|324:68,1,100,8|0,0:0|0:0,0:0:0:0:
92,88,29264,2,0,B|188:68,1,100,8|0,0:0|0:0,0:0:0:0:
189,67,29495,1,0,0:0:0:0:
189,67,29572,1,4,0:0:0:0:
256,144,29726,1,0,0:0:0:0:
256,244,29880,6,0,B|228:288|168:304|120:284|96:228,2,200,4|0|8,0:0|0:0|0:0,0:0:0:0:
172,192,30649,2,0,B|196:148|256:132|316:148|340:192,1,200
256,244,31110,2,0,B|256:44,1,200
156,32,31572,1,0,0:0:0:0:
156,32,31649,1,0,0:0:0:0:
156,32,31726,2,0,B|104:116,1,100,8|0,0:0|0:0,0:0:0:0:
172,192,32034,6,0,B|216:216|276:216|320:184|336:132,1,200
172,192,32649,2,0,B|216:168|276:168|320:200|336:252,1,200,0|8,0:0|0:0,0:0:0:0:
256,312,33110,2,0,B|56:312,1,200
16,220,33572,6,0,B|112:44,1,200
208,76,34034,1,8,0:0:0:0:
208,76,34110,1,8,0:0:0:0:
208,76,34187,2,0,B|208:176,1,100,2|0,0:0|0:0,0:0:0:0:
304,148,34495,2,0,B|304:48,1,100,6|0,0:0|0:0,0:0:0:0:
392,96,34803,6,0,B|392:296,1,200,4|0,0:0|0:0,0:0:0:0:
304,344,35264,1,0,0:0:0:0:
304,344,35418,2,0,B|220:288,1,100,8|0,0:0|0:0,0:0:0:0:
256,192,35726,2,0,B|356:204,1,100
392,296,36034,2,0,B|204:228,1,200
112,192,36495,1,0,0:0:0:0:
112,192,36572,1,0,0:0:0:0:
112,192,36649,2,0,B|144:96,1,100,8|0,0:0|0:0,0:0:0:0:
64,36,36957,2,0,B|0:112,1,100
8,212,37264,6,0,B|8:260|48:304|104:312|160:296,1,200
240,240,37726,1,0,0:0:0:0:
256,140,37880,2,0,B|236:44,1,100,8|0,0:0|0:0,0:0:0:0:
152,100,38187,2,0,B|112:192,1,100
399,192,38495,5,0,0:0:0:0:
112,191,38649,1,0,0:0:0:0:
344,140,38803,1,0,0:0:0:0:
168,244,38957,1,0,0:0:0:0:
332,64,39110,1,8,0:0:0:0:
180,320,39263,1,0,0:0:0:0:
256,192,39418,1,12,0:0:0:0:
256,192,39726,6,0,B|208:104,1,100,4|0,0:0|0:0,0:0:0:0:
108,92,40034,2,0,B|112:192,1,100,8|0,0:0|0:0,0:0:0:0:
404,292,40341,2,0,B|400:192,1,100
182,265,40649,5,8,0:0:0:0:
329,118,40803,1,0,0:0:0:0:
256,296,40957,1,0,0:0:0:0:
256,88,41110,1,0,0:0:0:0:
329,265,41264,1,8,0:0:0:0:
182,118,41418,1,0,0:0:0:0:
256,192,41572,6,0,B|356:192,1,100
256,192,41880,2,0,B|56:192,1,200,8|0,0:0|0:0,0:0:0:0:
40,92,42341,1,0,0:0:0:0:
124,36,42495,2,0,B|184:120,1,100,8|0,0:0|0:0,0:0:0:0:
388,36,42803,2,0,B|328:120,1,100
256,192,43110,6,0,B|260:240|308:272,1,100,8|0,0:0|0:0,0:0:0:0:
256,192,43418,2,0,B|208:196|176:244,1,100
256,192,43726,2,0,B|252:144|204:112,1,100,8|0,0:0|0:0,0:0:0:0:
256,192,44034,2,0,B|304:188|336:140,1,100
203,111,44341,5,12,0:0:0:0:
175,244,44495,1,0,0:0:0:0:
308,272,44649,1,4,0:0:0:0:
336,139,44803,1,0,0:0:0:0:
256,192,44957,2,0,B|208:216|152:208|116:168|108:112,1,200,8|0,0:0|0:0,0:0:0:0:
40,184,45418,5,0,0:0:0:0:
76,276,45572,2,0,B|172:312,1,100,8|0,0:0|0:0,0:0:0:0:
256,260,45880,2,0,B|256:60,1,200,0|8,0:0|0:0,0:0:0:0:
356,44,46341,1,0,0:0:0:0:
356,44,46418,1,0,0:0:0:0:
356,44,46495,2,0,B|400:132,1,100
304,192,46803,2,0,B|204:192,1,100,8|0,0:0|0:0,0:0:0:0:
156,268,47110,6,0,B|356:268,2,200,4|8|0,0:0|0:0|0:0,0:0:0:0:
356,116,47880,1,0,0:0:0:0:
131,175,48034,1,8,0:0:0:0:
380,208,48187,1,0,0:0:0:0:
180,91,48341,6,0,B|368:28,1,200,0|8,0:0|0:0,0:0:0:0:
448,88,48803,2,0,B|376:160,1,100
284,192,49110,1,0,0:0:0:0:
284,192,49187,1,0,0:0:0:0:
284,192,49264,2,0,B|192:156,1,100,8|0,0:0|0:0,0:0:0:0:
156,60,49572,5,4,0:0:0:0:
356,60,49726,1,0,0:0:0:0:
152,64,49880,5,4,0:0:0:0:
360,64,50034,1,0,0:0:0:0:
148,72,50187,5,4,0:0:0:0:
364,68,50341,1,0,0:0:0:0:
144,76,50495,5,4,0:0:0:0:
368,72,50649,1,0,0:0:0:0:
140,80,50803,5,8,0:0:0:0:
372,76,50957,1,0,0:0:0:0:
136,84,51110,5,0,0:0:0:0:
380,84,51264,1,0,0:0:0:0:
380,84,51341,1,0,0:0:0:0:
380,84,51418,2,0,B|420:280,1,200,12|0,0:0|0:0,0:0:0:0:
419,279,52034,6,0,B|380:316|316:312|280:280|272:220,1,200,4|0,0:0|0:0,0:0:0:0:
356,168,52495,1,0,0:0:0:0:
256,340,52649,1,8,0:0:0:0:
156,168,52803,1,0,0:0:0:0:
256,352,52957,1,0,0:0:0:0:
372,156,53110,1,0,0:0:0:0:
256,364,53264,6,0,B|168:320,1,100,0|8,0:0|0:0,0:0:0:0:
372,156,53572,2,0,B|440:228,1,100
156,168,53880,2,0,B|88:96,1,100,8|0,0:0|0:0,0:0:0:0:
168,36,54187,1,0,0:0:0:0:
192,28,54264,1,0,0:0:0:0:
216,28,54341,1,0,0:0:0:0:
240,36,54418,1,0,0:0:0:0:
256,56,54495,2,0,B|256:256,1,200,4|0,0:0|0:0,0:0:0:0:
160,284,54957,5,0,0:0:0:0:
256,156,55110,1,8,0:0:0:0:
352,284,55264,2,0,B|304:324|248:316|208:280|208:224,1,200
304,188,55726,1,0,0:0:0:0:
180,148,55880,1,0,0:0:0:0:
328,60,56034,1,0,0:0:0:0:
132,24,56187,1,0,0:0:0:0:
48,80,56341,5,8,0:0:0:0:
40,180,56495,1,0,0:0:0:0:
40,180,56572,1,0,0:0:0:0:
40,180,56649,2,0,B|60:224|116:248|168:248|212:208,1,200,12|0,0:0|0:0,0:0:0:0:
306,141,57110,1,0,0:0:0:0:
205,242,57264,1,0,0:0:0:0:
328,192,57418,1,0,0:0:0:0:
184,192,57572,1,8,0:0:0:0:
306,242,57726,1,0,0:0:0:0:
205,141,57880,6,0,B|260:156|296:200|288:260|256:300,1,200
156,296,58341,1,8,0:0:0:0:
260,304,58495,1,0,0:0:0:0:
124,232,58649,1,0,0:0:0:0:
264,308,58803,2,0,B|460:257,1,200,8|0,0:0|0:0,0:0:0:0:
484,156,59264,5,0,0:0:0:0:
484,156,59341,1,0,0:0:0:0:
484,156,59418,2,0,B|432:72,1,100,4|0,0:0|0:0,0:0:0:0:
292,128,59726,2,0,B|256:220,1,100
108,192,60034,2,0,B|68:100,1,100,8|0,0:0|0:0,0:0:0:0:
140,32,60341,5,8,0:0:0:0:
240,44,60495,1,0,0:0:0:0:
292,128,60649,1,0,0:0:0:0:
256,220,60803,2,0,B|212:240,2,50
376,128,61110,2,0,B|404:84,2,50
404,276,61418,5,0,0:0:0:0:
404,276,61495,1,0,0:0:0:0:
404,276,61572,2,0,B|400:328|344:360|276:348|256:296,2,200,12|4|0,0:0|0:0|0:0,0:0:0:0:
352,192,62341,1,0,0:0:0:0:
256,192,62495,2,0,B|176:252,1,100,8|0,0:0|0:0,0:0:0:0:
52,164,62803,2,0,B|76:68,1,100
160,192,63110,5,0,0:0:0:0:
196,52,63264,1,8,0:0:0:0:
256,192,63418,1,0,0:0:0:0:
316,52,63572,1,0,0:0:0:0:
352,192,63726,2,0,B|360:244|344:292|300:324|240:324,1,200,8|0,0:0|0:0,0:0:0:0:
144,292,64187,5,0,0:0:0:0:
144,292,64264,1,0,0:0:0:0:
144,292,64341,2,0,B|160:192,1,100,4|0,0:0|0:0,0:0:0:0:
368,92,64649,2,0,B|352:192,1,100,0|0,0:0|0:0,0:0:0:0:
187,124,64957,5,8,0:0:0:0:
324,259,65110,1,0,0:0:0:0:
254,95,65264,1,0,0:0:0:0:
257,288,65418,1,0,0:0:0:0:
323,123,65572,1,0,0:0:0:0:
188,260,65726,1,0,0:0:0:0:
352,190,65880,1,0,0:0:0:0:
159,193,66034,6,0,B|108:192,2,50,0|0|12,0:0|0:0|0:0,0:0:0:0:
352,190,66341,2,0,B|404:192,2,50,0|0|12,0:0|0:0|0:0,0:0:0:0:
256,192,66649,1,0,0:0:0:0:
184,124,66803,6,0,B|172:72|200:28,1,100,4|0,0:0|0:0,0:0:0:0:
328,260,67110,2,0,B|340:312|312:356,1,100
190,117,67418,2,0,B|182:65|214:23,1,100,8|0,0:0|0:0,0:0:0:0:
321,266,67726,2,0,B|329:318|297:360,1,100
196,360,68034,1,0,0:0:0:0:
156,268,68187,2,0,B|220:192,2,100,8|0|0,0:0|0:0|0:0,0:0:0:0:
56,288,68649,6,0,B|12:312,2,50
24,192,68957,1,8,0:0:0:0:
84,104,69110,1,0,0:0:0:0:
180,72,69264,2,0,B|240:72|264:116|292:160|356:160,2,200,4|8|0,0:0|0:0|0:0,0:0:0:0:
112,144,70034,1,0,0:0:0:0:
120,244,70187,1,0,0:0:0:0:
208,292,70341,1,8,0:0:0:0:
300,256,70495,6,0,B|280:156,1,100
168,56,70803,2,0,B|68:40,1,100,12|0,0:0|0:0,0:0:0:0:
69,343,71110,2,0,B|168:328,1,100,8|0,0:0|0:0,0:0:0:0:
280,226,71418,2,0,B|300:128,1,100,12|0,0:0|0:0,0:0:0:0:
256,36,71726,1,4,0:0:0:0:
256,192,71880,12,4,74187,0:0:0:0:
256,48,91418,6,0,B|456:32,1,200,4|8,0:0|0:0,0:0:0:0:
500,124,91880,1,0,0:0:0:0:
428,192,92034,2,0,B|328:180,1,100
256,248,92341,2,0,B|312:332,1,100,8|0,0:0|0:0,0:0:0:0:
404,288,92649,1,0,0:0:0:0:
428,192,92803,5,0,0:0:0:0:
428,192,92880,1,0,0:0:0:0:
428,192,92957,2,0,B|364:112,1,100,8|0,0:0|0:0,0:0:0:0:
256,64,93264,1,0,0:0:0:0:
256,320,93418,1,0,0:0:0:0:
256,192,93572,2,0,B|208:184|148:204|120:256|124:304,2,200,8|0|8,0:0|0:0|0:0,0:0:0:0:
256,320,94341,5,0,0:0:0:0:
164,216,94495,2,0,B|152:116,1,100
360,116,94803,2,0,B|348:216,1,100,8|0,0:0|0:0,0:0:0:0:
256,192,95110,2,0,B|256:92,1,100
360,116,95418,5,8,0:0:0:0:
164,216,95572,1,0,0:0:0:0:
348,216,95726,1,0,0:0:0:0:
152,116,95880,1,0,0:0:0:0:
256,92,96034,6,0,B|256:292,2,200,12|4|8,0:0|0:0|0:0,0:0:0:0:
348,48,96803,1,0,0:0:0:0:
432,104,96957,2,0,B|480:192,1,100
256,192,97264,2,0,B|304:104,1,100,8|0,0:0|0:0,0:0:0:0:
368,184,97572,5,0,0:0:0:0:
344,280,97726,1,0,0:0:0:0:
256,328,97880,2,0,B|112:192,1,200,8|0,0:0|0:0,0:0:0:0:
128,92,98341,5,0,0:0:0:0:
128,92,98418,1,0,0:0:0:0:
128,92,98495,2,0,B|328:92,1,200,8|0,0:0|0:0,0:0:0:0:
304,192,98957,1,0,0:0:0:0:
412,112,99110,1,8,0:0:0:0:
388,212,99264,1,0,0:0:0:0:
496,136,99418,1,0,0:0:0:0:
472,236,99572,6,0,B|432:328,2,100,0|8|0,0:0|0:0|0:0,0:0:0:0:
404,164,100034,1,0,0:0:0:0:
308,140,100187,1,0,0:0:0:0:
308,140,100264,1,0,0:0:0:0:
308,140,100341,2,0,B|208:140,1,100,12|0,0:0|0:0,0:0:0:0:
32,240,100649,2,0,B|132:240,1,100,8|0,0:0|0:0,0:0:0:0:
188,48,100957,2,0,B|88:48,1,100,8|0,0:0|0:0,0:0:0:0:
200,212,101264,6,0,B|400:212,1,200,4|0,0:0|0:0,0:0:0:0:
472,140,101726,1,0,0:0:0:0:
472,140,101803,1,0,0:0:0:0:
472,140,101880,2,0,B|420:56,1,100,8|0,0:0|0:0,0:0:0:0:
340,120,102187,2,0,B|304:212,1,100
303,213,102418,1,0,0:0:0:0:
303,213,102495,1,8,0:0:0:0:
200,212,102649,5,8,0:0:0:0:
303,213,102803,1,8,0:0:0:0:
172,120,102957,1,8,0:0:0:0:
256,300,103110,6,0,B|256:368,2,66.6666666666667,8|8|0,0:0|0:0|0:0,0:0:0:0:
148,220,103418,2,0,B|148:288,2,66.6666666666667,8|8|0,0:0|0:0|0:0,0:0:0:0:
156,96,103726,2,0,B|356:96,2,200,4|8|0,0:0|0:0|0:0,0:0:0:0:
152,296,104495,5,0,0:0:0:0:
256,124,104649,1,8,0:0:0:0:
360,296,104803,1,0,0:0:0:0:
256,92,104957,1,0,0:0:0:0:
128,316,105110,1,0,0:0:0:0:
256,60,105264,1,8,0:0:0:0:
384,316,105418,1,0,0:0:0:0:
256,28,105572,1,0,0:0:0:0:
100,332,105726,1,0,0:0:0:0:
100,332,105803,1,0,0:0:0:0:
100,332,105880,2,0,B|8:296,1,100,12|0,0:0|0:0,0:0:0:0:
4,196,106187,6,0,B|36:160|92:140|144:156|176:204,1,200,4|8,0:0|0:0,0:0:0:0:
152,300,106649,1,0,0:0:0:0:
92,220,106803,2,0,B|92:120,1,100
420,120,107110,2,0,B|420:220,1,100,8|0,0:0|0:0,0:0:0:0:
349,285,107418,5,0,0:0:0:0:
162,98,107572,1,0,0:0:0:0:
256,324,107726,1,8,0:0:0:0:
256,60,107880,1,0,0:0:0:0:
162,285,108034,1,0,0:0:0:0:
349,98,108188,1,0,0:0:0:0:
256,192,108341,2,0,B|216:222|147:225|107:175|100:131,1,200,8|4,0:0|0:0,0:0:0:0:
152,44,108803,5,0,0:0:0:0:
100,131,108957,1,8,0:0:0:0:
236,64,109110,1,0,0:0:0:0:
100,131,109264,1,0,0:0:0:0:
300,124,109418,1,0,0:0:0:0:
100,131,109572,1,8,0:0:0:0:
340,204,109726,1,0,0:0:0:0:
100,131,109880,5,0,0:0:0:0:
20,192,110033,1,0,0:0:0:0:
20,192,110110,1,0,0:0:0:0:
20,192,110187,2,0,B|36:292,1,100,8|0,0:0|0:0,0:0:0:0:
120,344,110495,2,0,B|180:264,1,100
184,260,110726,1,0,0:0:0:0:
188,256,110803,1,12,0:0:0:0:
192,252,111110,5,4,0:0:0:0:
256,64,111264,1,0,0:0:0:0:
320,252,111418,1,0,0:0:0:0:
156,136,111572,1,0,0:0:0:0:
356,136,111726,5,8,0:0:0:0:
187,246,111880,1,0,0:0:0:0:
267,64,112034,1,0,0:0:0:0:
314,257,112188,1,0,0:0:0:0:
161,127,112342,5,4,0:0:0:0:
360,144,112496,1,0,0:0:0:0:
182,239,112649,1,0,0:0:0:0:
278,65,112803,1,0,0:0:0:0:
308,262,112957,5,8,0:0:0:0:
167,119,113111,1,0,0:0:0:0:
364,154,113265,1,0,0:0:0:0:
260,168,113418,5,0,0:0:0:0:
260,168,113495,1,0,0:0:0:0:
260,168,113572,2,0,B|216:80,1,100,12|0,0:0|0:0,0:0:0:0:
68,56,113880,2,0,B|24:144,1,100
52,292,114187,1,0,0:0:0:0:
132,164,114341,1,0,0:0:0:0:
192,300,114495,1,0,0:0:0:0:
260,168,114649,5,0,0:0:0:0:
272,148,114726,1,0,0:0:0:0:
292,132,114803,1,8,0:0:0:0:
316,124,114880,1,8,0:0:0:0:
340,128,114957,1,0,0:0:0:0:
364,140,115034,1,0,0:0:0:0:
380,156,115110,1,0,0:0:0:0:
388,180,115187,1,0,0:0:0:0:
384,204,115264,1,0,0:0:0:0:
372,224,115341,1,0,0:0:0:0:
352,240,115418,5,12,0:0:0:0:
96,312,115623,5,8,0:0:0:0:
164,52,115828,5,8,0:0:0:0:
352,240,116034,6,0,B|184:348,1,200,4|0,0:0|0:0,0:0:0:0:
206,252,116495,1,0,0:0:0:0:
188,352,116649,1,8,0:0:0:0:
114,216,116803,1,0,0:0:0:0:
192,356,116957,1,0,0:0:0:0:
294,184,117110,1,0,0:0:0:0:
196,360,117264,6,0,B|98:376,1,100,0|8,0:0|0:0,0:0:0:0:
28,228,117572,2,0,B|68:136,1,100
216,172,117880,2,0,B|276:256,1,100,8|0,0:0|0:0,0:0:0:0:
274,253,118110,1,0,0:0:0:0:
274,253,118187,1,0,0:0:0:0:
372,236,118341,1,0,0:0:0:0:
388,136,118495,2,0,B|392:84|368:36|312:16|256:32,2,200,4|0|8,0:0|0:0|0:0,0:0:0:0:
124,248,119264,5,0,0:0:0:0:
300,108,119418,1,0,0:0:0:0:
212,276,119572,1,0,0:0:0:0:
256,192,119726,2,0,B|356:192,1,100
508,324,120034,2,0,B|408:324,1,100
404,320,120264,1,0,0:0:0:0:
400,316,120341,2,0,B|336:240,1,100,12|0,0:0|0:0,0:0:0:0:
112,68,120649,2,0,B|176:144,1,100,8|0,0:0|0:0,0:0:0:0:
176,344,120957,6,0,B|120:352|68:328|56:276|68:220,1,200,4|0,0:0|0:0,0:0:0:0:
176,144,121418,1,0,0:0:0:0:
140,268,121572,2,0,B|64:336,1,100,8|0,0:0|0:0,0:0:0:0:
0,228,121880,2,0,B|44:140,1,100
176,144,122187,5,0,0:0:0:0:
336,240,122341,1,8,0:0:0:0:
164,172,122495,1,0,0:0:0:0:
336,240,122649,1,0,0:0:0:0:
156,204,122803,2,0,B|104:196|64:152|68:96|100:48,1,200,8|0,0:0|0:0,0:0:0:0:
196,28,123264,5,0,0:0:0:0:
196,28,123341,1,0,0:0:0:0:
196,28,123418,2,0,B|376:112,1,200,4|0,0:0|0:0,0:0:0:0:
316,192,123880,1,0,0:0:0:0:
216,200,124034,1,8,0:0:0:0:
144,132,124187,6,0,B|152:80|204:44|260:52|304:80,2,200
152,232,124957,1,0,0:0:0:0:
240,280,125110,2,0,B|228:328,2,50
300,200,125418,5,0,0:0:0:0:
300,200,125495,1,0,0:0:0:0:
300,200,125572,2,0,B|196:28,2,200,12|4|0,0:0|0:0|0:0,0:0:0:0:
240,280,126341,1,0,0:0:0:0:
164,216,126495,2,0,B|68:192,2,100,8|0|0,0:0|0:0|0:0,0:0:0:0:
256,176,126957,1,0,0:0:0:0:
348,216,127110,2,0,B|444:192,2,100,0|8|0,0:0|0:0|0:0,0:0:0:0:
256,176,127572,5,0,0:0:0:0:
264,76,127726,1,8,0:0:0:0:
356,32,127880,1,0,0:0:0:0:
356,32,127957,1,0,0:0:0:0:
356,32,128034,2,0,B|452:68,1,100
488,160,128341,2,0,B|466:203|409:221|354:207|319:158,1,200,4|0,0:0|0:0,0:0:0:0:
264,76,128803,1,0,0:0:0:0:
320,160,128957,2,0,B|308:212|264:240|208:248|160:208,1,200,8|0,0:0|0:0,0:0:0:0:
108,124,129418,5,0,0:0:0:0:
160,208,129572,2,0,B|140:308,1,100,0|8,0:0|0:0,0:0:0:0:
40,196,129880,2,0,B|24:96,1,100
351,208,130187,2,0,B|372:308,1,100,8|0,0:0|0:0,0:0:0:0:
472,196,130495,2,0,B|488:96,1,100,8|0,0:0|0:0,0:0:0:0:
404,44,130803,5,4,0:0:0:0:
328,108,130957,1,0,0:0:0:0:
256,40,131110,1,0,0:0:0:0:
184,108,131264,1,0,0:0:0:0:
108,44,131418,6,0,B|24:96,1,100,8|0,0:0|0:0,0:0:0:0:
100,160,131726,2,0,B|184:108,1,100
404,44,132034,2,0,B|488:96,1,100,0|8,0:0|0:0,0:0:0:0:
412,160,132342,2,0,B|328:108,1,100
185,107,132649,5,8,0:0:0:0:
404,44,132803,1,0,0:0:0:0:
108,44,132957,1,8,0:0:0:0:
326,107,133111,1,0,0:0:0:0:
256,36,133264,2,0,B|256:236,2,200,4|8|0,0:0|0:0|0:0,0:0:0:0:
168,88,134034,6,0,B|100:164,2,100,0|0|8,0:0|0:0|0:0,0:0:0:0:
256,136,134495,1,0,0:0:0:0:
240,236,134649,1,0,0:0:0:0:
240,236,134726,1,0,0:0:0:0:
240,236,134803,2,0,B|164:300,1,100,12|0,0:0|0:0,0:0:0:0:
64,292,135110,5,0,0:0:0:0:
40,280,135187,1,8,0:0:0:0:
28,260,135264,1,8,0:0:0:0:
24,236,135341,1,8,0:0:0:0:
32,212,135418,1,8,0:0:0:0:
48,192,135495,1,8,0:0:0:0:
72,180,135572,1,8,0:0:0:0:
96,180,135649,1,8,0:0:0:0:
120,188,135726,1,4,0:0:0:0:
256,40,140341,5,12,0:0:0:0:
256,240,140649,5,0,0:0:0:0:
248,264,140726,1,0,0:0:0:0:
232,284,140803,1,0,0:0:0:0:
208,292,140880,1,0,0:0:0:0:
184,288,140957,2,0,B|140:268,3,50,8|0|0|0,0:0|0:0|0:0|0:0,0:0:0:0:
124,248,141264,2,0,B|124:200,3,50,8|0|0|0,0:0|0:0|0:0|0:0,0:0:0:0:
128,172,141572,5,0,0:0:0:0:
140,148,141649,1,0,0:0:0:0:
160,132,141726,1,8,0:0:0:0:
184,128,141803,1,0,0:0:0:0:
208,136,141880,1,0,0:0:0:0:
232,140,141957,1,0,0:0:0:0:
256,132,142034,1,0,0:0:0:0:
276,120,142110,1,0,0:0:0:0:
292,100,142187,6,0,B|312:56,3,50,8|0|0|0,0:0|0:0|0:0|0:0,0:0:0:0:
300,32,142495,1,0,0:0:0:0:
280,20,142572,1,0,0:0:0:0:
256,16,142649,1,0,0:0:0:0:
232,24,142726,1,0,0:0:0:0:
212,40,142803,2,0,B|192:84,3,50,8|0|0|0,0:0|0:0|0:0|0:0,0:0:0:0:
196,112,143110,5,0,0:0:0:0:
212,132,143187,1,0,0:0:0:0:
232,144,143264,1,0,0:0:0:0:
256,152,143341,1,0,0:0:0:0:
280,148,143418,2,0,B|320:120,3,50,8|0|0|0,0:0|0:0|0:0|0:0,0:0:0:0:
348,124,143726,2,0,B|396:148,3,50,8|0|0|0,0:0|0:0|0:0|0:0,0:0:0:0:
408,164,144034,5,0,0:0:0:0:
404,188,144110,1,0,0:0:0:0:
388,208,144187,1,8,0:0:0:0:
364,220,144264,1,0,0:0:0:0:
340,216,144341,1,0,0:0:0:0:
320,204,144418,1,0,0:0:0:0:
308,184,144495,1,0,0:0:0:0:
308,160,144572,1,0,0:0:0:0:
312,136,144649,2,0,B|268:112,3,50,8|0|0|0,0:0|0:0|0:0|0:0,0:0:0:0:
232,112,144957,6,0,B|216:160,3,50
216,184,145264,2,0,B|247:230|296:256|348:247|388:208,1,200,12|4,0:0|0:0,0:0:0:0:
348,80,145726,5,0,0:0:0:0:
220,96,145880,2,0,B|256:292,1,200,8|8,0:0|0:0,0:0:0:0:
164,332,146341,2,0,B|44:172,1,200,0|4,0:0|0:0,0:0:0:0:
116,104,146803,2,0,B|160:193,1,100
351,193,147110,2,0,B|396:104,1,100,8|0,0:0|0:0,0:0:0:0:
204,102,147418,6,0,B|160:192,1,100,8|0,0:0|0:0,0:0:0:0:
352,192,147726,2,0,B|307:102,1,100,0|0,0:0|0:0,0:0:0:0:
256,192,148034,2,0,B|248:240|256:300|316:336|360:332,2,200,0|12|0,0:0|0:0|0:0,0:0:0:0:
328,124,148803,2,0,B|516:60,1,200,0|4,0:0|0:0,0:0:0:0:
504,160,149264,2,0,B|452:244,1,100
256,192,149572,2,0,B|256:92,1,100,8|0,0:0|0:0,0:0:0:0:
172,36,149880,5,0,0:0:0:0:
148,40,149957,1,0,0:0:0:0:
128,52,150034,1,0,0:0:0:0:
112,72,150110,1,0,0:0:0:0:
108,96,150187,1,0,0:0:0:0:
112,120,150264,1,0,0:0:0:0:
124,144,150341,1,0,0:0:0:0:
140,160,150418,1,0,0:0:0:0:
164,168,150495,6,0,B|260:144,1,100,0|0,0:0|0:0,0:0:0:0:
132,300,150803,2,0,B|84:308|24:292|0:228|8:184,1,200,12|8,0:0|0:0,0:0:0:0:
96,132,151264,2,0,B|188:96,2,100,0|0|4,0:0|0:0|0:0,0:0:0:0:
8,184,151726,1,0,0:0:0:0:
40,272,151880,1,0,0:0:0:0:
132,300,152034,6,0,B|320:236,1,200,8|0,0:0|0:0,0:0:0:0:
340,216,152418,1,0,0:0:0:0:
348,192,152495,1,0,0:0:0:0:
344,168,152572,1,0,0:0:0:0:
328,148,152649,2,0,B|136:96,1,200,0|4,0:0|0:0,0:0:0:0:
160,192,153110,5,0,0:0:0:0:
236,124,153264,2,0,B|44:72,1,200,8|8,0:0|0:0,0:0:0:0:
8,220,153726,2,0,B|200:272,1,200,0|4,0:0|0:0,0:0:0:0:
292,228,154187,1,0,0:0:0:0:
316,132,154341,1,0,0:0:0:0:
316,132,154418,1,0,0:0:0:0:
316,132,154495,2,0,B|228:88,1,100,8|8,0:0|0:0,0:0:0:0:
124,88,154803,5,8,0:0:0:0:
100,100,154880,1,8,0:0:0:0:
88,120,154957,1,8,0:0:0:0:
84,144,155034,1,8,0:0:0:0:
92,168,155110,1,8,0:0:0:0:
112,180,155187,1,8,0:0:0:0:
132,192,155264,1,8,0:0:0:0:
148,212,155341,1,8,0:0:0:0:
160,232,155418,6,0,B|160:256,7,25,4|0|0|0|0|0|0|0,0:0|0:0|0:0|0:0|0:0|0:0|0:0|0:0,0:0:0:0:
160,257,155726,6,0,B|204:280|268:268|304:216|287:163,1,200,8|0,0:0|0:0,0:0:0:0:
256,68,156187,1,0,0:0:0:0:
224,163,156341,2,0,B|208:216|244:268|308:280|352:257,1,200,8|0,0:0|0:0,0:0:0:0:
420,184,156803,1,0,0:0:0:0:
420,184,156880,1,0,0:0:0:0:
420,184,156957,2,0,B|256:68,1,200,8|0,0:0|0:0,0:0:0:0:
156,72,157418,1,0,0:0:0:0:
156,72,157495,1,0,0:0:0:0:
156,72,157572,2,0,B|92:148,1,100,8|0,0:0|0:0,0:0:0:0:
164,220,157880,5,4,0:0:0:0:
184,236,157957,1,0,0:0:0:0:
208,240,158034,1,0,0:0:0:0:
232,240,158110,1,0,0:0:0:0:
256,228,158187,2,0,B|256:28,1,200,8|0,0:0|0:0,0:0:0:0:
156,40,158649,1,0,0:0:0:0:
84,108,158803,6,0,B|168:289,1,200,8|0,0:0|0:0,0:0:0:0:
256,340,159264,1,0,0:0:0:0:
343,289,159418,2,0,B|428:108,1,200,8|0,0:0|0:0,0:0:0:0:
356,40,159880,1,0,0:0:0:0:
256,24,160034,1,8,0:0:0:0:
156,40,160187,1,0,0:0:0:0:
84,108,160341,6,0,B|125:198,1,100,12|0,0:0|0:0,0:0:0:0:
386,198,160649,2,0,B|428:108,1,100,8|0,0:0|0:0,0:0:0:0:
68,108,160957,6,0,B|109:198,1,100,8|0,0:0|0:0,0:0:0:0:
402,199,161264,2,0,B|444:108,1,100,8|0,0:0|0:0,0:0:0:0:
52,108,161572,6,0,B|93:198,1,100,8|0,0:0|0:0,0:0:0:0:
418,199,161880,2,0,B|460:108,1,100,8|0,0:0|0:0,0:0:0:0:
36,108,162187,6,0,B|77:198,1,100,8|0,0:0|0:0,0:0:0:0:
434,199,162495,2,0,B|476:108,1,100,8|0,0:0|0:0,0:0:0:0:
256,40,162803,6,0,B|256:240,1,200,12|8,0:0|0:0,0:0:0:0:
256,248,163187,1,8,0:0:0:0:
256,256,163264,1,8,0:0:0:0:
256,264,163341,1,0,0:0:0:0:
256,272,163418,1,8,0:0:0:0:
256,280,163495,1,8,0:0:0:0:
256,288,163572,1,0,0:0:0:0:
256,296,163649,1,0,0:0:0:0:
256,304,163726,1,8,0:0:0:0:
256,312,163803,1,0,0:0:0:0:
256,320,163880,1,0,0:0:0:0:
256,328,163957,1,0,0:0:0:0:
256,336,164034,1,12,0:0:0:0:
256,336,165264,6,0,B|304:352|356:340|392:300|400:240,1,200,4|0,0:0|0:0,0:0:0:0:
348,152,165726,1,0,0:0:0:0:
256,192,165880,2,0,B|164:232,1,100,8|0,0:0|0:0,0:0:0:0:
72,112,166187,2,0,B|164:72,1,100
316,56,166495,5,0,0:0:0:0:
163,72,166649,1,8,0:0:0:0:
304,124,166803,1,0,0:0:0:0:
163,72,166957,1,0,0:0:0:0:
264,180,167110,1,8,0:0:0:0:
163,72,167264,1,0,0:0:0:0:
204,216,167418,1,0,0:0:0:0:
163,72,167572,1,0,0:0:0:0:
136,220,167726,6,0,B|136:268|176:320|248:316|284:288,1,200,4|0,0:0|0:0,0:0:0:0:
340,204,168187,1,0,0:0:0:0:
268,136,168341,1,8,0:0:0:0:
168,144,168495,2,0,B|88:328,1,200
180,368,168957,6,0,B|272:332,1,100,0|8,0:0|0:0,0:0:0:0:
296,180,169264,2,0,B|204:216,1,100
104,208,169572,1,8,0:0:0:0:
44,128,169726,1,0,0:0:0:0:
100,44,169880,2,0,B|200:24,1,100
256,108,170187,6,0,B|256:308,1,200,4|0,0:0|0:0,0:0:0:0:
172,364,170649,1,0,0:0:0:0:
172,264,170803,2,0,B|192:164,1,100,8|0,0:0|0:0,0:0:0:0:
340,120,171110,2,0,B|320:220,1,100
191,165,171418,5,0,0:0:0:0:
340,120,171572,1,8,0:0:0:0:
172,264,171726,1,0,0:0:0:0:
320,218,171880,1,0,0:0:0:0:
100,176,172034,2,0,B|64:144|40:84|80:24|128:12,1,200,8|0,0:0|0:0,0:0:0:0:
224,32,172495,1,0,0:0:0:0:
256,128,172649,6,0,B|256:328,1,200,4|0,0:0|0:0,0:0:0:0:
160,352,173110,1,0,0:0:0:0:
96,276,173264,2,0,B|100:176,1,100,8|0,0:0|0:0,0:0:0:0:
412,176,173572,6,0,B|416:276,1,100,8|0,0:0|0:0,0:0:0:0:
400,296,173803,1,0,0:0:0:0:
376,304,173880,1,0,0:0:0:0:
352,300,173957,1,0,0:0:0:0:
332,288,174034,1,0,0:0:0:0:
316,268,174110,1,0,0:0:0:0:
312,244,174187,2,0,B|312:144,1,100,8|8,0:0|0:0,0:0:0:0:
256,60,174495,5,0,0:0:0:0:
232,56,174572,1,0,0:0:0:0:
208,60,174649,1,0,0:0:0:0:
188,72,174726,1,0,0:0:0:0:
176,92,174803,2,0,B|176:192,1,100,8|8,0:0|0:0,0:0:0:0:
256,252,175110,6,0,B|448:192,1,200,4|0,0:0|0:0,0:0:0:0:
444,92,175572,1,0,0:0:0:0:
356,44,175726,1,8,0:0:0:0:
256,60,175880,2,0,B|260:156|260:156|252:156|252:156|256:252,1,200
176,316,176341,6,0,B|84:356,1,100,0|8,0:0|0:0,0:0:0:0:
132,112,176649,2,0,B|92:20,1,100
336,68,176957,2,0,B|428:28,1,100,8|0,0:0|0:0,0:0:0:0:
380,272,177265,2,0,B|420:364,1,100
256,292,177572,6,0,B|256:92,1,200,4|0,0:0|0:0,0:0:0:0:
172,36,178034,1,0,0:0:0:0:
92,96,178187,2,0,B|56:192,2,100,8|0|0,0:0|0:0|0:0,0:0:0:0:
192,116,178649,1,0,0:0:0:0:
256,192,178803,6,0,B|256:292,1,100,0|8,0:0|0:0,0:0:0:0:
184,220,179110,2,0,B|113:290,1,100
108,192,179418,2,0,B|7:192,1,100,8|0,0:0|0:0,0:0:0:0:
76,120,179726,2,0,B|5:49,1,100
108,52,180034,6,0,B|304:100,1,200,4|0,0:0|0:0,0:0:0:0:
344,192,180495,1,0,0:0:0:0:
284,272,180649,1,8,0:0:0:0:
184,272,180803,1,0,0:0:0:0:
184,272,180880,1,0,0:0:0:0:
184,272,180957,2,0,B|144:180,1,100
256,80,181264,2,0,B|296:172,1,100,0|8,0:0|0:0,0:0:0:0:
88,284,181572,2,0,B|48:192,1,100
72,96,181880,5,8,0:0:0:0:
160,48,182034,1,0,0:0:0:0:
256,80,182187,2,0,B|256:180,1,100,8|0,0:0|0:0,0:0:0:0:
344,328,182495,2,0,B|344:128,1,200,4|0,0:0|0:0,0:0:0:0:
256,80,182957,1,0,0:0:0:0:
168,128,183110,2,0,B|168:328,1,200,8|0,0:0|0:0,0:0:0:0:
256,276,183572,1,0,0:0:0:0:
308,192,183726,6,0,B|344:156,2,50,8|0|0,0:0|0:0|0:0,0:0:0:0:
256,80,184034,2,0,B|304:64,2,50,8|0|0,0:0|0:0|0:0,0:0:0:0:
168,128,184341,1,8,0:0:0:0:
128,220,184495,1,0,0:0:0:0:
128,220,184572,1,0,0:0:0:0:
128,220,184649,2,0,B|140:268|184:300|244:312|292:288,1,200,12|4,0:0|0:0,0:0:0:0:
308,192,185110,5,0,0:0:0:0:
296,292,185264,1,0,0:0:0:0:
256,144,185418,1,0,0:0:0:0:
300,296,185572,1,12,0:0:0:0:
300,88,185726,1,0,0:0:0:0:
304,300,185880,1,0,0:0:0:0:
244,44,186034,1,0,0:0:0:0:
308,304,186187,6,0,B|392:248,1,100,4|0,0:0|0:0,0:0:0:0:
204,80,186495,2,0,B|120:136,1,100,0|0,0:0|0:0,0:0:0:0:
289,310,186803,6,0,B|381:268,1,100,12|0,0:0|0:0,0:0:0:0:
222,73,187111,2,0,B|130:115,1,100,0|0,0:0|0:0,0:0:0:0:
120,212,187418,5,4,0:0:0:0:
200,272,187572,1,0,0:0:0:0:
256,192,187726,1,0,0:0:0:0:
312,112,187880,1,0,0:0:0:0:
392,172,188034,1,12,0:0:0:0:
380,269,188187,6,0,B|290:311,1,100,0|0,0:0|0:0,0:0:0:0:
132,115,188495,2,0,B|223:74,1,100,0|4,0:0|0:0,0:0:0:0:
324,64,188803,1,0,0:0:0:0:
408,116,188957,1,0,0:0:0:0:
428,212,189110,1,0,0:0:0:0:
364,288,189264,2,0,B|264:288,1,100,12|0,0:0|0:0,0:0:0:0:
148,96,189572,2,0,B|248:96,1,100,0|0,0:0|0:0,0:0:0:0:
256,192,189880,5,4,0:0:0:0:
176,28,190034,1,0,0:0:0:0:
104,192,190187,1,0,0:0:0:0:
248,96,190341,2,0,B|348:96,2,100,0|12|0,0:0|0:0|0:0,0:0:0:0:
72,124,190803,6,0,B|4:204,2,100,0|0|4,0:0|0:0|0:0,0:0:0:0:
168,144,191264,1,0,0:0:0:0:
228,224,191418,1,0,0:0:0:0:
220,324,191572,6,0,B|140:384,2,100,0|12|0,0:0|0:0|0:0,0:0:0:0:
296,256,192034,1,0,0:0:0:0:
276,160,192187,1,0,0:0:0:0:
220,76,192341,6,0,B|128:36,1,100,4|0,0:0|0:0,0:0:0:0:
32,212,192649,2,0,B|128:236,1,100
382,236,192957,2,0,B|480:212,1,100,12|0,0:0|0:0,0:0:0:0:
384,36,193264,2,0,B|292:76,1,100,0|0,0:0|0:0,0:0:0:0:
256,168,193572,5,8,0:0:0:0:
296,260,193726,1,0,0:0:0:0:
256,168,193880,1,8,0:0:0:0:
384,236,194034,1,0,0:0:0:0:
256,168,194187,2,0,B|220:136|160:132|112:156|84:204,1,200,12|12,0:0|0:0,0:0:0:0:
116,300,194649,5,0,0:0:0:0:
116,300,194726,1,0,0:0:0:0:
116,300,194803,2,0,B|216:284,1,100,4|0,0:0|0:0,0:0:0:0:
396,84,195110,2,0,B|296:100,1,100,0|0,0:0|0:0,0:0:0:0:
256,192,195418,2,0,B|288:288,1,100,12|0,0:0|0:0,0:0:0:0:
396,184,195726,6,0,B|396:84,1,100
116,84,196034,2,0,B|116:184,1,100,4|0,0:0|0:0,0:0:0:0:
408,184,196341,6,0,B|408:84,1,100
104,84,196649,2,0,B|104:184,1,100,12|0,0:0|0:0,0:0:0:0:
420,184,196957,6,0,B|420:84,1,100
92,84,197265,2,0,B|92:184,1,100,4|0,0:0|0:0,0:0:0:0:
128,276,197572,1,0,0:0:0:0:
224,308,197726,1,0,0:0:0:0:
304,248,197880,2,0,B|276:152,1,100,12|0,0:0|0:0,0:0:0:0:
180,120,198187,6,0,B|208:216,1,100
368,168,198495,2,0,B|340:72,1,100,4|0,0:0|0:0,0:0:0:0:
100,180,198803,2,0,B|128:276,1,100
444,108,199110,2,0,B|416:12,1,100,12|0,0:0|0:0,0:0:0:0:
316,24,199418,1,0,0:0:0:0:
256,104,199572,1,0,0:0:0:0:
256,204,199726,6,0,B|256:304,1,100,4|0,0:0|0:0,0:0:0:0:
328,236,200034,2,0,B|364:328,1,100
408,240,200341,2,0,B|472:320,1,100,12|0,0:0|0:0,0:0:0:0:
470,65,200649,6,0,B|408:144,1,100
364,54,200956,2,0,B|328:148,1,100,4|0,0:0|0:0,0:0:0:0:
256,80,201264,2,0,B|256:180,1,100
256,280,201572,5,12,0:0:0:0:
172,332,201726,1,0,0:0:0:0:
72,320,201880,1,0,0:0:0:0:
24,232,202034,1,0,0:0:0:0:
52,136,202187,5,8,0:0:0:0:
64,116,202264,1,0,0:0:0:0:
84,100,202341,1,0,0:0:0:0:
108,92,202418,1,0,0:0:0:0:
132,96,202495,1,8,0:0:0:0:
156,108,202572,1,0,0:0:0:0:
168,128,202649,1,0,0:0:0:0:
180,148,202726,1,0,0:0:0:0:
200,160,202803,1,8,0:0:0:0:
224,164,202880,1,0,0:0:0:0:
248,156,202957,1,0,0:0:0:0:
264,140,203034,1,0,0:0:0:0:
272,116,203110,1,12,0:0:0:0:
452,28,203418,6,0,B|500:120,1,100,4|0,0:0|0:0,0:0:0:0:
448,204,203726,2,0,B|372:140,1,100,12|0,0:0|0:0,0:0:0:0:
272,116,204034,1,0,0:0:0:0:
248,124,204110,1,0,0:0:0:0:
232,140,204187,1,0,0:0:0:0:
220,160,204264,1,0,0:0:0:0:
216,184,204341,2,0,B|216:240|240:280|292:308|348:300,1,200,12|4,0:0|0:0,0:0:0:0:
256,192,204803,12,4,207110,0:0:0:0:
