osu file format v13

[General]
AudioFilename: 10.Dear, Are You Getting Sober(Voc)(MD2-10).mp3
AudioLeadIn: 0
PreviewTime: 112022
Countdown: 0
SampleSet: Soft
StackLeniency: 0.7
Mode: 0
LetterboxInBreaks: 0
WidescreenStoryboard: 0

[Editor]
DistanceSpacing: 1.3
BeatDivisor: 4
GridSize: 4
TimelineZoom: 1

[Metadata]
Title:Dear, Are You Getting Sober
TitleUnicode:Dear, Are You Getting Sober
Artist:Foreground Eclipse
ArtistUnicode:Foreground Eclipse
Creator:HabiHolic
Version:Insane
Source:
Tags:東方魔法少女 アルティメット☆れいむ DISC.02
BeatmapID:506005
BeatmapSetID:215468

[Difficulty]
HPDrainRate:7
CircleSize:4
OverallDifficulty:7
ApproachRate:9
SliderMultiplier:1.8
SliderTickRate:1

[Events]
//Background and Video events
0,0,"BG.jpg",0,0
//Break Periods
//Storyboard Layer 0 (Background)
//Storyboard Layer 1 (Fail)
//Storyboard Layer 2 (Pass)
//Storyboard Layer 3 (Foreground)
//Storyboard Sound Samples
//Background Colour Transformations
3,100,163,162,255

[TimingPoints]
1748,329.67032967033,4,2,0,30,1,0
1748,-133.333333333333,4,2,0,30,0,0
6693,-133.333333333333,4,2,0,50,0,0
7022,-100,4,2,1,70,0,0

[Colours]
Combo1 : 86,227,79
Combo2 : 27,119,194
Combo3 : 255,128,255
Combo4 : 235,82,37

[HitObjects]
68,312,1748,6,0,P|72:276|68:240,1,67.5000025749208,4|0,0:0|0:0,0:0:0:0:
104,152,2077,2,0,L|220:152,1,101.250003862381,0|0,1:0|0:0,0:0:0:0:
252,192,2407,1,0,1:0:0:0:
332,124,2572,1,0,0:0:0:0:
428,168,2737,1,0,1:0:0:0:
428,168,3066,6,0,P|440:136|436:96,1,67.5000025749208,4|0,0:0|0:0,0:0:0:0:
348,228,3396,2,0,L|352:340,1,101.250003862381,0|0,1:0|0:0,0:0:0:0:
351,329,3726,1,0,1:0:0:0:
236,364,3890,1,0,0:0:0:0:
128,324,4055,1,0,1:0:0:0:
128,324,4385,6,0,P|144:292|148:256,1,67.5000025749208,4|0,0:0|0:0,0:0:0:0:
56,108,4715,2,0,L|64:224,1,101.250003862381,0|0,1:0|0:0,0:0:0:0:
62,209,5044,1,0,1:0:0:0:
224,192,5209,1,0,0:0:0:0:
32,304,5374,1,0,1:0:0:0:
224,192,5704,6,0,L|292:188,1,67.5000025749208,4|0,0:0|0:0,0:0:0:0:
436,260,6033,2,0,L|368:264,1,67.5000025749208,4|0,0:0|0:0,0:0:0:0:
148,264,6363,2,0,P|118:204|136:141,1,135.000005149842,4|8,0:0|3:0,0:0:0:0:
404,164,7022,5,4,0:0:0:0:
248,76,7187,1,2,0:0:0:0:
320,228,7352,2,0,L|228:224,1,90,8|0,0:0|0:0,0:0:0:0:
148,140,7682,1,2,0:0:0:0:
320,228,7846,1,2,0:0:0:0:
114,316,8011,2,0,L|204:320,1,90,8|0,0:0|0:0,0:0:0:0:
424,260,8341,5,2,0:0:0:0:
312,128,8506,1,2,0:0:0:0:
424,260,8671,2,0,L|520:252,1,90,8|0,0:0|0:0,0:0:0:0:
228,192,9000,2,0,P|208:152|208:104,1,90,2|2,0:0|0:0,0:0:0:0:
320,228,9330,2,0,L|312:324,1,90,8|0,0:0|0:0,0:0:0:0:
216,372,9660,5,2,0:0:0:0:
320,228,9824,1,2,0:0:0:0:
152,268,9989,1,8,0:0:0:0:
312,344,10154,1,0,0:0:0:0:
152,268,10319,2,0,L|56:264,1,90,2|2,0:0|0:0,0:0:0:0:
192,124,10649,2,0,L|288:128,1,90,8|0,0:0|0:0,0:0:0:0:
429,200,10978,2,0,P|463:119|436:36,1,180,2|8,0:0|0:0,0:0:0:0:
436,36,11473,1,0,0:0:0:0:
272,200,11638,2,0,P|296:160|300:108,1,90,2|2,0:0|0:0,0:0:0:0:
100,180,11967,2,0,P|127:215|166:236,1,90,8|0,0:0|0:0,0:0:0:0:
248,296,12297,5,4,0:0:0:0:
196,136,12462,1,0,0:0:0:0:
352,264,12627,2,0,L|448:268,1,90,8|0,0:0|0:0,0:0:0:0:
238,159,12956,2,0,L|328:156,1,90,2|2,0:0|0:0,0:0:0:0:
416,84,13286,1,8,0:0:0:0:
268,248,13451,1,0,0:0:0:0:
488,152,13616,2,0,P|512:112|512:56,1,90,2|2,0:0|0:0,0:0:0:0:
392,176,13945,2,0,L|404:272,1,90,8|0,0:0|0:0,0:0:0:0:
456,360,14275,6,0,P|408:356|360:364,1,90,2|2,0:0|0:0,0:0:0:0:
188,316,14605,2,0,P|236:320|284:312,1,90,8|0,0:0|0:0,0:0:0:0:
320,220,14934,1,4,0:0:0:0:
256,132,15099,1,0,0:0:0:0:
412,176,15264,2,0,L|504:168,1,90,8|0,0:0|0:0,0:0:0:0:
396,360,15594,2,0,P|408:312|396:264,1,90,2|2,0:0|0:0,0:0:0:0:
316,312,15923,1,8,0:0:0:0:
412,176,16088,1,0,0:0:0:0:
220,228,16253,2,0,L|124:224,1,90,2|2,0:0|0:0,0:0:0:0:
32,352,16583,2,0,L|128:348,1,90,8|0,0:0|0:0,0:0:0:0:
320,220,16912,5,2,0:0:0:0:
317,202,16994,1,8,0:0:0:0:
314,184,17076,1,2,0:0:0:0:
224,120,17242,1,8,0:0:0:0:
264,316,17407,1,2,0:0:0:0:
264,316,17489,1,8,0:0:0:0:
264,316,17572,2,0,L|360:324,1,90,4|2,0:0|0:0,0:0:0:0:
428,256,17901,1,8,0:0:0:0:
428,256,18066,1,0,0:0:0:0:
208,224,18231,6,0,P|160:204|128:168,1,90,2|2,0:0|0:0,0:0:0:0:
316,72,18561,2,0,P|327:115|320:160,1,90,8|0,0:0|0:0,0:0:0:0:
264,316,18890,1,2,0:0:0:0:
400,180,19055,1,2,0:0:0:0:
168,308,19220,2,0,P|132:284|112:236,1,90,8|0,0:0|0:0,0:0:0:0:
148,156,19550,1,2,0:0:0:0:
60,332,19715,1,2,0:0:0:0:
220,228,19879,2,0,L|320:232,1,90,8|0,0:0|0:0,0:0:0:0:
472,252,20209,5,4,0:0:0:0:
312,128,20374,1,2,0:0:0:0:
384,304,20539,1,8,0:0:0:0:
408,84,20704,1,0,0:0:0:0:
304,240,20868,2,0,L|208:248,1,90,2|2,0:0|0:0,0:0:0:0:
38,119,21198,2,0,L|128:112,1,90,8|0,0:0|0:0,0:0:0:0:
220,160,21528,5,2,0:0:0:0:
408,84,21693,1,2,0:0:0:0:
436,184,21857,2,0,P|480:164|504:132,1,90,8|0,0:0|0:0,0:0:0:0:
356,244,22187,2,0,P|392:272|448:284,1,90,2|2,0:0|0:0,0:0:0:0:
264,188,22517,2,0,P|256:232|264:280,1,90,8|0,0:0|0:0,0:0:0:0:
324,352,22846,5,4,0:0:0:0:
352,148,23011,1,2,0:0:0:0:
272,96,23176,2,0,L|176:100,1,90,8|0,0:0|0:0,0:0:0:0:
32,208,23506,2,0,L|128:212,1,90,2|2,0:0|0:0,0:0:0:0:
212,296,23835,1,8,0:0:0:0:
332,256,24000,1,0,0:0:0:0:
436,319,24165,6,0,P|454:279|452:228,1,90,2|2,0:0|0:0,0:0:0:0:
376,160,24495,1,8,0:0:0:0:
436,320,24660,1,0,0:0:0:0:
248,200,24824,2,0,L|156:196,1,90,2|2,0:0|0:0,0:0:0:0:
16,100,25154,2,0,L|108:96,1,90,8|0,0:0|0:0,0:0:0:0:
100,280,25484,1,4,0:0:0:0:
208,104,25649,1,2,0:0:0:0:
16,208,25813,1,8,0:0:0:0:
232,208,25978,1,0,0:0:0:0:
104,160,26143,6,0,P|124:112|124:68,1,90,2|2,0:0|0:0,0:0:0:0:
16,208,26473,2,0,L|24:304,1,90,8|0,0:0|0:0,0:0:0:0:
120,352,26802,1,2,0:0:0:0:
288,280,26967,1,2,0:0:0:0:
100,240,27132,1,8,0:0:0:0:
224,360,27297,1,0,0:0:0:0:
208,184,27462,2,0,L|304:180,1,90,2|2,0:0|0:0,0:0:0:0:
400,232,27791,1,4,0:0:0:0:
400,232,28121,6,0,P|481:203|504:119,1,180,4|8,0:0|0:0,0:0:0:0:
296,204,28616,2,0,B|307:270|307:270|338:306|338:306|351:381,1,180,2|2,0:0|0:0,0:0:0:0:
252,348,29110,1,8,0:0:0:0:
371,135,29275,2,0,P|290:104|213:145,1,180,2|2,0:0|0:0,0:0:0:0:
32,216,29769,2,0,P|76:216|120:200,1,90,8|0,0:0|0:0,0:0:0:0:
88,19,30099,2,0,P|72:61|80:105,1,90,2|2,0:0|0:0,0:0:0:0:
256,168,30429,2,0,P|228:136|184:124,1,90,8|0,0:0|0:0,0:0:0:0:
292,252,30758,6,0,L|308:68,1,180,2|8,0:0|0:0,0:0:0:0:
307,72,31253,1,0,0:0:0:0:
180,184,31418,2,0,L|196:368,1,180,2|8,0:0|0:0,0:0:0:0:
96,304,31912,1,0,0:0:0:0:
336,336,32077,2,0,P|372:308|388:260,1,90,2|2,0:0|0:0,0:0:0:0:
396,172,32407,2,0,L|500:184,1,90,8|0,0:0|0:0,0:0:0:0:
299,208,32737,2,0,P|213:220|147:163,1,180,2|8,0:0|0:0,0:0:0:0:
147,163,33231,1,0,0:0:0:0:
28,284,33396,6,0,B|92:288|92:288|124:324|124:324|192:328,1,180,4|8,0:0|0:0,0:0:0:0:
296,364,33890,1,0,0:0:0:0:
392,264,34055,2,0,P|404:220|400:168,1,90,2|2,0:0|0:0,0:0:0:0:
340,80,34385,2,0,L|232:84,1,90,8|0,0:0|0:0,0:0:0:0:
7,111,34715,2,0,P|71:170|156:154,1,180,2|8,0:0|0:0,0:0:0:0:
100,72,35209,1,0,0:0:0:0:
340,184,35374,2,0,L|250:187,1,90,2|2,0:0|0:0,0:0:0:0:
36,268,35704,2,0,L|125:271,1,90,8|0,0:0|0:0,0:0:0:0:
356,296,36033,6,0,P|269:284|207:345,1,180,2|8,0:0|0:0,0:0:0:0:
207,345,36528,1,0,0:0:0:0:
460,352,36693,2,0,L|472:164,1,180,2|8,0:0|0:0,0:0:0:0:
336,36,37187,2,0,L|340:132,1,90,0|2,0:0|0:0,0:0:0:0:
196,260,37517,2,0,L|192:170,1,90,2|8,0:0|0:0,0:0:0:0:
112,88,37846,1,0,0:0:0:0:
296,200,38011,2,0,P|344:208|392:200,1,90,4|4,3:0|3:0,0:0:0:0:
484,112,38341,1,8,0:0:0:0:
336,308,38506,1,0,0:0:0:0:
484,112,38671,6,0,B|488:180|488:180|472:220|472:220|476:296,1,180,4|8,0:0|0:0,0:0:0:0:
416,360,39165,1,0,0:0:0:0:
276,232,39330,2,0,L|184:228,1,90,2|2,0:0|0:0,0:0:0:0:
96,288,39660,1,8,0:0:0:0:
48,112,39824,2,0,B|156:80|120:144|244:104,1,180,2|2,0:0|0:0,0:0:0:0:
344,136,40319,2,0,P|352:88|344:44,1,90,8|0,0:0|0:0,0:0:0:0:
276,232,40649,2,0,P|268:280|276:324,1,90,2|2,0:0|0:0,0:0:0:0:
484,224,40978,2,0,L|376:232,1,90,8|0,0:0|0:0,0:0:0:0:
232,128,41308,6,0,P|146:108|74:158,1,180,2|8,0:0|0:0,0:0:0:0:
36,248,41802,1,0,0:0:0:0:
36,248,41967,2,0,L|40:344,1,90,2|2,0:0|0:0,0:0:0:0:
216,232,42297,2,0,L|219:142,1,90,8|0,0:0|0:0,0:0:0:0:
308,24,42627,1,2,0:0:0:0:
360,180,42791,1,2,0:0:0:0:
480,60,42956,1,8,0:0:0:0:
276,120,43121,1,0,0:0:0:0:
476,164,43286,6,0,P|480:208|476:256,1,90,2|2,0:0|0:0,0:0:0:0:
360,363,43616,2,0,P|364:318|360:274,1,90,8|0,0:0|0:0,0:0:0:0:
232,248,43945,1,4,0:0:0:0:
368,92,44110,1,0,0:0:0:0:
296,28,44275,2,0,L|200:32,1,90,8|0,0:0|0:0,0:0:0:0:
28,136,44605,2,0,L|124:140,1,90,2|2,0:0|0:0,0:0:0:0:
332,180,44934,1,8,0:0:0:0:
216,64,45099,1,0,0:0:0:0:
368,92,45264,6,0,L|460:96,1,90,2|2,0:0|0:0,0:0:0:0:
500,180,45594,1,8,0:0:0:0:
368,92,45758,1,0,0:0:0:0:
360,272,45923,2,0,P|316:276|264:252,1,90,2|2,0:0|0:0,0:0:0:0:
164,144,46252,1,8,0:0:0:0:
163,143,46583,6,0,P|79:128|21:192,1,180,2|8,0:0|0:0,0:0:0:0:
40,288,47077,1,0,0:0:0:0:
208,232,47242,2,0,L|216:44,1,180,2|8,0:0|0:0,0:0:0:0:
116,24,47737,1,0,0:0:0:0:
304,196,47901,2,0,P|320:264|304:332,1,135,2|0,0:0|0:0,0:0:0:0:
306,326,48231,2,0,L|212:324,1,90,8|0,0:0|0:0,0:0:0:0:
12,244,48561,2,0,L|106:241,1,90,2|2,0:0|0:0,0:0:0:0:
192,128,48890,1,8,0:0:0:0:
192,128,49220,6,0,P|204:88|192:40,1,90,4|2,0:0|0:0,0:0:0:0:
116,80,49550,1,8,0:0:0:0:
280,88,49715,1,2,0:0:0:0:
112,172,49879,2,0,P|64:164|32:136,1,90,2|2,0:0|0:0,0:0:0:0:
196,220,50208,2,0,L|184:312,1,90,8|0,0:0|0:0,0:0:0:0:
456,332,50539,2,0,P|396:304|332:324,1,135,2|0,0:0|0:0,0:0:0:0:
333,323,50868,1,8,0:0:0:0:
272,172,51033,1,2,0:0:0:0:
360,200,51198,6,0,L|456:192,1,90,2|2,0:0|0:0,0:0:0:0:
340,24,51528,2,0,P|352:64|344:116,1,90,8|0,0:0|0:0,0:0:0:0:
184,132,51857,2,0,P|100:116|32:176,1,180,4|8,0:0|0:0,0:0:0:0:
128,212,52352,1,0,0:0:0:0:
272,172,52517,2,0,P|284:128|272:76,1,90,2|2,0:0|0:0,0:0:0:0:
292,276,52846,2,0,P|336:292|388:288,1,90,8|0,0:0|0:0,0:0:0:0:
203,243,53176,2,0,P|117:241|64:309,1,180,2|8,0:0|0:0,0:0:0:0:
160,324,53671,1,0,0:0:0:0:
360,208,53835,6,0,L|456:212,1,90,2|2,0:0|0:0,0:0:0:0:
240,96,54165,2,0,L|329:92,1,90,8|0,0:0|0:0,0:0:0:0:
168,168,54495,2,0,P|137:108|150:44,2,135,8|8|8,0:0|0:0|0:0,0:0:0:0:
272,192,55154,2,0,L|376:188,1,90,2|2,0:0|0:0,0:0:0:0:
224,352,55484,2,0,P|200:316|204:260,1,90,2|2,0:0|0:0,0:0:0:0:
240,92,55813,2,0,L|388:88,2,135,8|8|8,0:0|0:0|0:0,0:0:0:0:
156,152,56473,6,0,L|64:148,1,90,2|2,0:0|0:0,0:0:0:0:
220,280,56802,2,0,L|312:276,1,90,2|2,0:0|0:0,0:0:0:0:
336,284,57050,1,8,0:0:0:0:
360,292,57132,1,4,0:0:0:0:
468,216,57297,1,2,0:0:0:0:
396,52,57462,5,8,0:0:0:0:
359,26,57544,1,2,0:0:0:0:
315,15,57626,1,2,0:0:0:0:
271,22,57709,1,2,0:0:0:0:
233,45,57791,1,8,3:0:0:0:
205,80,57874,1,8,3:0:0:0:
193,123,57956,1,8,3:0:0:0:
198,167,58039,1,8,3:0:0:0:
219,207,58122,1,4,3:0:0:0:
241,246,58204,1,4,3:0:0:0:
243,290,58287,1,4,3:0:0:0:
223,330,58369,1,4,3:0:0:0:
187,356,58451,2,0,L|136:352,3,45,2|2|2|2,0:0|0:0|0:0|0:0,0:0:0:0:
124,328,58780,2,0,L|72:323,3,45,8|8|8|8,3:0|3:0|3:0|3:0,0:0:0:0:
56,292,59110,5,4,3:0:0:0:
33,253,59192,1,4,3:0:0:0:
27,208,59274,1,4,3:0:0:0:
38,165,59357,1,4,3:0:0:0:
65,129,59439,1,4,3:0:0:0:
103,106,59522,1,4,3:0:0:0:
147,99,59604,1,4,3:0:0:0:
191,108,59686,1,4,3:0:0:0:
227,134,59769,6,0,L|236:228,1,90,4|0,0:0|0:0,0:0:0:0:
332,352,60099,1,8,0:0:0:0:
144,260,60264,1,0,0:0:0:0:
364,232,60429,1,2,0:0:0:0:
208,368,60594,1,2,0:0:0:0:
244,176,60758,1,8,0:0:0:0:
332,352,60923,1,0,0:0:0:0:
144,260,61088,6,0,L|40:272,1,90,2|2,0:0|0:0,0:0:0:0:
144,68,61418,2,0,P|136:112|148:160,1,90,8|0,0:0|0:0,0:0:0:0:
252,288,61748,1,2,0:0:0:0:
344,132,61912,1,2,0:0:0:0:
436,268,62077,2,0,L|340:260,1,90,8|0,0:0|0:0,0:0:0:0:
184,168,62407,5,4,0:0:0:0:
312,24,62572,1,0,0:0:0:0:
280,216,62737,2,0,L|372:212,1,90,8|0,0:0|0:0,0:0:0:0:
196,356,63066,2,0,P|184:312|192:264,1,90,2|2,0:0|0:0,0:0:0:0:
280,112,63396,1,8,0:0:0:0:
80,144,63561,1,0,0:0:0:0:
216,40,63726,6,0,P|192:72|188:128,1,90,2|2,0:0|0:0,0:0:0:0:
248,292,64055,2,0,L|240:196,1,90,8|0,0:0|0:0,0:0:0:0:
280,112,64385,1,2,0:0:0:0:
148,236,64550,1,2,0:0:0:0:
344,216,64715,1,8,0:0:0:0:
184,124,64879,1,0,0:0:0:0:
344,216,65044,6,0,L|440:212,1,90,4|0,0:0|0:0,0:0:0:0:
500,136,65374,1,8,0:0:0:0:
500,136,65539,1,0,0:0:0:0:
272,296,65704,2,0,P|248:264|244:208,1,90,2|2,0:0|0:0,0:0:0:0:
304,44,66033,2,0,L|300:140,1,90,8|0,0:0|0:0,0:0:0:0:
144,244,66363,1,2,0:0:0:0:
344,216,66528,1,2,0:0:0:0:
176,144,66693,6,0,L|80:140,1,90,8|0,0:0|0:0,0:0:0:0:
16,208,67022,1,2,0:0:0:0:
136,48,67187,1,2,0:0:0:0:
240,220,67352,2,0,L|336:224,1,90,8|0,0:0|0:0,0:0:0:0:
480,328,67682,2,0,L|384:332,1,90,4|0,0:0|0:0,0:0:0:0:
392,144,68011,1,8,0:0:0:0:
292,312,68176,1,0,0:0:0:0:
296,132,68341,6,0,L|204:128,1,90,2|2,0:0|0:0,0:0:0:0:
120,184,68671,1,8,0:0:0:0:
20,144,68835,1,0,0:0:0:0:
88,276,69000,2,0,P|128:284|176:264,1,90,2|2,0:0|0:0,0:0:0:0:
344,228,69330,2,0,L|244:220,1,90,8|0,0:0|0:0,0:0:0:0:
440,292,69660,5,0,0:0:0:0:
446,266,69742,1,0,0:0:0:0:
450,239,69824,1,0,0:0:0:0:
449,212,69907,1,0,0:0:0:0:
440,187,69989,1,0,0:0:0:0:
426,164,70072,1,0,0:0:0:0:
419,138,70154,1,0,0:0:0:0:
418,111,70236,1,0,0:0:0:0:
422,84,70319,2,0,P|336:99|274:39,1,180,4|8,0:0|0:0,0:0:0:0:
176,216,70813,5,0,0:0:0:0:
64,144,70978,1,2,0:0:0:0:
20,304,71143,2,0,L|116:296,1,90,2|8,0:0|0:0,0:0:0:0:
176,216,71473,1,0,0:0:0:0:
128,52,71638,2,0,P|88:36|32:40,1,90,2|2,0:0|0:0,0:0:0:0:
216,112,71967,2,0,P|280:136|384:96,1,180,8|2,0:0|0:0,0:0:0:0:
448,24,72462,1,2,0:0:0:0:
472,176,72627,2,0,P|460:220|464:264,1,90,8|0,0:0|0:0,0:0:0:0:
408,352,72956,5,2,0:0:0:0:
472,176,73121,1,2,0:0:0:0:
240,276,73286,2,0,L|336:268,1,90,8|0,0:0|0:0,0:0:0:0:
391,96,73616,2,0,P|335:160|251:143,1,180,2|8,0:0|0:0,0:0:0:0:
200,48,74110,1,0,0:0:0:0:
32,164,74275,2,0,L|132:160,1,90,2|2,0:0|0:0,0:0:0:0:
376,272,74605,2,0,L|276:268,1,90,8|0,0:0|0:0,0:0:0:0:
136,356,74934,2,0,P|152:264|136:176,1,180,2|8,0:0|0:0,0:0:0:0:
76,72,75429,1,0,0:0:0:0:
240,188,75594,6,0,L|344:192,1,90,4|0,0:0|0:0,0:0:0:0:
416,120,75923,1,8,0:0:0:0:
416,120,76088,1,0,0:0:0:0:
180,104,76253,2,0,P|192:52|180:4,1,90,2|2,0:0|0:0,0:0:0:0:
88,176,76583,2,0,L|96:276,1,90,8|0,0:0|0:0,0:0:0:0:
248,264,76912,1,2,0:0:0:0:
336,311,77077,2,0,P|260:357|175:338,1,180,2|2,0:0|0:0,0:0:0:0:
336,208,77572,2,0,L|432:216,1,90,2|2,0:0|0:0,0:0:0:0:
484,296,77901,1,8,0:0:0:0:
484,296,78066,1,0,0:0:0:0:
408,120,78231,6,0,P|412:80|384:24,1,90,2|2,0:0|0:0,0:0:0:0:
336,208,78561,2,0,P|368:240|412:256,1,90,8|0,0:0|0:0,0:0:0:0:
296,112,78890,2,0,P|248:116|212:144,1,90,2|2,0:0|0:0,0:0:0:0:
240,304,79220,1,8,0:0:0:0:
241,281,79302,1,4,3:0:0:0:
243,259,79384,1,4,3:0:0:0:
120,120,79550,2,0,L|128:220,1,90,8|2,0:0|0:0,0:0:0:0:
340,348,79879,5,4,3:0:0:0:
381,364,79961,1,4,3:0:0:0:
425,360,80043,1,4,3:0:0:0:
463,336,80126,1,4,3:0:0:0:
486,298,80209,2,0,L|484:248,3,45,4|4|4|4,3:0|3:0|3:0|3:0,0:0:0:0:
448,232,80539,2,0,L|450:181,3,45,4|4|4|4,3:0|3:0|3:0|3:0,0:0:0:0:
488,148,80868,6,0,P|420:176|336:124,1,180,4|8,0:0|0:0,0:0:0:0:
356,24,81363,1,0,0:0:0:0:
240,144,81528,2,0,P|248:192|240:248,1,90,2|2,0:0|0:0,0:0:0:0:
180,316,81857,1,8,0:0:0:0:
0,255,82022,2,0,P|68:202|154:219,1,180,2|2,0:0|0:0,0:0:0:0:
280,359,82517,2,0,P|323:350|359:324,1,90,8|0,0:0|0:0,0:0:0:0:
328,156,82846,2,0,P|298:189|291:233,1,90,2|2,0:0|0:0,0:0:0:0:
464,284,83176,2,0,P|443:244|405:221,1,90,8|0,0:0|0:0,0:0:0:0:
212,272,83506,6,0,B|148:280|148:280|116:312|116:312|44:320,1,180,4|8,0:0|0:0,0:0:0:0:
72,224,84000,1,0,0:0:0:0:
196,364,84165,1,2,0:0:0:0:
132,148,84330,2,0,L|228:152,1,90,2|8,0:0|0:0,0:0:0:0:
488,143,84660,2,0,P|401:147|345:81,1,180,2|2,0:0|0:0,0:0:0:0:
300,220,85154,2,0,L|304:320,1,90,8|0,0:0|0:0,0:0:0:0:
232,360,85484,1,2,0:0:0:0:
300,220,85649,1,2,0:0:0:0:
152,296,85813,1,8,0:0:0:0:
376,280,85978,1,0,0:0:0:0:
160,196,86143,6,0,L|60:192,1,90,2|2,0:0|0:0,0:0:0:0:
16,272,86473,1,8,0:0:0:0:
16,272,86638,1,0,0:0:0:0:
244,236,86802,2,0,P|256:192|240:144,1,90,2|2,0:0|0:0,0:0:0:0:
168,92,87132,1,8,0:0:0:0:
180,308,87297,1,0,0:0:0:0:
332,192,87462,2,0,B|340:164|340:164|336:96,1,90,2|2,0:0|0:0,0:0:0:0:
400,260,87791,2,0,B|392:288|392:288|396:356,1,90,8|0,0:0|0:0,0:0:0:0:
424,164,88121,1,2,0:0:0:0:
308,288,88286,1,2,0:0:0:0:
260,128,88451,6,0,L|168:132,1,90,8|0,0:0|0:0,0:0:0:0:
56,176,88780,2,0,P|64:132|48:80,1,90,2|2,0:0|0:0,0:0:0:0:
120,292,89110,2,0,P|158:314|203:318,1,90,8|0,0:0|0:0,0:0:0:0:
320,248,89440,1,2,0:0:0:0:
248,152,89605,1,2,0:0:0:0:
280,360,89769,2,0,L|372:352,1,90,8|0,0:0|0:0,0:0:0:0:
428,268,90099,1,2,0:0:0:0:
288,112,90264,1,2,0:0:0:0:
484,96,90429,2,0,L|480:192,1,90,8|0,0:0|0:0,0:0:0:0:
208,188,90758,5,0,0:0:0:0:
