osu file format v14

[General]
AudioFilename: Dancing With Happiness And Sadness.mp3
AudioLeadIn: 0
PreviewTime: 96861
Countdown: 0
SampleSet: Soft
StackLeniency: 0.5
Mode: 0
LetterboxInBreaks: 0
WidescreenStoryboard: 0

[Editor]
Bookmarks: 1884,17884,33884,48384,57884,65884,81884,97884,105884,113884,137884,141884,153884,161884,169884,185884,201884,217884,233884
DistanceSpacing: 1.4
BeatDivisor: 4
GridSize: 4
TimelineZoom: 1.3

[Metadata]
Title:Dancing With Happiness And Sadness
TitleUnicode:Dancing With Happiness And Sadness
Artist:Foreground Eclipse
ArtistUnicode:Foreground Eclipse
Creator:NewPlayer
Version:Hard
Source:東方Project
Tags:touhou wishes hidden in the foreground noises 不思議の国のアリス alice in wonderland 東方怪綺談 ~ Mystic Square merami teto suzuori
BeatmapID:703115
BeatmapSetID:315336

[Difficulty]
HPDrainRate:5
CircleSize:4
OverallDifficulty:6
ApproachRate:8
SliderMultiplier:1.6
SliderTickRate:1

[Events]
//Background and Video events
0,0,"69QxuesH_1024x768.jpg",0,0
//Break Periods
2,138311,139111
2,170061,185111
//Storyboard Layer 0 (Background)
//Storyboard Layer 1 (Fail)
//Storyboard Layer 2 (Pass)
//Storyboard Layer 3 (Foreground)
//Storyboard Sound Samples

[TimingPoints]
1861,500,4,2,0,40,1,0
1861,-117.647058823529,4,2,0,40,0,0
7861,-117.647058823529,4,2,0,40,0,0
9611,-117.647058823529,4,2,0,40,0,0
17861,-133.333333333333,4,2,0,55,0,0
20111,-133.333333333333,4,2,0,35,0,0
20361,-133.333333333333,4,2,0,40,0,0
20611,-133.333333333333,4,2,0,45,0,0
20861,-133.333333333333,4,2,0,50,0,0
21111,-133.333333333333,4,2,0,55,0,0
21361,-133.333333333333,4,2,0,60,0,0
21611,-133.333333333333,4,2,0,65,0,0
21861,-133.333333333333,4,2,0,50,0,0
22361,-133.333333333333,4,2,0,55,0,0
24111,-133.333333333333,4,2,0,35,0,0
24361,-133.333333333333,4,2,0,40,0,0
24611,-133.333333333333,4,2,0,45,0,0
24861,-133.333333333333,4,2,0,50,0,0
25111,-133.333333333333,4,2,0,60,0,0
25298,-133.333333333333,4,2,0,55,0,0
25611,-133.333333333333,4,2,0,65,0,0
25861,-133.333333333333,4,2,0,50,0,0
26111,-133.333333333333,4,2,0,55,0,0
26611,-133.333333333333,4,2,0,60,0,0
28111,-133.333333333333,4,2,0,35,0,0
28361,-133.333333333333,4,2,0,40,0,0
28611,-133.333333333333,4,2,0,45,0,0
28861,-133.333333333333,4,2,0,50,0,0
29111,-133.333333333333,4,2,0,60,0,0
29298,-133.333333333333,4,2,0,55,0,0
29611,-133.333333333333,4,2,0,65,0,0
29861,-133.333333333333,4,2,0,50,0,0
30111,-133.333333333333,4,2,0,60,0,0
32111,-133.333333333333,4,2,0,35,0,0
32361,-133.333333333333,4,2,0,40,0,0
32611,-133.333333333333,4,2,0,45,0,0
32861,-133.333333333333,4,2,0,50,0,0
33861,-125,4,2,0,55,0,0
48361,-100,4,1,0,70,0,0
49236,-100,4,1,0,55,0,0
49361,-100,4,1,0,57,0,0
49486,-100,4,1,0,60,0,0
49611,-100,4,1,0,63,0,0
49736,-100,4,1,0,65,0,0
49861,-100,4,2,0,65,0,0
64361,-100,4,1,0,50,0,0
64861,-100,4,1,0,65,0,0
81861,-125,4,1,0,50,0,0
82361,-100,4,1,0,70,0,0
82611,-100,4,2,0,50,0,0
82861,-100,4,2,0,35,0,0
83611,-100,4,2,0,50,0,0
84861,-100,4,2,0,35,0,0
85361,-100,4,2,0,50,0,0
86861,-100,4,2,0,35,0,0
87611,-100,4,2,0,50,0,0
90611,-100,4,2,0,35,0,0
91111,-100,4,2,0,50,0,0
92361,-100,4,2,0,35,0,0
93361,-100,4,2,0,50,0,0
93736,-100,4,2,0,35,0,0
93861,-100,4,2,0,55,0,0
94861,-100,4,2,0,35,0,0
95361,-100,4,2,0,60,0,0
95861,-100,4,1,0,65,0,0
97861,-83.3333333333333,4,1,0,75,0,1
105861,-100,4,2,0,50,0,0
106861,-100,4,2,0,35,0,0
107611,-100,4,2,0,55,0,0
108861,-100,4,2,0,35,0,0
109361,-100,4,2,0,30,0,0
109861,-100,4,1,0,65,0,0
113861,-90.9090909090909,4,1,0,75,0,1
121736,-90.9090909090909,4,1,0,75,0,0
121861,-90.9090909090909,4,1,0,75,0,1
129736,-90.9090909090909,4,1,0,75,0,0
129861,-90.9090909090909,4,1,0,75,0,1
137611,-90.9090909090909,4,1,0,65,0,1
137861,-100,4,1,0,55,0,0
138111,-100,4,1,0,45,0,0
139861,-100,4,1,0,55,0,0
141861,-100,4,1,0,57,0,0
144861,-100,4,1,0,50,0,0
145861,-100,4,1,0,65,0,0
149111,-117.647058823529,4,1,0,55,0,0
149611,-117.647058823529,4,1,0,45,0,0
149861,-100,4,1,0,57,0,0
150611,-100,4,1,0,50,0,0
150861,-100,4,1,0,65,0,0
152861,-100,4,1,0,50,0,0
153861,-90.9090909090909,4,1,0,60,0,0
158861,-90.9090909090909,4,1,0,60,0,0
161861,-90.9090909090909,4,1,0,70,0,1
169611,-90.9090909090909,4,1,0,65,0,1
169861,-90.9090909090909,4,1,0,65,0,0
185861,-100,4,2,0,40,0,0
193861,-100,4,2,0,60,0,0
200861,-100,4,2,0,65,0,0
201861,-90.9090909090909,4,1,0,70,0,1
209736,-90.9090909090909,4,1,0,70,0,0
209861,-90.9090909090909,4,1,0,70,0,1
217861,-90.9090909090909,4,1,0,65,0,0
233361,-90.9090909090909,4,1,0,62,0,0
233861,-100,4,1,0,55,0,0
234361,-100,4,1,0,53,0,0
234861,-100,4,1,0,50,0,0
235361,-100,4,1,0,47,0,0
235861,-100,4,1,0,45,0,0
236361,-100,4,1,0,43,0,0
236861,-100,4,1,0,40,0,0
237361,-100,4,1,0,37,0,0
237861,-100,4,1,0,35,0,0

[Colours]
Combo1 : 255,116,113
Combo2 : 223,152,94
Combo3 : 94,174,255
Combo4 : 237,116,170

[HitObjects]
104,104,1861,6,0,P|168:76|248:84,1,136.000002593994,2|0,0:0|0:0,0:0:0:0:
320,144,2611,2,0,P|256:172|176:164,1,136.000002593994,2|0,0:0|0:0,0:0:0:0:
100,140,3361,1,2,0:0:0:0:
124,232,3611,1,0,0:0:0:0:
292,160,3861,6,0,P|344:136|376:100,2,102.000001945496,2|0|2,0:0|0:0|0:0,0:0:0:0:
344,240,4861,2,0,P|379:203|425:183,2,102.000001945496,2|0|2,0:0|0:0|0:0,0:0:0:0:
360,332,5861,6,0,P|284:320|252:256,1,136.000002593994,2|0,0:0|0:0,0:0:0:0:
272,180,6611,1,2,0:3:0:0:
324,100,6861,2,0,L|248:56,1,68.0000012969971
176,36,7361,6,0,P|132:88|140:160,1,136.000002593994,2|0,0:0|0:0,0:0:0:0:
160,252,8111,1,0,0:0:0:0:
240,188,8361,2,0,L|260:264,1,68.0000012969971,2|0,0:0|0:0,0:0:0:0:
316,336,8861,2,0,P|352:288|352:232,2,102.000001945496,2|0|0,0:0|0:0|0:0,0:0:0:0:
216,308,9861,6,0,P|176:248|92:224,1,136.000002593994,2|2,0:0|0:0,0:0:0:0:
92,120,10611,2,0,L|240:104,1,136.000002593994
356,96,11361,1,2,0:0:0:0:
256,276,11861,2,0,P|198:241|179:185,2,102.000001945496,2|0|2,0:0|0:0|0:0,0:0:0:0:
340,216,12861,2,0,P|399:250|418:306,2,102.000001945496,2|0|2,0:0|0:0|0:0,0:0:0:0:
240,192,13861,2,0,P|183:157|146:100,1,136.000002593994,2|0,0:0|0:0,0:0:0:0:
184,12,14611,1,2,0:3:0:0:
272,48,14861,2,0,B|348:80,1,68.0000012969971,2|0,0:0|0:0,0:0:0:0:
424,108,15361,1,0,0:0:0:0:
500,164,15611,6,0,P|444:208|372:188,1,136.000002593994,2|0,0:0|0:0,0:0:0:0:
288,108,16361,1,2,0:0:0:0:
248,280,16611,1,2,0:0:0:0:
424,252,17111,2,0,L|464:296,2,34.0000006484985,2|2|6,0:0|0:0|0:0,0:0:0:0:
340,160,17611,1,0,0:0:0:0:
240,92,17861,5,4,1:0:0:0:
132,216,18111,2,0,P|177:211|208:188,1,60.0000022888184
276,160,18611,2,0,P|328:164|360:224,1,120.000004577637,2|0,0:0|0:0,0:0:0:0:
316,304,19361,1,2,0:0:0:0:
220,320,19611,2,0,P|175:325|144:348,1,60.0000022888184,0|2,0:0|0:3,0:0:0:0:
72,360,20111,5,0,0:3:0:0:
32,272,20361,2,0,L|0:220,1,60.0000022888184,2|2,0:3|0:3,0:0:0:0:
96,208,20861,2,0,L|128:156,1,60.0000022888184,2|2,0:3|0:3,0:0:0:0:
32,136,21361,2,0,L|0:84,1,60.0000022888184,2|2,0:3|0:3,0:0:0:0:
96,76,21861,6,0,P|148:52|204:72,1,120.000004577637,0|0,0:3|0:0,0:0:0:0:
248,160,22611,2,0,P|303:175|355:147,1,120.000004577637,2|0,0:0|0:0,3:0:0:0:
344,52,23361,2,0,P|396:60|444:120,1,120.000004577637,2|2,0:0|0:0,0:0:0:0:
476,196,24111,5,0,0:0:0:0:
412,268,24361,2,0,P|388:292|344:312,1,60.0000022888184,2|2,0:3|0:3,0:0:0:0:
296,236,24861,2,0,L|240:172,1,60.0000022888184,2|2,0:3|0:3,0:0:0:0:
332,132,25361,2,0,L|388:196,1,60.0000022888184,8|0,0:0|0:3,0:0:0:0:
296,236,25861,5,4,1:0:0:0:
216,288,26111,2,0,L|160:224,1,60.0000022888184,0|0,0:0|0:3,0:0:0:0:
164,144,26611,2,0,P|173:114|201:79,2,60.0000022888184,2|8|0,0:0|0:0|0:0,0:0:0:0:
260,152,27361,1,2,0:0:0:0:
356,160,27611,2,0,P|345:188|327:212,1,60.0000022888184,0|2,0:0|0:0,0:0:0:0:
284,296,28111,6,0,L|332:336,2,60.0000022888184,0|2|2,0:3|0:3|0:3,0:0:0:0:
212,232,28861,2,0,L|164:184,2,60.0000022888184,8|2|2,0:0|0:3|0:3,0:0:0:0:
308,212,29611,1,2,0:3:0:0:
308,212,29861,6,0,P|328:164|316:96,1,120.000004577637,0|0,0:3|0:0,0:0:0:0:
240,40,30611,2,0,L|176:88,1,60.0000022888184,2|8,0:0|0:0,0:0:0:0:
128,148,31111,1,0,0:0:0:0:
164,236,31361,2,0,P|188:268|232:284,1,60.0000022888184,2|0,0:0|0:0,0:0:0:0:
300,280,31861,1,2,0:0:0:0:
384,196,32111,6,0,P|390:162|372:112,1,60.0000022888184,2|2,0:3|0:3,0:0:0:0:
296,76,32611,2,0,L|220:56,1,60.0000022888184,2|8,0:3|0:0,0:3:0:0:
156,128,33111,1,0,0:0:0:0:
160,156,33236,1,0,0:0:0:0:
164,184,33361,1,12,0:0:0:0:
376,120,33861,6,0,P|316:152|316:224,1,128,0|0,0:0|3:0,0:0:0:0:
328,300,34611,1,0,0:0:0:0:
240,340,34861,2,0,P|204:340|160:304,1,64,8|0,0:0|0:0,0:0:0:0:
132,244,35361,1,0,3:0:0:0:
200,176,35611,1,0,0:0:0:0:
200,176,35861,2,0,P|256:168|320:204,1,128,0|0,3:0|0:0,0:0:0:0:
360,288,36611,1,0,0:0:0:0:
424,168,36861,2,0,P|432:120|416:76,2,96,8|2|10,0:0|0:0|0:0,0:0:0:0:
372,248,37861,6,0,P|307:231|236:260,1,128,0|0,3:0|3:0,0:0:0:0:
176,320,38611,1,0,0:0:0:0:
108,240,38861,2,0,P|100:188|116:144,1,96,8|0,0:0|0:0,0:0:0:0:
152,116,39361,1,0,2:0:0:0:
228,192,39611,1,0,0:0:0:0:
312,120,39861,2,0,B|372:148|372:148|432:120,2,128,0|0|8,3:0|3:0|0:0,0:0:0:0:
252,328,41361,1,2,0:3:0:0:
208,116,41861,6,0,L|136:168,1,64,0|0,3:0|0:0,0:0:0:0:
236,204,42361,2,0,L|164:256,1,64,0|0,3:0|0:0,0:0:0:0:
300,140,42861,2,0,P|368:136|424:176,1,128,8|2,0:0|0:0,0:0:0:0:
208,236,43861,6,0,P|152:228|108:192,2,96,0|2|2,3:0|0:0|0:0,0:0:0:0:
280,152,44861,2,0,B|348:128|348:196|416:168,1,128,8|2,0:0|0:0,0:0:0:0:
280,352,45861,6,0,B|276:292|276:292|236:296|200:252,1,128,0|0,3:0|0:0,0:0:0:0:
168,168,46611,1,0,0:0:0:0:
172,59,46861,2,0,P|110:66|72:116,1,128,8|0,0:0|3:0,0:0:0:0:
84,220,47611,1,0,0:0:0:0:
184,204,47861,2,0,L|264:184,1,64,0|0,3:0|0:0,0:0:0:0:
308,300,48361,6,0,B|396:264|388:168,1,160,4|0,0:2|0:0,0:0:0:0:
376,136,48986,1,0,0:0:0:0:
348,104,49111,1,0,0:0:0:0:
312,88,49236,1,8,0:3:0:0:
272,76,49361,5,8,0:3:0:0:
256,104,49486,1,8,0:3:0:0:
240,132,49611,1,8,0:3:0:0:
224,160,49736,1,8,0:3:0:0:
208,188,49861,6,0,L|156:280,1,80,4|0,0:0|0:0,0:0:0:0:
364,288,50611,1,0,0:0:0:0:
364,288,50736,1,0,0:0:0:0:
364,288,50861,2,0,P|393:317|480:332,2,120,12|0|0,1:2|0:0|0:0,0:0:0:0:
264,152,51861,2,0,B|208:112|208:112|168:136|121:135,1,160,4|0,2:0|0:0,0:0:0:0:
4,176,52611,1,0,0:0:0:0:
56,284,52861,2,0,P|92:320|156:344,2,120,12|0|0,1:2|0:0|0:0,0:0:0:0:
124,168,53861,6,0,P|176:104|164:16,1,160,4|0,0:0|0:0,0:0:0:0:
80,80,54611,1,0,0:0:0:0:
80,80,54736,1,0,0:0:0:0:
80,80,54861,2,0,P|28:144|40:232,1,160,12|0,1:2|0:0,0:0:0:0:
112,320,55611,1,0,0:0:0:0:
194,201,55861,6,0,P|270:176|358:206,1,160,4|0,0:0|0:0,0:0:0:0:
448,300,56611,1,0,0:0:0:0:
448,300,56736,1,0,0:0:0:0:
448,300,56861,1,12,0:0:0:0:
336,340,57111,1,2,2:0:0:0:
304,224,57361,2,0,P|283:177|243:145,1,80,2|0,0:3|0:0,0:0:0:0:
132,84,57861,6,0,P|188:24|280:28,1,160,4|0,0:0|0:0,0:0:0:0:
248,140,58611,1,0,0:0:0:0:
248,140,58736,1,0,0:0:0:0:
248,140,58861,2,0,P|283:161|294:221,1,80,12|0,1:2|0:0,0:0:0:0:
300,332,59361,1,0,0:0:0:0:
404,208,59611,1,0,0:0:0:0:
336,88,59861,6,0,P|296:80|248:52,1,80,4|0,1:0|0:0,0:0:0:0:
136,24,60361,1,0,0:0:0:0:
96,184,60611,1,0,0:0:0:0:
96,184,60736,1,0,0:0:0:0:
96,184,60861,2,0,P|140:184|184:160,1,80,12|0,1:2|0:0,0:0:0:0:
284,92,61361,1,0,0:0:0:0:
424,280,61861,6,0,B|351:320|353:238|273:286,1,160,4|0,2:0|0:0,0:0:0:0:
168,344,62611,1,0,0:0:0:0:
180,224,62861,2,0,P|176:184|124:140,1,80,8|0,0:0|0:0,0:0:0:0:
56,80,63361,1,0,3:0:0:0:
324,124,63861,5,8,0:3:0:0:
360,156,63986,1,8,0:3:0:0:
368,204,64111,1,8,0:3:0:0:
340,244,64236,1,8,0:3:0:0:
292,256,64361,1,8,0:3:0:0:
248,236,64486,1,8,0:3:0:0:
216,200,64611,2,0,P|192:172|124:160,1,80,0|4,0:0|0:0,0:0:0:0:
112,152,64986,5,8,0:3:0:0:
75,167,65111,1,8,0:3:0:0:
56,201,65236,1,8,0:3:0:0:
61,240,65361,1,8,0:3:0:0:
88,269,65486,2,0,L|232:292,1,120,2|4,0:3|0:1,0:0:0:0:
372,220,66111,6,0,P|356:184|368:128,1,80,0|0,0:0|3:0,0:0:0:0:
264,44,66611,1,0,0:0:0:0:
264,44,66736,1,0,0:0:0:0:
264,44,66861,2,0,B|136:140,1,160,8|0,0:0|3:0,0:0:0:0:
180,296,67611,1,0,0:0:0:0:
352,84,68111,5,0,0:0:0:0:
304,212,68361,1,0,3:0:0:0:
212,112,68611,1,0,0:0:0:0:
212,112,68736,1,0,0:0:0:0:
212,112,68861,2,0,P|176:144|100:164,1,120,8|0,0:0|0:0,0:0:0:0:
56,176,69361,2,0,P|56:220|84:256,1,80,0|0,3:0|0:0,0:0:0:0:
256,192,69861,1,0,3:0:0:0:
64,344,70611,5,0,0:0:0:0:
64,344,70736,1,0,0:0:0:0:
64,344,70861,2,0,B|108:324|100:276|100:276|92:228|136:208,1,160,8|0,0:0|3:0,0:0:0:0:
228,76,71861,6,0,P|260:96|308:92,1,80,0|0,3:0|0:0,0:0:0:0:
404,36,72361,1,0,3:0:0:0:
464,136,72611,1,0,0:0:0:0:
301,94,72861,1,12,0:2:0:0:
321,286,73111,1,0,0:0:0:0:
493,170,73361,1,12,0:2:0:0:
301,94,73611,1,0,0:0:0:0:
321,286,73861,5,4,0:0:0:0:
220,68,74361,1,0,3:0:0:0:
140,160,74611,1,0,0:0:0:0:
140,160,74736,1,0,0:0:0:0:
140,160,74861,2,0,B|188:188|148:236|104:288|196:312,1,160,8|0,0:0|3:0,0:0:0:0:
340,136,75861,6,0,P|368:104|412:88,1,80,0|0,3:0|0:0,0:0:0:0:
496,24,76361,1,0,3:0:0:0:
428,184,76611,1,0,0:0:0:0:
428,184,76736,1,0,0:0:0:0:
428,184,76861,2,0,P|400:216|356:224,1,80,0|0,3:0|0:0,0:0:0:0:
316,204,77236,2,0,P|264:184|176:212,1,120
248,324,77861,5,0,3:0:0:0:
144,268,78361,1,0,3:0:0:0:
276,188,78611,1,0,0:0:0:0:
276,188,78736,1,0,0:0:0:0:
276,188,78861,2,0,P|212:136|124:124,1,160,8|0,0:0|3:0,0:0:0:0:
20,92,79611,1,0,0:0:0:0:
172,244,79861,6,0,P|232:292|316:300,1,160,4|8,0:2|0:0,0:0:0:0:
420,248,80611,1,0,0:0:0:0:
352,112,80861,5,8,2:3:0:0:
315,96,80986,1,8,2:3:0:0:
275,96,81111,1,8,2:3:0:0:
237,107,81236,1,8,2:3:0:0:
201,125,81361,1,8,2:3:0:0:
165,141,81486,1,8,2:3:0:0:
126,150,81611,1,8,2:3:0:0:
86,146,81736,1,8,2:3:0:0:
52,132,81861,2,0,P|22:114|-5:86,2,64,0|0|4,0:0|0:0|0:0,0:0:0:0:
280,204,82861,5,8,2:3:0:0:
304,212,82986,1,8,2:3:0:0:
328,212,83111,1,8,2:3:0:0:
352,208,83236,1,8,2:3:0:0:
372,196,83361,1,8,2:3:0:0:
420,92,83611,1,8,0:0:0:0:
332,24,83861,1,0,0:3:0:0:
320,136,84111,1,0,2:3:0:0:
224,76,84361,2,0,P|196:108|152:124,1,80,8|0,0:0|0:3,0:2:0:0:
56,112,84861,5,8,2:3:0:0:
68,96,84986,1,8,2:3:0:0:
84,76,85111,2,0,P|112:44|156:28,1,80,8|0,0:3|0:3,0:2:0:0:
252,68,85611,1,0,2:3:0:0:
172,156,85861,2,0,L|108:224,1,80,0|0,2:3|2:3,0:2:0:0:
44,312,86361,1,8,2:0:0:0:
164,328,86611,1,0,2:3:0:0:
284,284,86861,5,8,0:3:0:0:
304,264,86986,1,8,0:3:0:0:
308,236,87111,1,8,0:3:0:0:
300,208,87236,1,8,0:3:0:0:
280,188,87361,1,8,0:3:0:0:
168,128,87611,1,0,0:0:0:0:
276,56,87861,5,0,2:3:0:0:
376,136,88111,1,0,2:3:0:0:
376,136,88361,1,8,2:0:0:0:
284,224,88611,2,0,L|248:256,2,40,0|0|0,2:3|2:3|2:3,0:2:0:0:
376,136,89111,1,0,2:3:0:0:
344,312,89361,1,12,0:0:0:0:
188,108,89861,5,4,2:0:0:0:
116,204,90111,1,0,2:3:0:0:
200,288,90361,1,8,2:0:0:0:
280,200,90611,1,8,2:3:0:0:
260,192,90736,1,8,2:3:0:0:
240,184,90861,1,8,2:3:0:0:
128,136,91111,1,0,0:3:0:0:
124,256,91361,2,0,L|36:208,1,80,0|8,0:3|0:0,0:2:0:0:
52,96,91861,5,0,0:3:0:0:
152,160,92111,1,0,0:3:0:0:
240,92,92361,1,8,2:3:0:0:
252,112,92486,1,8,0:3:0:0:
260,136,92611,1,8,0:3:0:0:
264,160,92736,1,8,0:3:0:0:
264,184,92861,1,8,0:3:0:0:
260,208,92986,1,8,0:3:0:0:
252,232,93111,1,8,0:3:0:0:
236,352,93361,2,0,P|200:340|168:308,1,80,8|0,0:0|0:0,0:0:0:0:
156,260,93736,1,8,0:0:0:0:
148,208,93861,6,0,P|136:148|76:96,2,120,8|0|0,0:3|0:3|0:3,0:0:0:0:
52,252,94861,1,8,0:3:0:0:
60,280,94986,1,8,0:3:0:0:
80,300,95111,1,8,0:3:0:0:
104,312,95236,1,8,0:3:0:0:
132,320,95361,2,0,B|180:304|216:312|216:312|296:248,1,160,8|12,0:0|1:0,0:3:0:0:
400,92,96111,5,8,0:3:0:0:
400,92,96236,1,8,0:3:0:0:
400,92,96361,1,8,0:3:0:0:
256,176,96611,1,12,0:0:0:0:
108,88,96861,1,8,0:3:0:0:
80,128,96986,1,8,0:3:0:0:
68,176,97111,1,8,0:3:0:0:
80,224,97236,1,8,0:3:0:0:
112,260,97361,1,12,0:0:0:0:
256,176,97611,1,0,0:0:0:0:
388,84,97861,5,4,1:0:0:0:
268,3,98111,1,0,0:0:0:0:
187,121,98361,1,4,2:0:0:0:
307,202,98611,1,0,0:0:0:0:
452,188,98861,6,0,P|456:236|428:284,1,95.9999970703126,4|0,2:0|0:0,0:0:0:0:
296,308,99361,2,0,P|252:296|184:256,1,95.9999970703126,12|0,2:0|0:2,0:0:0:0:
168,248,99736,1,0,0:2:0:0:
140,212,99861,2,0,B|104:180|144:96|144:96|76:52,1,191.999994140625,4|4,2:2|2:0,0:0:0:0:
4,192,100611,1,8,0:0:0:0:
68,320,100861,2,0,P|112:324|164:296,1,95.9999970703126,4|0,2:0|0:2,0:0:0:0:
264,204,101361,1,12,2:0:0:0:
372,108,101611,1,0,0:0:0:0:
372,108,101736,1,0,0:0:0:0:
372,108,101861,6,0,B|348:152|372:196|372:196|396:240|345:322,1,191.999994140625,4|4,0:0|2:0,2:0:0:0:
276,368,102611,1,0,0:0:0:0:
256,228,102861,2,0,B|224:204|224:204|188:236|104:252,1,143.999995605469,4|0,2:0|0:2,0:0:0:0:
96,260,103361,1,12,2:0:0:0:
40,128,103611,1,0,0:0:0:0:
184,116,103861,2,0,B|240:136|272:92|272:92|304:44|384:72,1,191.999994140625,4|4,2:0|2:0,0:0:0:0:
356,208,104611,1,8,0:0:0:0:
356,208,104736,1,0,0:0:0:0:
356,208,104861,1,4,2:0:0:0:
264,316,105111,1,0,0:0:0:0:
196,188,105361,2,0,P|216:140|280:128,1,95.9999970703126,12|0,2:0|0:2,0:0:0:0:
404,88,105861,5,4,1:0:0:0:
428,176,106111,1,0,0:3:0:0:
404,260,106361,2,0,P|372:288|324:296,1,80,8|0,0:3|0:3,0:0:0:0:
240,280,106861,1,8,0:3:0:0:
220,270,106986,1,8,0:3:0:0:
201,261,107111,1,8,0:3:0:0:
186,248,107236,1,8,0:3:0:0:
170,235,107361,1,8,0:3:0:0:
128,124,107611,1,0,0:3:0:0:
272,40,107861,5,4,1:0:0:0:
352,116,108111,2,0,P|316:144|268:152,1,80,0|8,0:3|0:3,0:0:0:0:
180,192,108611,1,0,0:3:0:0:
260,260,108861,1,8,0:3:0:0:
275,270,108986,1,8,0:3:0:0:
291,282,109111,1,8,0:3:0:0:
308,294,109236,1,8,0:3:0:0:
324,306,109361,2,0,L|375:343,2,40,8|0|0,0:3|0:3|0:3,0:3:0:0:
136,148,109861,5,4,0:0:0:0:
272,300,110611,5,4,0:0:0:0:
412,192,110861,1,4,0:0:0:0:
236,44,111361,5,4,0:2:0:0:
144,248,111611,1,4,0:2:0:0:
368,228,111861,1,4,0:2:0:0:
256,192,111986,12,12,113361,0:0:0:0:
348,120,113861,6,0,P|272:88|172:96,1,176.000005371094,0|8,0:0|0:0,0:0:0:0:
100,176,114611,1,0,0:0:0:0:
168,280,114861,2,0,P|216:296|264:292,1,88.000002685547,0|0,3:0|0:0,0:0:0:0:
364,240,115361,1,0,3:0:0:0:
244,80,115611,1,8,0:2:0:0:
244,80,115736,1,0,0:0:0:0:
244,80,115861,6,0,P|196:120|172:200,2,132.00000402832,0|2|2,3:0|0:2|0:2,0:0:0:0:
344,152,116861,2,0,B|396:180|396:180|472:164,2,132.00000402832,0|2|2,3:0|0:2|0:2,0:0:0:0:
244,80,117861,2,0,B|208:52|208:52|156:112|72:80,1,176.000005371094,4|8,0:0|0:0,0:0:0:0:
0,20,118611,1,0,0:0:0:0:
24,140,118861,2,0,P|64:212|16:304,1,176.000005371094,0|0,3:0|3:0,0:0:0:0:
152,272,119611,6,0,L|224:200,1,88.000002685547,8|0,0:0|3:0,0:0:0:0:
316,140,120111,1,0,0:0:0:0:
368,252,120361,2,0,L|296:324,1,88.000002685547,8|0,0:0|0:0,0:0:0:0:
272,196,120861,1,4,2:0:0:0:
208,24,121236,1,2,0:3:0:0:
136,148,121611,1,4,2:0:0:0:
304,104,121861,6,0,P|360:176|320:280,1,176.000005371094,4|8,0:0|0:0,0:0:0:0:
248,332,122611,1,0,0:0:0:0:
372,332,122861,2,0,L|468:280,1,88.000002685547,0|0,3:0|0:0,0:0:0:0:
500,176,123361,1,0,3:0:0:0:
277,133,123611,1,0,0:0:0:0:
277,133,123736,1,0,0:0:0:0:
277,133,123861,6,0,B|255:94|255:94|216:84|161:27,2,132.00000402832,0|2|2,3:0|0:2|0:2,0:0:0:0:
328,248,124861,1,0,0:0:0:0:
328,248,124986,2,0,P|376:256|416:240,1,88.000002685547,8|0,2:2|0:0,0:0:0:0:
448,220,125361,1,8,2:0:0:0:
400,92,125611,1,0,0:0:0:0:
400,92,125861,6,0,L|232:176,1,176.000005371094,4|8,0:0|0:0,0:0:0:0:
128,216,126611,1,0,0:0:0:0:
144,92,126861,2,0,P|180:64|200:20,1,88.000002685547,0|0,3:0|0:0,0:0:0:0:
242,170,127361,1,0,3:0:0:0:
284,304,127611,1,0,0:0:0:0:
284,304,127736,1,0,0:0:0:0:
284,304,127861,6,0,P|303:265|338:238,1,88.000002685547,2|0,0:3|0:0,0:0:0:0:
448,184,128361,2,0,L|408:100,1,88.000002685547,8|0,0:0|0:0,0:0:0:0:
324,248,128861,1,12,2:0:0:0:
288,88,129111,1,8,0:0:0:0:
288,88,129236,2,0,B|236:112|216:136|216:136|171:141,1,132.00000402832,8|8,0:3|0:0,0:0:0:0:
48,136,129861,6,0,P|40:224|116:296,1,176.000005371094,4|8,0:0|0:0,0:0:0:0:
196,216,130611,1,0,0:0:0:0:
300,148,130861,2,0,P|340:136|396:156,1,88.000002685547,0|0,3:0|0:0,0:0:0:0:
344,284,131361,1,0,3:0:0:0:
204,340,131611,2,0,P|192:304|204:252,1,88.000002685547,8|0,0:0|3:0,0:0:0:0:
292,172,132111,1,0,0:0:0:0:
292,172,132361,1,8,0:0:0:0:
144,72,132611,1,0,0:0:0:0:
144,72,132736,1,0,0:0:0:0:
144,72,132861,2,0,B|104:48|63:67|63:67|0:5,2,132.00000402832,0|2|8,3:0|0:2|0:0,0:0:0:0:
212,172,133861,6,0,P|212:260|320:284,1,176.000005371094,4|8,0:0|0:0,0:0:0:0:
404,312,134611,1,0,0:0:0:0:
476,212,134861,2,0,L|388:168,1,88.000002685547,0|0,3:0|0:0,0:0:0:0:
288,116,135361,1,0,3:0:0:0:
296,232,135611,1,8,0:0:0:0:
384,80,135861,2,0,P|332:36|240:28,1,132.00000402832,2|0,0:3|0:0,0:0:0:0:
224,40,136361,2,0,L|132:120,1,88.000002685547,8|0,0:0|0:0,0:0:0:0:
256,176,136861,6,0,B|268:228|232:272|232:272|280:356,1,176.000005371094,0|12,3:0|2:0,0:0:0:0:
388,356,137611,1,0,0:2:0:0:
260,180,137861,1,0,0:2:0:0:
260,180,138111,1,0,0:2:0:0:
352,92,139861,5,0,2:2:0:0:
352,92,140111,1,0,2:2:0:0:
44,96,141111,5,0,2:0:0:0:
44,96,141236,1,0,2:0:0:0:
44,96,141361,2,0,P|88:108|128:144,1,80,12|0,0:2|2:0,2:0:0:0:
172,276,141861,5,4,0:0:0:0:
280,160,142111,1,0,0:0:0:0:
380,104,142361,2,0,P|324:50|246:49,1,160,0|8,3:0|0:0,0:0:0:0:
376,220,143111,1,0,0:0:0:0:
236,156,143361,1,0,3:0:0:0:
260,272,143611,1,0,0:0:0:0:
236,156,143861,6,0,P|192:160|136:120,1,80,0|0,3:0|0:0,0:0:0:0:
56,84,144361,2,0,P|22:105|6:141,1,80,0|0,3:0|0:0,0:0:0:0:
56,252,144861,2,0,L|44:284,6,26.6666666666667,8|8|8|8|8|8|8,2:3|2:3|2:3|2:3|2:3|2:3|2:3,0:0:0:0:
88,156,145611,1,0,0:0:0:0:
208,272,145861,5,4,0:0:0:0:
212,92,146111,2,0,P|256:96|316:128,1,80,0|0,0:0|3:0,0:0:0:0:
372,196,146611,2,0,B|356:236|356:236|312:272,2,80,0|8|0,0:0|0:0|0:0,0:0:0:0:
380,68,147361,1,0,3:0:0:0:
264,120,147611,1,0,0:0:0:0:
352,296,147861,5,0,3:0:0:0:
352,296,148111,2,0,P|308:304|252:288,1,80,0|0,0:0|3:0,0:0:0:0:
236,176,148611,2,0,L|288:96,1,80,0|8,0:0|0:0,0:0:0:0:
440,108,149111,1,0,0:0:0:0:
440,108,149361,2,0,L|400:168,1,68.0000012969971,0|8,0:3|0:0,0:0:0:0:
276,136,149861,6,0,P|312:212|276:296,1,160,4|0,0:0|3:0,0:0:0:0:
208,336,150611,1,0,0:0:0:0:
372,320,150861,2,0,P|380:280|408:240,1,80,8|0,0:0|0:0,0:0:0:0:
272,232,151361,2,0,P|264:192|236:152,1,80,0|0,3:0|0:0,0:0:0:0:
368,136,151861,5,0,3:0:0:0:
292,308,152111,1,0,0:0:0:0:
243,159,152361,2,0,B|228:116|228:116|180:88,1,80,0|0,3:0|0:0,0:0:0:0:
72,112,152861,2,0,L|44:121,6,26.6666666666667,8|8|8|8|8|8|8,0:3|0:3|0:3|0:3|0:3|0:3|0:3,0:0:0:0:
160,96,153611,1,8,0:2:0:0:
328,240,153861,5,4,0:0:0:0:
292,104,154111,1,0,0:0:0:0:
172,176,154361,2,0,B|200:288,1,88.000002685547
308,176,154861,1,12,2:0:0:0:
232,28,155111,1,4,2:0:0:0:
368,96,155361,1,4,2:0:0:0:
208,136,155611,1,4,2:0:0:0:
360,304,155861,6,4,P|356:216|400:144,1,176.000005371094
268,188,156611,1,0,0:0:0:0:
300,52,156861,2,4,L|192:88,1,88.000002685547,12|2,0:0|2:0,0:0:0:0:
268,224,157361,1,0,0:0:0:0:
156,136,157611,1,0,0:0:0:0:
352,164,157861,6,0,P|372:248|304:324,1,176.000005371094,4|0,0:0|0:0,0:0:0:0:
220,220,158611,1,0,0:0:0:0:
120,320,158861,1,12,2:0:0:0:
152,120,159111,1,4,2:0:0:0:
248,236,159361,1,4,2:0:0:0:
76,208,159611,1,4,2:0:0:0:
256,108,159861,6,0,P|280:144|328:160,1,88.000002685547,4|0,0:0|0:0,0:0:0:0:
456,200,160361,2,0,L|428:256,3,44.0000013427735,0|0|0|0,0:2|0:2|0:2|0:2,0:2:0:0:
492,128,160861,2,0,B|464:96|464:96|412:92,1,88.000002685547,8|2,0:0|2:0,0:0:0:0:
280,124,161361,1,0,0:0:0:0:
392,280,161611,1,0,0:0:0:0:
216,248,161861,5,4,0:0:0:0:
216,248,162111,1,0,0:0:0:0:
408,132,162361,2,0,P|443:183|437:248,1,88.000002685547,4|0,2:0|0:0,0:0:0:0:
364,320,162861,2,0,L|248:336,1,88.000002685547,12|0,0:2|0:0,0:0:0:0:
152,268,163361,1,4,2:0:0:0:
360,184,163611,1,0,0:0:0:0:
244,92,163861,5,4,0:0:0:0:
288,284,164111,1,0,0:0:0:0:
128,188,164361,2,0,P|84:176|32:188,1,88.000002685547,4|0,2:0|0:0,0:0:0:0:
180,296,164861,1,12,2:0:0:0:
228,120,165111,1,0,0:0:0:0:
308,228,165361,1,4,2:0:0:0:
160,276,165611,1,0,0:0:0:0:
316,244,165861,6,0,P|280:164|192:136,1,176.000005371094,4|4,0:0|2:0,0:0:0:0:
48,180,166611,1,0,0:0:0:0:
152,296,166861,1,12,0:2:0:0:
384,80,167361,1,4,2:0:0:0:
352,236,167611,1,0,0:0:0:0:
224,104,167861,5,12,0:2:0:0:
156,300,168111,1,8,0:3:0:0:
156,300,168236,1,0,0:3:0:0:
156,300,168361,1,0,0:3:0:0:
320,156,168611,1,8,0:2:0:0:
100,220,168861,1,8,0:3:0:0:
100,220,168986,1,0,0:3:0:0:
100,220,169111,1,0,0:3:0:0:
308,248,169361,1,12,2:0:0:0:
128,140,169611,1,0,0:0:0:0:
212,340,169861,5,6,0:2:0:0:
124,112,185861,5,4,1:0:0:0:
148,196,186111,1,2,0:0:0:0:
228,228,186361,1,2,0:0:0:0:
284,160,186611,1,2,0:0:0:0:
284,160,186861,1,10,0:3:0:0:
368,133,187111,1,2,0:0:0:0:
394,216,187361,1,2,0:0:0:0:
312,252,187611,1,2,2:0:0:0:
312,252,187736,1,2,2:0:0:0:
312,252,187861,5,2,0:0:0:0:
232,284,188111,2,0,P|192:296|136:272,1,80,2|2,0:0|0:0,0:0:0:0:
100,216,188611,1,2,0:0:0:0:
164,156,188861,1,10,0:3:0:0:
236,104,189111,1,2,0:0:0:0:
236,104,189236,1,2,0:0:0:0:
236,104,189361,1,2,0:0:0:0:
308,232,189611,1,2,0:0:0:0:
308,232,189736,1,2,0:0:0:0:
308,232,189861,5,2,0:0:0:0:
388,264,190111,2,0,P|364:296|316:312,1,80,2|2,0:0|0:0,0:0:0:0:
244,280,190611,1,2,0:0:0:0:
216,196,190861,1,10,0:3:0:0:
256,116,191111,1,2,0:0:0:0:
176,80,191361,1,2,0:0:0:0:
132,156,191611,2,0,L|96:136,3,26.6666666666667,2|2|2|2,0:0|0:0|0:0|0:0,0:0:0:0:
136,236,192111,6,0,B|168:264|168:264|228:256,1,80,2|2,0:0|0:0,0:0:0:0:
288,232,192611,1,2,0:0:0:0:
300,144,192861,1,10,0:3:0:0:
220,108,193111,2,0,P|244:76|292:56,1,80,2|2,0:0|0:0,0:0:0:0:
364,80,193611,1,10,0:0:0:0:
364,80,193861,6,0,P|394:105|392:232,1,160,4|2,0:0|0:0,0:0:0:0:
336,280,194611,1,2,0:0:0:0:
248,244,194861,1,10,0:0:0:0:
216,152,195111,1,2,0:0:0:0:
216,152,195361,1,2,0:0:0:0:
296,84,195611,1,2,0:0:0:0:
296,84,195736,1,2,0:0:0:0:
296,84,195861,5,2,0:0:0:0:
192,72,196111,1,2,0:0:0:0:
124,152,196361,1,2,0:0:0:0:
156,252,196611,2,0,B|176:288|176:288|232:312,1,80,2|10,0:0|0:3,0:0:0:0:
312,332,197111,1,2,0:0:0:0:
268,216,197361,1,2,0:0:0:0:
332,108,197611,2,0,L|296:84,3,26.6666666666667,2|2|2|2,0:0|0:0|0:0|0:0,0:0:0:0:
208,72,198111,5,2,0:0:0:0:
160,164,198361,2,0,B|164:208|164:208|208:260,1,80,2|2,0:0|0:0,0:0:0:0:
280,280,198861,1,10,0:3:0:0:
268,176,199111,1,2,0:0:0:0:
368,156,199361,1,2,0:0:0:0:
300,76,199611,6,0,P|264:56|192:52,1,80,2|2,0:0|0:0,0:0:0:0:
132,96,200111,2,0,L|60:160,1,80,2|2,0:0|0:0,0:0:0:0:
136,232,200611,1,0,0:0:0:0:
272,180,200861,5,4,2:0:0:0:
400,248,201111,1,4,2:0:0:0:
372,124,201361,1,8,0:0:0:0:
372,124,201486,1,8,0:0:0:0:
372,124,201611,1,8,0:0:0:0:
372,124,201736,1,8,0:0:0:0:
372,124,201861,6,0,P|296:84|204:92,1,176.000005371094,4|4,0:0|2:0,0:0:0:0:
116,184,202611,1,0,0:0:0:0:
212,276,202861,2,0,B|256:256|276:184,1,88.000002685547,12|0,2:0|0:0,0:0:0:0:
264,76,203361,1,4,2:0:0:0:
376,144,203611,1,0,0:2:0:0:
376,144,203736,1,0,0:2:0:0:
376,144,203861,6,0,P|420:188|388:292,1,176.000005371094,4|4,2:0|2:0,0:0:0:0:
260,340,204611,1,2,0:2:0:0:
236,200,204861,2,0,B|184:200|156:232|156:232|64:176,1,176.000005371094,12|12,2:0|2:0,0:0:0:0:
92,328,205611,1,0,0:0:0:0:
92,328,205736,1,0,0:0:0:0:
92,328,205861,6,0,L|284:320,1,176.000005371094,4|4,0:0|2:0,0:0:0:0:
224,188,206611,1,0,0:0:0:0:
92,240,206861,2,0,P|124:164|72:76,1,176.000005371094,12|4,2:0|2:0,0:0:0:0:
268,80,207611,1,0,0:0:0:0:
268,80,207736,1,0,0:0:0:0:
268,80,207861,2,0,P|229:156|261:235,1,176.000005371094,4|4,2:0|2:0,0:0:0:0:
372,320,208611,1,0,0:0:0:0:
192,296,208861,5,8,0:0:0:0:
336,168,209111,1,8,0:3:0:0:
336,168,209236,1,8,0:3:0:0:
336,168,209361,1,8,0:0:0:0:
192,76,209611,1,8,0:3:0:0:
192,76,209736,1,8,0:3:0:0:
192,76,209861,6,0,B|184:132|163:157|163:157|224:232,1,176.000005371094,4|4,0:0|2:0,0:0:0:0:
320,324,210611,1,0,0:0:0:0:
180,328,210861,2,0,P|160:284|116:264,1,88.000002685547,12|0,2:0|0:0,0:0:0:0:
316,236,211361,1,4,2:0:0:0:
180,192,211611,1,0,0:0:0:0:
180,192,211736,1,0,0:0:0:0:
180,191,211861,2,0,P|209:134|266:102,2,132.00000402832,4|2|2,2:0|0:2|0:2,0:0:0:0:
316,236,212862,2,0,P|374:210|403:152,2,132.00000402832,12|2|2,2:0|0:2|0:2,0:0:0:0:
220,132,213861,6,0,P|141:96|44:136,1,176.000005371094,4|4,2:0|2:0,0:0:0:0:
152,20,214611,1,0,0:0:0:0:
264,200,214861,1,12,2:0:0:0:
256,192,214986,12,4,216861,2:0:0:0:
140,112,217361,5,12,2:0:0:0:
328,300,217861,6,0,B|272:252|272:252|316:204|292:144,1,176.000005371094,4|8,0:0|0:0,0:0:0:0:
228,56,218611,1,0,0:0:0:0:
124,120,218861,2,0,P|100:196|16:244,1,176.000005371094,0|0,3:0|3:0,0:0:0:0:
44,124,219611,1,8,0:0:0:0:
136,312,219861,2,0,P|168:248|256:220,2,132.00000402832,0|2|2,0:0|0:2|0:2,0:0:0:0:
20,243,220861,2,0,L|112:80,1,176.000005371094,0|8,3:0|0:0,0:0:0:0:
212,28,221611,1,0,0:0:0:0:
204,152,221861,6,0,B|248:139|288:167|288:167|324:163|384:123,1,176.000005371094,0|8,3:0|0:0,0:0:0:0:
436,236,222611,1,0,0:0:0:0:
360,332,222861,2,0,B|315:302|279:298|279:298|239:326|195:313,1,176.000005371094,0|0,3:0|3:0,0:0:0:0:
84,264,223611,1,8,0:0:0:0:
88,140,223862,6,0,P|97:97|123:61,1,88.000002685547,0|0,3:0|0:0,0:0:0:0:
236,52,224361,2,0,L|336:52,1,88.000002685547,8|0,0:0|0:0,0:0:0:0:
248,220,224861,1,12,2:0:0:0:
416,128,225111,1,0,0:0:0:0:
416,128,225236,1,12,0:2:0:0:
416,128,225361,1,0,2:0:0:0:
256,64,225611,1,12,2:0:0:0:
380,236,225861,6,0,P|332:324|256:344,1,176.000005371094,4|8,0:0|0:0,0:0:0:0:
260,220,226611,2,0,P|232:196|212:140,1,88.000002685547,0|0,0:0|3:0,0:0:0:0:
180,32,227111,1,0,0:0:0:0:
296,72,227361,1,0,3:0:0:0:
296,72,227861,2,0,B|360:116|360:116|380:188,2,132.00000402832,0|2|2,3:0|0:2|0:2,0:0:0:0:
252,188,228861,2,0,B|188:144|188:144|168:72,2,132.00000402832,0|2|2,3:0|0:2|0:2,0:0:0:0:
344,272,229861,6,0,P|268:324|160:320,1,176.000005371094,4|8,0:0|3:0,0:0:0:0:
92,256,230611,1,0,0:0:0:0:
140,144,230861,2,0,B|158:91|203:94|203:94|227:49|274:49,1,176.000005371094,0|0,3:0|3:0,0:0:0:0:
368,132,231611,1,0,0:0:0:0:
304,236,231861,1,2,3:3:0:0:
428,248,232111,1,0,0:0:0:0:
368,132,232361,2,0,P|324:132|284:104,1,88.000002685547,0|0,3:0|0:0,0:0:0:0:
376,276,232861,6,0,P|304:236|208:240,1,176.000005371094,4|8,2:0|0:3,0:0:0:0:
172,256,233486,1,8,0:3:0:0:
136,280,233611,1,8,0:3:0:0:
116,320,233736,1,8,0:3:0:0:
256,192,233861,12,4,237861,2:0:0:0:
