osu file format v12

[General]
AudioFilename: Calm Eyes Fixed On Me, Screamingon vocal.mp3
AudioLeadIn: 0
PreviewTime: 65251
Countdown: 0
SampleSet: Normal
StackLeniency: 0.7
Mode: 0
LetterboxInBreaks: 1
WidescreenStoryboard: 0

[Editor]
DistanceSpacing: 1.1
BeatDivisor: 4
GridSize: 4

[Metadata]
Title:Calm Eyes Fixed On Me, Screaming
TitleUnicode:Calm Eyes Fixed On Me, Screaming
Artist:Foreground Eclipse
ArtistUnicode:Foreground Eclipse
Creator:Alternative
Version:Hard
Source:Touhou
Tags:Cirno Big fairy Lunate elf screamo emo hardrock meramipop Tears Will Become Melodies Tonight teto merami suzuori c79 東方紅魔郷 ~ the embodiment of scarlet Devil
BeatmapID:331109
BeatmapSetID:130227

[Difficulty]
HPDrainRate:5
CircleSize:4
OverallDifficulty:6
ApproachRate:8
SliderMultiplier:1.62
SliderTickRate:1

[Events]
//Background and Video events
0,0,"8673356.jpg",0,0
//Break Periods
2,86646,95804
2,139797,149281
2,171101,183846
//Storyboard Layer 0 (Background)
//Storyboard Layer 1 (Fail)
//Storyboard Layer 2 (Pass)
//Storyboard Layer 3 (Foreground)
//Storyboard Sound Samples
//Background Colour Transformations
3,100,163,162,255

[TimingPoints]
1340,326.086956521739,4,2,1,40,1,0
3622,326.086956521739,4,2,1,40,1,0
13730,326.086956521739,4,1,1,60,1,0
16257,-133.333333333333,4,2,1,20,0,0
16338,-111.111111111111,4,2,1,60,0,0
20251,-100,4,2,1,60,0,1
20333,-100,4,2,1,60,0,0
20740,-90.9090909090909,4,2,1,60,0,1
20822,-90.9090909090909,4,2,1,60,0,0
21230,-83.3333333333333,4,2,1,60,0,1
21311,-83.3333333333333,4,2,1,60,0,0
21556,326.086956521739,4,2,1,60,1,0
21556,-111.111111111111,4,1,1,60,0,0
22860,-100,4,2,1,60,0,0
23838,326.086956521739,4,2,1,60,1,0
23838,-111.111111111111,4,1,1,60,0,0
26120,-133.333333333333,4,2,1,60,0,0
26365,-133.333333333333,4,2,1,15,0,0
26446,-100,4,2,1,60,0,0
34272,-111.111111111111,4,1,1,60,0,0
44707,-111.111111111111,4,1,1,60,0,0
55142,-111.111111111111,4,2,1,50,0,0
62968,-111.111111111111,4,1,1,50,0,0
64924,-181.818181818181,4,2,1,40,0,0
65169,-181.818181818181,4,2,1,15,0,0
65251,-181.818181818181,4,2,1,40,0,0
65495,-181.818181818181,4,2,1,15,0,0
65577,-133.333333333333,4,2,1,60,0,1
73403,-133.333333333333,4,2,1,60,0,0
76011,-117.647058823529,4,2,1,65,0,1
86446,-111.111111111111,4,2,1,60,0,0
88728,326.086956521739,4,2,1,60,1,0
96554,-111.111111111111,4,2,1,60,0,0
106581,-111.111111111111,4,2,1,15,0,0
106662,-111.111111111111,4,2,1,60,0,0
106907,-111.111111111111,4,2,1,15,0,0
106988,-125,4,1,1,50,0,0
116771,-125,4,2,1,60,0,0
117423,-133.333333333333,4,2,1,60,0,1
125249,-133.333333333333,4,2,1,60,0,0
127858,-117.647058823529,4,2,1,60,0,1
138293,-133.333333333333,4,2,1,40,0,0
139597,-133.333333333333,4,2,1,60,0,0
150031,-111.111111111111,4,2,1,50,0,0
152640,-111.111111111111,4,1,1,50,0,0
152966,-111.111111111111,4,2,1,50,0,0
154597,-111.111111111111,4,1,1,50,0,0
155249,-111.111111111111,4,2,1,50,0,0
157857,-111.111111111111,4,1,1,50,0,0
158183,-111.111111111111,4,2,1,50,0,0
159814,-111.111111111111,4,1,1,50,0,0
160466,-100,4,2,1,60,0,0
162423,-100,4,1,1,60,0,0
163075,-100,4,2,1,60,0,0
165031,-100,4,1,1,60,0,0
165683,-100,4,2,1,60,0,0
170901,326.086956521739,3,2,1,60,1,0
184596,-111.111111111111,3,2,1,50,0,0
185574,-100,3,2,1,55,0,0
186553,-125,3,2,1,50,0,0
202205,-166.666666666667,3,1,1,60,0,1
209949,-166.666666666667,3,1,1,60,0,0
210031,-166.666666666667,3,1,1,60,0,1
216879,-142.857142857143,3,2,1,60,0,1
217205,-125,3,2,1,60,0,1
217531,-111.111111111111,3,2,1,60,0,1
217857,-100,3,2,1,60,0,0
231553,-100,3,1,1,60,0,0
235466,-100,3,1,1,30,0,0

[Colours]
Combo1 : 0,128,192
Combo2 : 130,130,130
Combo3 : 81,81,255
Combo4 : 159,0,0

[HitObjects]
256,60,11448,2,0,L|256:156,1,81,8|8,1:2|1:2,0:0:0:0:
200,308,12752,6,0,L|100:308,2,81,10|0|10,0:2|0:0|0:2,0:0:0:0:
312,308,13241,2,0,L|396:308,2,81,0|10|0,0:0|1:2|0:0,0:0:0:0:
256,212,13730,6,0,L|256:112,1,81,8|8,0:2|0:2,0:0:0:0:
388,72,14871,6,0,L|392:24,2,40.5,0|0|12,0:0|0:0|0:2,0:0:0:0:
440,136,15197,1,0,0:0:0:0:
380,192,15360,1,10,0:2:0:0:
328,128,15523,5,0,0:0:0:0:
264,180,15686,1,10,0:2:0:0:
320,240,15849,1,0,0:0:0:0:
312,320,16012,6,0,L|180:320,1,121.5,4|0,0:0|0:0,0:0:0:0:
156,316,16338,6,0,P|144:280|152:244,1,72.8999977752686,4|8,1:0|0:0,0:0:0:0:
112,172,16664,2,0,P|148:164|184:172,1,72.8999977752686,2|8,1:2|0:0,0:0:0:0:
264,180,16990,1,2,1:2:0:0:
320,240,17153,2,0,P|352:260|388:264,1,72.8999977752686,8|2,0:0|1:2,0:0:0:0:
452,232,17480,1,8,0:0:0:0:
380,192,17643,5,2,1:2:0:0:
404,124,17806,2,0,L|432:48,1,72.8999977752686,8|2,0:0|1:2,0:0:0:0:
356,56,18132,1,8,0:0:0:0:
328,124,18295,2,0,L|292:212,1,72.8999977752686,2|8,1:2|0:0,0:0:0:0:
268,256,18621,1,2,1:2:0:0:
196,272,18784,1,8,0:0:0:0:
124,256,18947,5,4,1:0:0:0:
60,220,19110,1,8,0:0:0:0:
24,156,19273,2,0,P|12:120|16:84,1,72.8999977752686,2|8,1:2|0:0,0:0:0:0:
84,108,19599,1,2,1:2:0:0:
140,156,19762,2,0,P|156:124|156:84,1,72.8999977752686,8|2,0:0|1:2,0:0:0:0:
136,16,20088,1,8,0:0:0:0:
200,68,20251,6,0,L|252:144,2,81,12|0|0,0:0|0:0|0:0,0:0:0:0:
300,100,20740,2,0,L|352:176,2,89.1000027191163,12|0|0,0:0|0:0|0:0,0:0:0:0:
404,144,21229,2,0,L|456:224,1,89.1000027191163,12|0,0:0|0:0,0:0:0:0:
488,280,21556,6,0,L|428:280,4,36.4499988876343,2|0|0|0|10,0:2|0:0|0:0|0:0|0:2,0:0:0:0:
256,280,22534,1,8,2:0:0:0:
256,280,22860,6,0,L|256:196,1,81,2|0,2:0|1:0,0:0:0:0:
256,124,23186,1,10,1:2:0:0:
200,68,23349,1,0,1:0:0:0:
120,68,23512,1,2,1:2:0:0:
60,124,23675,1,0,1:0:0:0:
56,196,23838,6,0,L|56:256,4,36.4499988876343,2|0|0|0|10,0:2|0:0|0:0|0:0|0:2,0:0:0:0:
152,360,24816,1,10,2:0:0:0:
256,216,25142,6,0,L|256:132,2,72.8999977752686,2|0|10,2:0|1:0|1:2,0:0:0:0:
288,280,25631,1,0,0:0:0:0:
356,308,25794,1,2,0:2:0:0:
424,280,25957,1,0,0:0:0:0:
424,280,26120,6,0,P|436:236|424:192,1,91.125003476143,8|0,0:0|0:0,0:0:0:0:
404,160,26446,6,0,L|304:160,1,81,4|8,1:0|0:0,0:0:0:0:
288,88,26772,2,0,L|376:88,1,81,2|8,1:2|0:0,0:0:0:0:
448,88,27098,1,2,1:2:0:0:
448,88,27261,1,8,0:0:0:0:
488,160,27424,1,2,1:2:0:0:
488,160,27588,1,8,0:0:0:0:
488,240,27751,5,2,1:2:0:0:
488,240,27914,1,8,0:0:0:0:
488,240,28077,2,0,L|488:352,1,81,2|8,1:2|0:0,0:0:0:0:
416,284,28403,1,2,1:2:0:0:
416,284,28566,1,8,0:0:0:0:
416,284,28729,2,0,L|320:284,1,81,2|8,1:2|0:0,0:0:0:0:
256,284,29055,6,0,P|184:248|152:176,1,162,4|2,1:0|1:2,0:0:0:0:
256,52,29707,2,0,P|328:88|360:160,1,162,4|2,1:0|1:2,0:0:0:0:
256,284,30359,5,8,0:0:0:0:
316,340,30522,2,0,L|396:340,1,81,0|8,0:0|0:0,0:0:0:0:
456,284,30848,1,0,0:0:0:0:
476,204,31011,2,0,L|476:160,3,40.5,8|0|0|0,0:0|0:0|0:0|0:0,0:0:0:0:
456,128,31337,2,0,L|432:76,3,40.5,8|0|0|0,0:0|0:0|0:0|0:0,0:0:0:0:
416,56,31664,5,2,1:2:0:0:
416,56,31827,1,0,0:0:0:0:
340,24,31990,2,0,P|332:64|348:104,1,81,10|0,1:2|0:0,0:0:0:0:
396,164,32316,2,0,L|336:232,2,81,2|0|10,1:2|0:0|1:2,0:0:0:0:
396,164,32805,1,0,0:0:0:0:
300,164,32968,6,0,L|204:164,1,81,4|0,0:0|0:0,0:0:0:0:
140,164,33294,1,8,0:0:0:0:
64,192,33457,5,4,0:0:0:0:
8,248,33620,1,0,0:0:0:0:
64,308,33783,1,8,0:0:0:0:
120,248,33946,1,4,0:0:0:0:
120,248,34272,6,0,L|172:248,4,36.4499988876343,4|0|0|0|10,0:0|0:0|0:0|0:0|0:2,0:0:0:0:
256,192,34924,2,0,L|256:272,1,72.8999977752686,2|0,0:2|0:0,0:0:0:0:
400,232,35414,2,0,L|400:336,1,72.8999977752686,0|2,0:0|0:2,0:0:0:0:
400,160,35903,5,10,0:2:0:0:
316,40,36229,2,0,L|316:4,4,36.4499988876343,2|0|0|0|10,0:2|0:0|0:0|0:0|0:2,0:0:0:0:
256,172,36881,6,0,L|256:252,1,72.8999977752686,2|0,0:2|0:0,0:0:0:0:
296,308,37207,1,10,0:2:0:0:
148,308,37533,2,0,L|68:308,1,72.8999977752686,2|0,0:2|0:0,0:0:0:0:
28,172,38022,2,0,L|100:172,1,72.8999977752686,0|2,0:0|0:2,0:0:0:0:
256,172,38511,5,10,0:2:0:0:
392,224,38837,1,2,0:2:0:0:
408,192,38919,1,0,0:0:0:0:
424,160,39001,2,0,L|444:120,2,36.4499988876343,0|0|10,0:0|0:0|0:2,0:0:0:0:
328,48,39490,6,0,L|276:48,4,36.4499988876343,2|0|0|0|10,0:2|0:0|0:0|0:0|0:2,0:0:0:0:
256,192,40142,2,0,L|256:112,1,72.8999977752686,2|0,0:2|0:0,0:0:0:0:
112,152,40631,2,0,L|112:48,1,72.8999977752686,0|2,0:0|0:2,0:0:0:0:
112,224,41120,5,10,0:2:0:0:
196,344,41446,2,0,L|196:380,4,36.4499988876343,2|0|0|0|10,0:2|0:0|0:0|0:0|0:2,0:0:0:0:
256,212,42098,6,0,L|256:132,1,72.8999977752686,2|0,0:2|0:0,0:0:0:0:
216,76,42424,1,10,0:2:0:0:
364,76,42751,2,0,L|444:76,1,72.8999977752686,2|0,0:2|0:0,0:0:0:0:
484,212,43240,2,0,L|412:212,1,72.8999977752686,0|2,0:0|0:2,0:0:0:0:
256,212,43729,5,10,0:2:0:0:
120,160,44055,1,2,0:2:0:0:
104,192,44136,1,0,0:0:0:0:
88,224,44218,2,0,L|68:264,2,36.4499988876343,0|0|10,0:0|0:0|0:2,0:0:0:0:
256,212,44707,5,4,0:0:0:0:
296,224,44789,1,0,0:0:0:0:
336,212,44870,1,0,0:0:0:0:
296,144,45033,1,10,0:2:0:0:
296,144,45359,2,0,L|296:72,1,72.8999977752686,2|0,0:2|0:0,0:0:0:0:
368,32,45685,1,10,2:0:0:0:
368,32,45848,2,0,L|368:120,1,72.8999977752686,0|2,0:0|0:2,0:0:0:0:
368,264,46337,5,10,2:2:0:0:
368,264,46664,1,2,0:2:0:0:
328,264,46745,1,0,0:0:0:0:
288,264,46827,2,0,L|232:264,2,36.4499988876343,0|0|10,0:0|0:0|0:2,0:0:0:0:
144,192,47316,5,2,0:2:0:0:
176,120,47479,1,0,0:0:0:0:
256,120,47642,1,10,0:2:0:0:
256,280,47968,2,0,L|256:364,1,72.8999977752686,2|0,0:2|0:0,0:0:0:0:
336,352,48294,1,10,2:0:0:0:
408,316,48457,1,0,0:0:0:0:
480,280,48620,5,2,0:2:0:0:
348,192,48946,1,10,2:0:0:0:
440,60,49272,2,0,L|480:60,4,36.4499988876343,2|0|0|0|10,0:2|0:0|0:0|0:0|0:2,0:0:0:0:
280,60,49924,6,0,L|240:60,4,36.4499988876343,2|0|0|0|10,0:2|0:0|0:0|0:0|0:2,0:0:0:0:
188,192,50577,1,2,0:2:0:0:
124,144,50740,1,0,0:0:0:0:
60,192,50903,1,10,2:0:0:0:
60,192,51066,2,0,L|60:276,1,72.8999977752686,0|2,0:0|0:2,0:0:0:0:
220,264,51555,5,10,2:0:0:0:
344,156,51881,1,2,0:2:0:0:
380,156,51962,1,0,0:0:0:0:
416,156,52044,2,0,L|464:156,2,36.4499988876343,0|0|10,0:0|0:0|0:2,0:0:0:0:
256,124,52533,5,2,0:2:0:0:
256,88,52615,1,0,0:0:0:0:
228,64,52696,1,0,0:0:0:0:
184,120,52859,1,10,0:2:0:0:
56,192,53185,2,0,P|48:228|56:264,1,72.8999977752686,2|0,0:2|0:0,0:0:0:0:
64,336,53511,1,10,2:0:0:0:
128,304,53674,1,0,0:0:0:0:
128,232,53837,5,2,0:2:0:0:
256,160,54164,1,10,2:0:0:0:
256,304,54490,2,0,L|256:360,4,36.4499988876343,2|0|0|0|12,0:2|0:0|0:0|0:0|0:2,0:0:0:0:
384,232,55142,5,4,1:0:0:0:
448,196,55305,1,0,1:0:0:0:
384,160,55468,2,0,L|348:96,1,72.8999977752686,8|0,1:1|0:0,0:0:0:0:
364,24,55794,1,2,0:1:0:0:
292,40,55957,2,0,P|272:72|272:108,1,72.8999977752686,0|2,0:0|0:1,0:0:0:0:
288,176,56283,1,8,0:1:0:0:
256,240,56446,6,0,P|220:248|184:236,1,72.8999977752686,0|0,0:0|1:0,0:0:0:0:
128,192,56772,1,10,1:1:0:0:
64,224,56935,2,0,P|56:188|68:152,1,72.8999977752686,0|10,0:0|1:0,0:0:0:0:
128,92,57261,5,0,1:0:0:0:
128,192,57424,1,10,1:0:0:0:
212,136,57587,1,0,0:0:0:0:
256,240,57751,6,0,L|256:280,2,36.4499988876343,0|0|0,1:0|1:0|1:0,0:0:0:0:
184,192,58077,2,0,P|212:168|248:156,1,72.8999977752686,8|0,1:0|0:0,0:0:0:0:
324,192,58403,1,2,0:1:0:0:
324,280,58566,2,0,L|324:360,2,72.8999977752686,0|2|8,0:0|0:1|0:1,0:0:0:0:
324,192,59055,5,0,0:0:0:0:
400,148,59218,1,0,1:0:0:0:
476,192,59381,1,10,1:0:0:0:
500,108,59544,1,0,0:0:0:0:
424,68,59707,2,0,L|272:68,1,145.799995550537,12|12,0:1|0:1,0:0:0:0:
152,192,60359,6,0,P|132:224|132:260,1,72.8999977752686,4|0,1:0|1:0,0:0:0:0:
196,320,60685,2,0,P|216:288|216:252,1,72.8999977752686,8|0,1:0|0:0,0:0:0:0:
256,176,61011,1,2,0:1:0:0:
256,88,61174,2,0,L|256:4,1,72.8999977752686,0|2,0:0|0:1,0:0:0:0:
344,28,61501,1,0,0:0:0:0:
424,68,61664,6,0,P|428:104|452:132,1,72.8999977752686,2|0,0:1|1:0,0:0:0:0:
388,192,61990,1,10,1:0:0:0:
388,192,62153,2,0,L|388:288,1,72.8999977752686,0|12,0:0|0:1,0:0:0:0:
388,352,62479,5,0,0:0:0:0:
292,288,62642,1,12,0:1:0:0:
256,176,62805,1,0,0:0:0:0:
256,88,62968,6,0,L|256:52,3,36.4499988876343,4|0|0|0,0:0|0:0|0:0|0:0,0:0:0:0:
228,24,63294,2,0,L|188:40,3,36.4499988876343,4|0|0|0,0:0|0:0|0:0|0:0,0:0:0:0:
156,44,63620,2,0,L|116:44,3,36.4499988876343,4|0|0|0,0:0|0:0|0:0|0:0,0:0:0:0:
84,52,63946,2,0,L|48:68,3,36.4499988876343,4|0|0|0,0:0|0:0|0:0|0:0,0:0:0:0:
32,96,64272,6,0,L|32:148,3,36.4499988876343,4|0|0|0,0:0|0:0|0:0|0:0,0:0:0:0:
32,168,64598,2,0,L|32:212,3,36.4499988876343,4|0|0|0,0:0|0:0|0:0|0:0,0:0:0:0:
32,236,64924,2,0,P|44:264|76:276,1,66.8250020393372,4|0,0:0|0:0,0:0:0:0:
100,256,65251,2,0,P|128:240|160:248,1,66.8250020393372
188,264,65577,6,0,P|220:216|216:152,1,121.500004634857,4|0,1:0|1:0,0:0:0:0:
172,84,66066,1,0,0:0:0:0:
256,84,66229,2,0,L|388:84,1,121.500004634857,10|0,1:2|1:0,0:0:0:0:
460,108,66718,1,0,0:0:0:0:
460,192,66881,6,0,B|436:224|480:268|460:312,1,121.500004634857,2|0,1:2|1:0,0:0:0:0:
396,368,67370,1,0,0:0:0:0:
380,284,67533,2,0,L|308:284,1,60.7500023174287,10|0,1:2|0:0,0:0:0:0:
256,228,67859,2,0,L|176:228,1,60.7500023174287,0|0,1:0|0:0,0:0:0:0:
128,280,68185,6,0,P|104:228|128:172,1,121.500004634857,4|0,1:0|1:0,0:0:0:0:
200,124,68674,1,0,0:0:0:0:
268,176,68837,2,0,P|292:124|268:68,1,121.500004634857,10|0,1:2|1:0,0:0:0:0:
192,32,69327,1,0,0:0:0:0:
192,32,69408,1,8,0:0:0:0:
192,32,69490,6,0,B|152:20|116:72|76:56,1,121.500004634857,4|0,1:0|1:0,0:0:0:0:
116,132,69979,1,0,0:0:0:0:
200,124,70142,5,8,1:0:0:0:
268,176,70305,1,0,0:0:0:0:
320,112,70468,1,8,1:0:0:0:
252,60,70631,1,8,0:0:0:0:
268,176,70794,6,0,P|324:196|384:184,1,121.500004634857,4|0,1:0|1:0,0:0:0:0:
452,136,71283,1,0,0:0:0:0:
484,216,71446,2,0,L|484:356,1,121.500004634857,10|0,1:2|1:0,0:0:0:0:
400,352,71935,1,0,0:0:0:0:
328,308,72098,6,0,B|288:296|248:312|208:304,1,121.500004634857,2|0,1:2|1:0,0:0:0:0:
152,240,72587,1,0,0:0:0:0:
236,224,72751,2,0,P|256:164|236:112,1,121.500004634857,10|0,1:2|1:0,0:0:0:0:
160,76,73240,1,0,0:0:0:0:
160,172,73403,6,0,L|160:204,2,30.3750011587143,0|0|0,1:0|1:0|1:0,0:0:0:0:
104,108,73729,2,0,P|100:76|104:44,1,60.7500023174287,8|8,1:0|1:0,0:0:0:0:
184,28,74055,1,0,1:0:0:0:
208,28,74136,1,0,1:0:0:0:
232,28,74218,1,8,1:0:0:0:
256,108,74381,1,8,0:1:0:0:
256,192,74544,6,0,P|256:252|292:300,1,121.500004634857,4|8,0:1|0:1,0:0:0:0:
376,320,75033,1,8,1:0:0:0:
404,320,75115,1,8,1:0:0:0:
428,308,75196,1,8,1:0:0:0:
476,240,75359,2,0,L|476:200,3,30.3750011587143,8|0|0|0,0:0|0:0|0:0|0:0,0:0:0:0:
476,168,75685,2,0,L|476:116,3,30.3750011587143,8|0|0|0,0:0|0:0|0:0|0:0,0:0:0:0:
476,88,76011,6,0,P|432:36|364:20,1,137.700002626419,4|8,1:0|1:0,0:0:0:0:
388,116,76501,1,0,0:0:0:0:
388,116,76664,2,0,L|336:188,1,68.8500013132096,8|0,1:0|0:0,0:0:0:0:
252,192,76990,2,0,L|292:136,1,68.8500013132096,0|8,1:0|0:1,0:0:0:0:
344,56,77316,6,0,B|296:40|256:64|208:52,1,137.700002626419,4|8,1:0|1:0,0:0:0:0:
116,24,77805,1,0,0:0:0:0:
56,100,77968,2,0,L|56:184,1,68.8500013132096,12|0,1:2|0:0,0:0:0:0:
56,264,78294,2,0,L|56:316,3,34.4250006566048,10|0|0|0,1:0|0:0|0:0|0:0,0:0:0:0:
56,340,78620,6,0,P|124:348|192:340,1,137.700002626419,4|8,1:0|1:0,0:0:0:0:
256,288,79109,1,0,0:0:0:0:
256,204,79272,2,0,L|256:120,1,68.8500013132096,8|0,1:0|0:0,0:0:0:0:
256,52,79598,1,0,1:0:0:0:
332,20,79761,1,8,0:1:0:0:
412,36,79924,6,0,P|472:68|496:132,1,137.700002626419,4|8,1:0|1:0,0:0:0:0:
440,192,80414,1,0,0:0:0:0:
384,132,80577,2,0,P|360:160|356:192,1,68.8500013132096,4|0,1:2|0:0,0:0:0:0:
360,272,80903,1,10,1:0:0:0:
356,300,80984,1,0,0:0:0:0:
340,320,81066,1,0,0:0:0:0:
256,348,81229,6,0,L|256:196,1,137.700002626419,4|8,1:0|1:0,0:0:0:0:
256,120,81718,1,0,0:0:0:0:
196,52,81881,2,0,P|172:80|164:116,1,68.8500013132096,8|0,1:0|0:0,0:0:0:0:
132,192,82207,2,0,P|128:228|112:256,1,68.8500013132096,0|8,1:0|0:1,0:0:0:0:
68,332,82533,6,0,P|32:276|36:204,1,137.700002626419,4|8,1:0|1:0,0:0:0:0:
56,128,83022,1,0,0:0:0:0:
116,72,83185,1,12,1:2:0:0:
196,52,83348,1,0,0:0:0:0:
256,120,83511,2,0,L|256:204,1,68.8500013132096,0|8,1:0|0:1,0:0:0:0:
256,272,83837,6,0,L|256:312,2,34.4250006566048,0|0|8,1:0|1:0|1:0,0:0:0:0:
328,232,84164,1,8,0:1:0:0:
400,192,84327,2,0,L|452:192,2,34.4250006566048,0|0|8,0:0|0:0|0:0,0:0:0:0:
336,140,84653,1,8,0:0:0:0:
256,120,84816,2,0,P|188:120|128:156,1,137.700002626419
256,192,85223,12,4,86446,0:2:0:0:
464,156,96554,5,0,1:0:0:0:
392,192,96717,2,0,L|300:192,1,72.8999977752686,0|0,1:0|0:0,0:0:0:0:
256,44,97206,2,0,L|336:44,1,72.8999977752686,8|0,0:0|0:0,0:0:0:0:
256,188,97695,1,0,0:0:0:0:
256,268,97858,5,0,0:0:0:0:
108,332,98184,2,0,L|108:252,1,72.8999977752686,8|0,0:0|0:0,0:0:0:0:
108,180,98510,1,0,1:0:0:0:
108,156,98592,1,0,1:0:0:0:
108,132,98673,2,0,L|108:44,1,72.8999977752686,0|10,1:0|0:0,0:0:0:0:
256,20,99162,5,0,1:0:0:0:
320,68,99325,2,0,L|408:68,1,72.8999977752686,0|0,1:0|0:0,0:0:0:0:
496,192,99814,2,0,L|408:192,1,72.8999977752686,8|0,0:0|0:0,0:0:0:0:
264,192,100304,1,0,0:0:0:0:
184,192,100467,5,0,0:0:0:0:
46,276,100793,1,8,0:0:0:0:
121,304,100956,1,0,0:0:0:0:
196,332,101119,2,0,L|240:344,3,36.4499988876343,8|0|0|0,0:2|0:0|0:0|0:0,0:0:0:0:
272,344,101445,2,0,L|328:344,3,36.4499988876343,8|0|0|0,0:0|0:0|0:0|0:0,0:0:0:0:
348,344,101771,6,0,L|440:344,1,72.8999977752686,0|0,1:0|1:0,0:0:0:0:
472,284,102097,1,0,0:0:0:0:
472,124,102423,1,8,0:0:0:0:
472,44,102586,1,0,0:0:0:0:
316,84,102912,6,0,L|316:176,1,72.8999977752686
256,304,103401,1,8,0:0:0:0:
256,224,103564,1,0,0:0:0:0:
256,144,103728,1,0,1:0:0:0:
248,120,103809,1,0,1:0:0:0:
228,104,103891,1,0,1:0:0:0:
172,160,104054,1,10,0:0:0:0:
316,84,104380,5,0,1:0:0:0:
364,148,104543,1,0,1:0:0:0:
444,148,104706,1,0,0:0:0:0:
404,304,105032,2,0,L|312:304,1,72.8999977752686,8|0,0:0|0:0,0:0:0:0:
256,160,105521,1,0,0:0:0:0:
256,80,105684,5,0,0:0:0:0:
104,128,106010,2,0,L|104:208,1,72.8999977752686,8|0,0:0|0:0,0:0:0:0:
104,280,106336,2,0,P|160:292|212:288,1,109.349996662903,4|0,0:0|0:0,0:0:0:0:
240,256,106662,2,0,P|292:248|348:256,1,109.349996662903,0|0,0:0|0:0,0:0:0:0:
380,268,106988,6,0,L|380:324,2,43.2,4|0|0,0:0|0:0|0:0,0:0:0:0:
420,240,107314,2,0,L|460:276,2,43.2,0|0|0,0:0|0:0|0:0,0:0:0:0:
420,192,107641,2,0,L|468:192,2,43.2,10|0|0,0:0|0:0|0:0,0:0:0:0:
416,144,107967,2,0,L|456:108,2,43.2,0|0|0,0:0|0:0|0:0,0:0:0:0:
368,148,108293,6,0,P|304:152|240:132,1,129.6,2|0,0:0|0:0,0:0:0:0:
176,104,108782,1,0,0:0:0:0:
128,48,108945,2,0,B|80:84|120:136|88:168,1,129.6,10|0,0:0|0:0,0:0:0:0:
36,212,109434,1,0,0:0:0:0:
36,284,109597,6,0,L|36:336,2,43.2,2|0|0,0:0|0:0|0:0,0:0:0:0:
80,268,109923,2,0,L|112:304,2,43.2,0|0|0,0:0|0:0|0:0,0:0:0:0:
124,248,110249,2,0,L|168:288,2,43.2,10|0|0,0:0|0:0|0:0,0:0:0:0:
164,220,110575,2,0,L|212:220,2,43.2,0|0|0,0:0|0:0|0:0,0:0:0:0:
124,192,110901,6,0,P|132:128|180:88,1,129.6
256,72,111391,1,0,0:0:0:0:
256,148,111554,2,0,L|256:232,1,64.8,10|0,0:0|0:0,0:0:0:0:
256,292,111880,2,0,L|256:352,2,43.2,0|0|0,0:0|0:0|0:0,0:0:0:0:
308,280,112206,6,0,L|336:324,2,43.2,4|0|0,0:0|0:0|0:0,0:0:0:0:
348,244,112532,2,0,L|396:272,2,43.2,0|0|0,0:0|0:0|0:0,0:0:0:0:
356,192,112858,2,0,L|424:192,2,43.2,10|0|0,0:0|0:0|0:0,0:0:0:0:
332,144,113184,2,0,L|368:112,2,43.2,0|0|0,0:0|0:0|0:0,0:0:0:0:
280,144,113510,6,0,B|236:132|192:156|152:144,1,129.6,2|0,0:0|0:0,0:0:0:0:
96,88,113999,1,0,0:0:0:0:
64,160,114162,2,0,P|48:224|72:284,1,129.6,10|0,0:0|0:0,0:0:0:0:
132,328,114651,1,0,0:0:0:0:
208,328,114814,6,0,L|256:328,2,43.2,2|0|0,0:0|0:0|0:0,0:0:0:0:
228,280,115141,2,0,L|280:280,2,43.2,0|0|0,0:0|0:0|0:0,0:0:0:0:
256,236,115467,2,0,L|320:236,2,43.2,10|0|0,0:0|0:0|0:0,0:0:0:0:
280,192,115793,2,0,L|332:192,2,43.2,0|0|0,0:0|0:0|0:0,0:0:0:0:
256,144,116119,6,0,L|256:12,1,129.6,4|4,0:0|0:0,0:0:0:0:
408,44,116771,2,0,L|484:44,1,64.8,8|0,1:0|0:0,0:0:0:0:
408,84,117097,2,0,L|408:164,1,64.8,8|0,1:0|0:0,0:0:0:0:
344,128,117423,6,0,P|312:176|316:240,1,121.500004634857,4|0,1:0|1:0,0:0:0:0:
340,320,117912,1,0,0:0:0:0:
256,300,118075,2,0,L|124:300,1,121.500004634857,10|0,1:2|1:0,0:0:0:0:
52,276,118564,1,0,0:0:0:0:
52,192,118727,6,0,B|76:160|32:116|52:72,1,121.500004634857,2|0,1:2|1:0,0:0:0:0:
116,16,119217,1,0,0:0:0:0:
132,100,119380,2,0,L|204:100,1,60.7500023174287,10|0,1:2|0:0,0:0:0:0:
256,156,119706,2,0,L|336:156,1,60.7500023174287,0|0,1:0|0:0,0:0:0:0:
384,104,120032,6,0,P|408:156|384:212,1,121.500004634857,4|0,1:0|1:0,0:0:0:0:
312,260,120521,1,0,0:0:0:0:
244,208,120684,2,0,P|220:260|244:316,1,121.500004634857,10|0,1:2|1:0,0:0:0:0:
320,352,121173,1,0,0:0:0:0:
320,352,121255,1,8,0:0:0:0:
320,352,121336,6,0,B|360:364|396:312|436:328,1,121.500004634857,4|0,1:0|1:0,0:0:0:0:
396,252,121825,1,0,0:0:0:0:
312,260,121988,5,8,1:0:0:0:
244,208,122151,1,0,0:0:0:0:
192,272,122314,1,8,1:0:0:0:
260,324,122477,1,8,0:0:0:0:
244,208,122641,6,0,P|188:188|128:200,1,121.500004634857,4|0,1:0|1:0,0:0:0:0:
60,248,123130,1,0,0:0:0:0:
28,168,123293,2,0,L|28:28,1,121.500004634857,10|0,1:2|1:0,0:0:0:0:
112,32,123782,1,0,0:0:0:0:
184,76,123945,6,0,B|224:88|264:72|304:80,1,121.500004634857,2|0,1:2|1:0,0:0:0:0:
360,144,124434,1,0,0:0:0:0:
276,160,124597,2,0,P|256:220|276:272,1,121.500004634857,10|0,1:2|1:0,0:0:0:0:
352,308,125086,1,0,0:0:0:0:
352,212,125249,6,0,L|352:180,2,30.3750011587143,0|0|0,1:0|1:0|1:0,0:0:0:0:
408,276,125575,2,0,P|412:308|408:340,1,60.7500023174287,8|8,1:0|1:0,0:0:0:0:
328,356,125901,1,0,1:0:0:0:
304,356,125983,1,0,1:0:0:0:
280,356,126064,1,8,1:0:0:0:
256,276,126227,1,8,0:1:0:0:
256,192,126391,6,0,P|252:132|216:84,1,121.500004634857,4|8,0:1|0:1,0:0:0:0:
136,64,126880,1,8,1:0:0:0:
108,64,126961,1,8,1:0:0:0:
84,76,127043,1,8,1:0:0:0:
36,144,127206,2,0,L|36:184,3,30.3750011587143,8|0|0|0,0:0|0:0|0:0|0:0,0:0:0:0:
36,216,127532,2,0,L|36:268,3,30.3750011587143,8|0|0|0,0:0|0:0|0:0|0:0,0:0:0:0:
36,296,127858,6,0,P|80:348|148:364,1,137.700002626419,4|8,1:0|1:0,0:0:0:0:
124,268,128347,1,0,0:0:0:0:
124,268,128510,2,0,L|176:196,1,68.8500013132096,8|0,1:0|0:0,0:0:0:0:
260,192,128836,2,0,L|220:248,1,68.8500013132096,0|8,1:0|0:1,0:0:0:0:
168,328,129162,6,0,B|216:344|256:320|304:332,1,137.700002626419,4|8,1:0|1:0,0:0:0:0:
396,360,129651,1,0,0:0:0:0:
456,284,129814,2,0,L|456:200,1,68.8500013132096,12|0,1:2|0:0,0:0:0:0:
456,120,130141,2,0,L|456:68,3,34.4250006566048,10|0|0|0,1:0|0:0|0:0|0:0,0:0:0:0:
456,44,130467,6,0,P|388:36|320:44,1,137.700002626419,4|8,1:0|1:0,0:0:0:0:
256,96,130956,1,0,0:0:0:0:
256,180,131119,2,0,L|256:264,1,68.8500013132096,8|0,1:0|0:0,0:0:0:0:
256,332,131445,1,0,1:0:0:0:
180,364,131608,1,8,0:1:0:0:
100,348,131771,6,0,P|40:316|16:252,1,137.700002626419,4|8,1:0|1:0,0:0:0:0:
72,192,132260,1,0,0:0:0:0:
128,252,132423,2,0,P|152:224|156:192,1,68.8500013132096,4|0,1:2|0:0,0:0:0:0:
152,112,132749,1,10,1:0:0:0:
156,84,132831,1,0,0:0:0:0:
172,64,132912,1,0,0:0:0:0:
256,36,133075,6,0,L|256:188,1,137.700002626419,4|8,1:0|1:0,0:0:0:0:
256,264,133564,1,0,0:0:0:0:
316,332,133728,2,0,P|340:304|348:268,1,68.8500013132096,8|0,1:0|0:0,0:0:0:0:
380,192,134054,2,0,P|384:156|400:128,1,68.8500013132096,0|8,1:0|0:1,0:0:0:0:
444,52,134380,6,0,P|480:108|476:180,1,137.700002626419,4|8,1:0|1:0,0:0:0:0:
456,256,134869,1,0,0:0:0:0:
396,312,135032,5,12,1:2:0:0:
316,332,135195,1,0,0:0:0:0:
256,264,135358,2,0,L|256:180,1,68.8500013132096,0|8,1:0|0:1,0:0:0:0:
256,116,135684,6,0,L|172:116,1,68.8500013132096,2|0,1:2|0:0,0:0:0:0:
116,160,136010,2,0,L|116:252,1,68.8500013132096,10|0,1:2|0:0,0:0:0:0:
116,312,136336,1,2,1:2:0:0:
188,276,136499,1,0,0:0:0:0:
188,192,136662,1,10,1:2:0:0:
256,240,136825,1,0,0:0:0:0:
324,284,136988,6,0,L|392:332,1,68.8500013132096,10|0,1:2|0:0,0:0:0:0:
408,224,137314,2,0,L|452:164,1,68.8500013132096,10|0,1:2|0:0,0:0:0:0:
492,60,137641,2,0,L|400:60,1,68.8500013132096,10|0,1:2|0:0,0:0:0:0:
256,88,137967,2,0,L|332:88,1,68.8500013132096,10|0,1:2|0:0,0:0:0:0:
256,192,138293,12,4,139597,0:0:0:0:
256,96,150031,6,0,L|256:176,1,72.8999977752686,4|0,1:1|1:0,0:0:0:0:
340,192,150357,2,0,L|340:280,1,72.8999977752686
400,328,150683,1,8,0:0:0:0:
316,356,150847,2,0,L|220:356,1,72.8999977752686
156,356,151173,1,0,0:0:0:0:
156,356,151499,6,0,L|156:264,1,72.8999977752686
256,140,151988,2,0,L|256:48,1,72.8999977752686,8|0,0:0|0:0,0:0:0:0:
340,88,152314,2,0,L|340:8,1,72.8999977752686
420,48,152640,6,0,L|476:48,4,36.4499988876343,0|0|0|0|0,0:0|0:0|0:0|0:0|1:0,0:0:0:0:
320,192,153292,1,8,0:0:0:0:
320,192,153455,2,0,L|224:192,1,72.8999977752686
160,192,153781,1,0,1:0:0:0:
72,192,153944,5,0,1:0:0:0:
16,260,154107,1,0,1:0:0:0:
96,292,154270,1,0,0:0:0:0:
96,292,154597,6,0,L|144:292,3,36.4499988876343,8|0|0|0,0:1|0:0|0:0|0:0,0:0:0:0:
176,292,154923,2,0,L|220:292,3,36.4499988876343,8|0|0|0,0:0|0:0|0:0|0:0,0:0:0:0:
256,292,155249,6,0,L|336:292,1,72.8999977752686,0|0,1:0|1:0,0:0:0:0:
416,292,155575,1,0,1:0:0:0:
412,116,155901,2,0,P|412:76|396:48,1,72.8999977752686,8|0,0:0|0:0,0:0:0:0:
328,100,156227,2,0,P|324:136|340:168,1,72.8999977752686
168,192,156716,6,0,L|84:192,1,72.8999977752686
36,28,157205,1,8,0:0:0:0:
84,100,157368,1,0,0:0:0:0:
132,28,157531,2,0,L|192:100,1,72.8999977752686
256,128,157857,6,0,L|256:184,4,36.4499988876343,0|0|0|0|0,0:0|0:0|0:0|0:0|1:0,0:0:0:0:
256,304,158510,1,8,0:0:0:0:
336,340,158673,2,0,P|344:304|336:268,1,72.8999977752686
296,192,158999,1,0,0:0:0:0:
380,220,159162,6,0,L|448:256,1,72.8999977752686,0|0,1:0|1:0,0:0:0:0:
504,192,159488,1,0,1:0:0:0:
408,48,159814,6,0,L|356:48,3,36.4499988876343,8|0|0|0,0:0|0:0|0:0|0:0,0:0:0:0:
328,48,160140,2,0,L|288:48,3,36.4499988876343,8|0|0|0,0:0|0:0|0:0|0:0,0:0:0:0:
244,48,160466,6,0,L|156:48,1,81,0|0,1:0|1:0,0:0:0:0:
204,136,160792,1,0,1:0:0:0:
204,136,161118,2,0,L|100:136,1,81,8|0,0:0|0:0,0:0:0:0:
44,192,161444,2,0,L|136:192,1,81
224,192,161770,5,0,0:0:0:0:
296,260,161933,1,0,0:0:0:0:
256,348,162097,1,0,0:0:0:0:
256,348,162423,6,0,L|308:348,3,40.5,8|0|0|0,0:0|0:0|0:0|0:0,0:0:0:0:
344,344,162749,2,0,P|372:316|376:276,1,81,8|0,0:0|0:0,0:0:0:0:
324,192,163075,5,0,1:0:0:0:
340,160,163156,1,0,1:0:0:0:
356,128,163238,2,0,L|376:80,2,40.5,0|0|0,1:0|1:0|1:0,0:0:0:0:
256,24,163727,1,8,0:0:0:0:
256,96,163890,2,0,P|240:132|204:152,1,81
132,164,164216,1,0,0:0:0:0:
132,236,164379,6,0,L|132:320,2,81
304,192,165031,6,0,L|360:192,3,40.5,8|0|0|0,0:0|0:0|0:0|0:0,0:0:0:0:
388,192,165357,2,0,L|432:152,3,40.5,8|0|0|0,0:0|0:0|0:0|0:0,0:0:0:0:
448,132,165683,6,0,L|448:48,1,81,0|0,1:0|1:0,0:0:0:0:
448,51,166010,1,0,1:0:0:0:
304,192,166336,1,8,0:0:0:0:
256,268,166499,2,0,P|224:292|184:300,1,81
96,292,166825,1,0,0:0:0:0:
188,212,166988,6,0,L|152:128,1,81
44,92,167314,2,0,L|84:196,1,81
124,280,167641,1,8,1:3:0:0:
96,292,167722,1,0,0:0:0:0:
64,300,167803,1,0,0:0:0:0:
12,228,167966,2,0,L|12:168,2,40.5,4|0|0,1:3|0:0|0:0,0:0:0:0:
12,356,168292,6,0,L|104:356,1,81
184,352,168618,1,8,0:0:0:0:
236,280,168781,1,0,0:0:0:0:
256,192,168944,2,0,L|256:96,1,81,8|0,0:0|0:0,0:0:0:0:
256,92,169189,1,0,0:0:0:0:
256,72,169270,1,8,0:0:0:0:
328,20,169433,1,0,0:0:0:0:
364,100,169597,6,0,L|364:176,5,54,8|0|0|8|0|0,0:0|0:0|0:0|0:0|0:0|0:0,0:0:0:0:
396,204,170249,2,0,L|436:248,2,54,8|8|0,0:0|0:0|0:0,0:0:0:0:
336,204,170575,2,0,L|300:256,2,54,8|8|0,0:0|0:0|0:0,0:0:0:0:
276,192,170901,5,4,0:0:0:0:
480,88,184596,6,0,P|472:124|448:152,1,72.8999977752686
372,176,184922,1,0,0:0:0:0:
292,192,185085,1,0,0:0:0:0:
212,192,185248,1,0,0:0:0:0:
132,192,185411,1,0,0:0:0:0:
44,192,185574,6,0,P|40:232|48:272,1,81
92,120,185901,2,0,P|88:80|96:40,1,81,0|0,0:0|0:0,0:0:0:0:
256,28,186227,2,0,P|260:68|252:108,1,81,8|0,0:0|0:0,0:0:0:0:
212,192,186553,6,0,P|244:248|300:280,1,129.6,4|0,0:0|0:0,0:0:0:0:
460,192,187205,2,0,P|428:136|372:104,1,129.6,2|8,0:0|0:0,0:0:0:0:
256,244,187857,2,0,L|256:376,1,129.6,2|2,0:0|0:0,0:0:0:0:
88,308,188509,6,0,L|88:240,1,64.8,2|0,1:2|1:0,0:0:0:0:
88,60,188998,1,0,1:0:0:0:
88,60,189324,2,0,L|152:60,1,64.8,0|0,1:0|1:0,0:0:0:0:
336,60,189814,1,2,0:0:0:0:
336,60,190140,1,2,0:0:0:0:
336,60,190466,6,0,L|336:204,1,129.6,4|0,0:0|0:0,0:0:0:0:
180,280,191118,2,0,L|180:144,1,129.6,2|8,0:0|0:0,0:0:0:0:
4,192,191770,1,2,0:0:0:0:
4,192,192096,1,2,0:0:0:0:
96,348,192422,6,0,L|164:348,1,64.8,2|0,1:2|1:0,0:0:0:0:
344,348,192911,1,0,0:0:0:0:
440,192,193237,1,0,1:0:0:0:
368,136,193401,1,8,1:0:0:0:
296,192,193564,1,0,1:0:0:0:
204,192,193727,1,8,1:0:0:0:
152,120,193890,1,0,1:0:0:0:
204,48,194053,1,8,1:0:0:0:
296,192,194379,6,0,P|264:136|208:104,1,129.6,4|0,0:0|0:0,0:0:0:0:
52,192,195031,2,0,P|84:248|140:280,1,129.6,2|8,0:0|0:0,0:0:0:0:
256,140,195683,2,0,L|256:8,1,129.6,2|2,0:0|0:0,0:0:0:0:
424,76,196335,6,0,L|424:144,1,64.8,2|0,1:2|1:0,0:0:0:0:
424,324,196824,1,0,0:0:0:0:
424,324,197151,2,0,L|360:324,1,64.8,0|2,1:0|1:2,0:0:0:0:
176,324,197640,1,2,0:0:0:0:
176,324,197966,1,2,0:0:0:0:
176,324,198292,6,0,L|176:180,1,129.6,4|0,0:0|0:0,0:0:0:0:
332,104,198944,2,0,L|332:240,1,129.6,2|8,0:0|0:0,0:0:0:0:
508,192,199596,1,2,0:0:0:0:
508,192,199922,1,2,0:0:0:0:
416,36,200248,6,0,L|348:36,1,64.8,2|0,1:2|1:0,0:0:0:0:
168,36,200737,1,0,1:0:0:0:
72,192,201064,1,0,1:0:0:0:
72,192,201227,2,0,L|160:192,1,64.8,12|0,1:2|1:0,0:0:0:0:
196,260,201553,2,0,L|268:260,1,64.8,4|0,1:2|1:0,0:0:0:0:
336,312,201879,1,4,1:2:0:0:
336,312,202205,6,0,P|348:264|336:216,1,97.1999970336915,12|0,0:0|0:0,0:0:0:0:
256,40,202857,1,2,0:0:0:0:
148,192,203183,2,0,P|116:228|72:248,1,97.1999970336915,8|0,0:0|0:0,0:0:0:0:
24,72,203835,1,2,0:0:0:0:
256,40,204161,6,0,L|356:40,1,97.1999970336915,8|0,0:0|0:0,0:0:0:0:
480,164,204814,1,2,0:0:0:0:
340,272,205140,2,0,P|292:280|244:268,2,97.1999970336915,8|0|2,0:0|0:0|0:0,0:0:0:0:
480,164,206118,5,8,0:0:0:0:
256,40,206444,1,0,0:0:0:0:
480,164,206770,1,2,0:0:0:0:
368,328,207096,2,0,P|328:352|276:360,1,97.1999970336915,8|0,0:0|0:0,0:0:0:0:
96,356,207748,1,2,0:0:0:0:
100,192,208074,5,0,0:0:0:0:
100,192,208237,2,0,L|100:88,1,97.1999970336915,4|0,0:0|0:0,0:0:0:0:
296,192,209053,1,0,0:0:0:0:
296,192,209216,2,0,L|404:192,1,97.1999970336915,4|0,0:0|0:0,0:0:0:0:
256,48,210031,6,0,P|244:96|256:144,1,97.1999970336915,12|0,0:1|0:0,0:0:0:0:
284,324,210683,1,2,0:0:0:0:
148,192,211009,2,0,P|116:156|72:136,1,97.1999970336915,8|0,0:0|0:0,0:0:0:0:
16,312,211661,1,2,0:0:0:0:
196,264,211987,6,0,L|296:264,1,97.1999970336915,8|0,0:0|0:0,0:0:0:0:
480,264,212640,1,2,0:0:0:0:
356,128,212966,2,0,L|356:28,2,97.1999970336915,8|0|2,0:0|0:0|0:0,0:0:0:0:
356,312,213944,5,12,0:0:0:0:
72,188,214270,1,0,0:0:0:0:
356,128,214596,1,2,0:0:0:0:
188,44,214922,2,0,P|148:16|100:12,1,97.1999970336915,8|0,0:0|0:0,0:0:0:0:
256,128,215574,1,2,0:0:0:0:
72,188,215901,6,0,L|72:240,1,48.5999985168458,8|0,0:0|0:0,0:0:0:0:
140,240,216227,2,0,L|164:288,1,48.5999985168458,8|0,0:0|0:0,0:0:0:0:
224,316,216553,2,0,L|280:316,1,48.5999985168458,8|0,0:0|0:0,0:0:0:0:
384,316,216879,5,4,0:0:0:0:
336,60,217205,1,4,0:0:0:0:
72,188,217531,1,4,0:0:0:0:
256,320,217857,6,0,P|332:304|380:240,1,162,4|10,1:2|0:0,0:0:0:0:
384,152,218346,1,0,0:0:0:0:
456,100,218509,2,0,P|384:68|308:96,1,162,2|10,1:2|0:0,0:0:0:0:
256,164,218998,1,0,0:0:0:0:
256,164,219161,2,0,P|184:204|108:196,1,162,2|10,1:2|0:0,0:0:0:0:
20,172,219651,1,0,0:0:0:0:
76,104,219814,5,2,1:2:0:0:
164,116,219977,1,0,0:0:0:0:
216,44,220140,1,10,0:0:0:0:
256,124,220303,2,0,P|336:140|416:128,1,162,2|2,0:0|1:2,0:0:0:0:
476,192,220792,2,0,L|476:280,1,81,10|0,0:0|0:0,0:0:0:0:
404,328,221118,1,2,1:2:0:0:
332,276,221281,2,0,L|236:276,1,81,0|10,0:0|0:0,0:0:0:0:
56,316,221770,6,0,B|36:264|72:208|52:156,1,162,2|10,1:2|0:0,0:0:0:0:
120,100,222259,1,0,0:0:0:0:
120,100,222422,2,0,B|164:120|228:76|280:104,1,162,2|10,1:2|0:0,0:0:0:0:
364,132,222911,1,0,0:0:0:0:
316,208,223074,1,2,1:2:0:0:
236,168,223237,2,0,L|236:252,1,81,0|10,1:0|0:0,0:0:0:0:
236,340,223564,1,0,0:0:0:0:
324,340,223727,6,0,P|400:332|452:268,1,162,2|10,1:2|0:0,0:0:0:0:
408,192,224216,2,0,B|388:136|448:84|416:32,1,162,2|2,0:0|1:2,0:0:0:0:
336,68,224705,2,0,L|244:68,1,81,12|0,1:2|0:0,0:0:0:0:
256,156,225031,2,0,L|164:156,1,81,4|0,1:2|0:0,0:0:0:0:
92,192,225357,2,0,L|184:192,1,81,12|0,1:2|0:0,0:0:0:0:
256,220,225683,6,0,P|332:236|380:300,1,162,4|10,1:2|0:0,0:0:0:0:
292,300,226172,1,0,0:0:0:0:
204,312,226335,2,0,P|140:272|152:196,1,162,2|10,1:2|0:0,0:0:0:0:
256,220,226824,1,0,0:0:0:0:
256,220,226987,2,0,P|328:180|404:188,1,162,2|10,1:2|0:0,0:0:0:0:
492,212,227477,1,0,0:0:0:0:
436,280,227640,5,2,1:2:0:0:
348,268,227803,1,0,0:0:0:0:
296,340,227966,1,10,0:0:0:0:
256,260,228129,2,0,P|176:244|96:256,1,162,2|2,0:0|1:2,0:0:0:0:
36,192,228618,2,0,L|36:104,1,81,10|0,0:0|0:0,0:0:0:0:
108,56,228944,1,2,1:2:0:0:
180,108,229107,2,0,L|276:108,1,81,0|10,0:0|0:0,0:0:0:0:
452,68,229596,6,0,B|472:120|436:176|456:228,1,162,2|10,1:2|0:0,0:0:0:0:
484,320,230085,1,0,0:0:0:0:
392,284,230248,2,0,B|348:264|284:308|232:280,1,162,2|10,1:2|0:0,0:0:0:0:
148,252,230737,1,0,0:0:0:0:
196,176,230900,1,2,1:2:0:0:
276,216,231064,2,0,L|276:132,1,81,0|10,0:0|0:0,0:0:0:0:
276,44,231390,1,0,0:0:0:0:
188,44,231553,6,0,P|112:52|60:116,1,162,4|8,0:0|0:0,0:0:0:0:
164,144,232042,2,0,P|172:184|160:224,1,81
84,280,232368,1,8,0:0:0:0:
176,316,232531,2,0,L|268:316,1,81,12|0,0:0|0:0,0:0:0:0:
256,228,232857,2,4,L|348:228,1,81,12|0,0:0|0:0,0:0:0:0:
420,192,233183,2,0,L|420:100,1,81,12|0,0:0|0:0,0:0:0:0:
336,140,233509,6,0,P|296:128|272:96,1,81,8|8,0:0|0:0,0:0:0:0:
256,12,233835,1,8,0:0:0:0:
196,76,233998,2,0,L|196:160,1,81,8|8,0:0|0:0,0:0:0:0:
196,248,234324,1,8,0:0:0:0:
256,316,234487,1,4,0:0:0:0:
