osu file format v14

[General]
AudioFilename: Monkey Wrench.mp3
AudioLeadIn: 0
PreviewTime: 43281
Countdown: 0
SampleSet: Normal
StackLeniency: 0.7
Mode: 0
LetterboxInBreaks: 0
EpilepsyWarning: 1
WidescreenStoryboard: 1

[Editor]
Bookmarks: 15891,50977,59765,98019,100345,105084,106290,182797,183487,208948,209637,210326,211015,229844
DistanceSpacing: 1.1
BeatDivisor: 2
GridSize: 4
TimelineZoom: 1.2

[Metadata]
Title:Monkey Wrench
TitleUnicode:Monkey Wrench
Artist:Foo Fighters
ArtistUnicode:Foo Fighters
Creator:Danny
Version:Normal
Source:
Tags:Kuronoya The Colour and the Shape Hard Rock Grunge Alternative
BeatmapID:425363
BeatmapSetID:90087

[Difficulty]
HPDrainRate:4
CircleSize:3.5
OverallDifficulty:4
ApproachRate:5
SliderMultiplier:1
SliderTickRate:1

[Events]
//Background and Video events
0,0,"foofighters.jpg",0,0
//Break Periods
2,65331,75156
2,128580,132692
//Storyboard Layer 0 (Background)
//Storyboard Layer 1 (Fail)
//Storyboard Layer 2 (Pass)
//Storyboard Layer 3 (Foreground)
//Storyboard Sound Samples

[TimingPoints]
12618,344.530577088717,4,1,1,60,1,0
18130,-100,4,2,1,40,0,0
18475,-100,4,1,1,60,0,0
23642,-100,4,2,1,40,0,0
23987,-100,4,1,1,60,0,0
29155,-100,4,2,1,40,0,0
29499,-100,4,1,1,60,0,0
35012,-100,4,1,1,60,0,0
37768,-100,4,1,1,60,0,0
40524,-100,4,1,1,60,0,0
42936,-100,4,1,1,60,0,0
43281,-100,4,1,1,70,0,1
48449,-100,4,1,1,70,0,1
53961,-100,4,1,1,70,0,1
59474,-100,4,1,1,70,0,1
64986,-100,4,1,1,100,0,0
65331,-100,4,1,1,60,0,0
76700,-100,4,1,1,60,0,0
81524,-100,4,2,1,40,0,0
81868,-100,4,1,1,60,0,0
87036,-100,4,2,1,40,0,0
87381,-100,4,1,1,60,0,0
92893,-100,4,1,1,60,0,0
98406,-100,4,1,1,60,0,0
101162,-100,4,1,1,60,0,0
103918,-100,4,1,1,60,0,0
106330,-100,4,1,1,100,0,0
106674,-100,4,1,1,70,0,1
111842,-100,4,1,1,70,0,1
117355,-100,4,1,1,70,0,1
122867,-100,4,1,1,70,0,1
128380,-100,4,1,1,100,0,0
128724,-100,4,1,1,60,0,0
144917,-100,4,1,1,60,0,0
153186,-100,4,1,1,60,0,0
175236,-100,4,1,1,60,0,0
183849,-100,4,1,1,70,0,1
189017,-100,4,1,1,70,0,1
194530,-100,4,1,1,70,0,1
200042,-100,4,1,1,70,0,1
205899,-100,4,1,1,70,0,1
209689,-100,4,1,1,70,0,1
211067,-100,4,1,1,70,0,1
215201,-100,4,1,1,70,0,1
216580,-100,4,1,1,70,0,1
220714,-100,4,1,1,70,0,1
222092,-100,4,1,1,70,0,1
230361,-100,4,1,1,100,0,0

[Colours]
Combo1 : 181,126,117
Combo2 : 120,170,180
Combo3 : 124,120,99
Combo4 : 101,147,180

[HitObjects]
144,112,12962,6,0,P|136:192|140:228,1,100,4|0,0:0|0:0,0:0:0:0:
176,252,13479,1,0,0:0:0:0:
176,252,13651,2,0,L|264:272,1,50,8|0,0:0|0:0,0:0:0:0:
328,228,14168,2,0,L|360:184,2,50,0|8|0,0:0|0:0|0:0,0:0:0:0:
372,328,14857,6,0,L|312:332,1,50,0|8,0:0|0:0,0:0:0:0:
212,336,15374,1,0,0:0:0:0:
104,320,15718,2,0,P|136:260|176:236,1,100,8|0,0:0|0:0,0:0:0:0:
96,152,16407,2,0,P|161:132|206:143,1,100,8|0,0:0|0:0,0:0:0:0:
300,132,17096,1,8,0:0:0:0:
376,52,17441,2,0,P|408:120|400:172,1,100,0|8,0:0|0:0,0:0:0:0:
416,256,18130,1,0,0:0:0:0:
356,348,18475,5,12,0:0:0:0:
252,312,18819,2,0,P|232:280|156:260,1,100,0|8,0:0|0:0,0:0:0:0:
120,248,19336,1,0,0:0:0:0:
120,136,19680,2,0,P|136:96|200:56,1,100
224,164,20369,5,0,0:0:0:0:
272,192,20542,2,0,B|296:204|296:204|324:232|384:228,1,100,8|0,0:0|0:0,0:0:0:0:
416,244,21058,2,0,P|472:204|480:140,1,100
408,96,21748,1,0,0:0:0:0:
308,52,22092,2,0,B|276:72|276:72|240:152|148:144,1,150,0|8,0:0|0:0,0:0:0:0:
92,100,22953,2,0,P|81:160|110:209,1,100,0|8,0:0|0:0,0:0:0:0:
148,292,23642,1,0,0:0:0:0:
260,308,23987,6,0,B|288:292|288:292|344:312|392:308,1,100,12|0,0:0|0:0,0:0:0:0:
436,232,24676,2,0,L|444:160,1,50,8|0,0:0|0:0,0:0:0:0:
352,120,25193,1,0,0:0:0:0:
288,212,25537,2,0,P|240:144|248:92,1,100,0|0,0:0|0:0,0:0:0:0:
224,76,26054,5,8,0:0:0:0:
224,76,26226,2,0,L|96:56,1,100,0|0,0:0|0:0,0:0:0:0:
76,88,26743,1,8,0:0:0:0:
68,196,27088,2,0,B|72:236|72:236|84:264|84:264|84:324,1,100,0|8,0:0|0:0,0:0:0:0:
192,320,27777,2,0,P|236:248|216:196,1,100,0|8,0:0|0:0,0:0:0:0:
224,128,28466,2,0,P|276:62|332:63,1,100,0|8,0:0|0:0,0:0:0:0:
396,48,29155,1,0,0:0:0:0:
468,132,29499,6,0,B|460:168|460:168|424:188|424:256,1,100,12|0,0:0|0:0,0:0:0:0:
404,328,30189,2,0,L|352:336,1,50,8|0,0:0|0:0,0:0:0:0:
256,288,30705,1,0,0:0:0:0:
152,252,31050,2,0,B|104:284|52:276,1,100,0|0,0:0|0:0,0:0:0:0:
28,228,31567,5,8,0:0:0:0:
64,120,31911,2,0,P|136:88|184:108,1,100,0|8,0:0|0:0,0:0:0:0:
204,112,32428,1,0,0:0:0:0:
260,208,32773,1,0,0:0:0:0:
360,160,33117,1,0,0:0:0:0:
360,160,33289,2,0,B|408:72|408:72|471:81|492:27,2,200,0|0|0,0:0|0:0|0:0,0:0:0:0:
268,220,35012,5,4,0:0:0:0:
164,188,35357,2,0,L|128:108,1,50,0|0,0:0|0:0,0:0:0:0:
188,44,35873,1,0,0:0:0:0:
269,115,36218,1,0,0:0:0:0:
269,115,36390,2,0,L|332:152,1,50,8|0,0:0|0:0,0:0:0:0:
360,168,36735,2,0,P|394:215|391:288,2,100,0|8|0,0:0|0:0|0:0,0:0:0:0:
292,256,37768,5,4,0:0:0:0:
184,264,38113,1,0,0:0:0:0:
184,264,38285,2,0,B|160:240|160:240|116:228|92:168,1,100,0|0,0:0|0:0,0:0:0:0:
204,144,38974,1,0,0:0:0:0:
204,144,39146,2,0,L|256:108,1,50,8|0,0:0|0:0,0:0:0:0:
300,108,39491,2,0,P|352:151|351:216,1,100,0|8,0:0|0:0,0:0:0:0:
344,288,40180,6,0,P|295:267|260:232,1,100,0|4,0:0|0:0,0:0:0:0:
204,144,40869,1,0,0:0:0:0:
204,32,41214,1,8,0:0:0:0:
300,88,41558,2,0,B|332:226|236:297|88:256|101:115,1,400,0|4,0:0|0:0,0:0:0:0:
144,28,43281,5,8,0:0:0:0:
216,108,43625,1,0,0:0:0:0:
216,108,43798,2,0,P|204:172|200:220,2,100,0|0|0,0:0|0:0|0:0,0:0:0:0:
236,56,44659,2,0,P|288:52|352:52,1,100,8|0,0:0|0:0,0:0:0:0:
392,48,45176,1,0,0:0:0:0:
460,136,45520,2,0,P|448:208|448:300,1,150,0|8,0:0|0:0,0:0:0:0:
348,336,46381,1,0,0:0:0:0:
260,272,46726,5,8,0:0:0:0:
260,272,46898,2,0,P|184:272|116:284,1,100,0|0,0:0|0:0,0:0:0:0:
108,284,47415,1,8,0:0:0:0:
108,284,47587,2,0,P|92:224|88:168,1,100,0|0,0:0|0:0,0:0:0:0:
84,132,48104,1,8,0:0:0:0:
164,56,48449,1,4,0:0:0:0:
196,160,48793,6,0,P|260:164|304:164,1,100,8|0,0:0|0:0,0:0:0:0:
352,168,49310,2,0,P|388:236|384:284,2,100,0|0|0,0:0|0:0|0:0,0:0:0:0:
296,164,50171,2,0,P|304:96|292:56,1,100,8|0,0:0|0:0,0:0:0:0:
196,112,50860,1,8,0:0:0:0:
196,112,51033,2,0,L|162:277,1,150,0|8,0:0|0:0,0:0:0:0:
276,248,51894,6,0,L|336:192,1,50
332,104,52411,2,0,P|396:124|424:168,1,100,0|0,0:0|0:0,0:0:0:0:
424,204,52928,1,8,0:0:0:0:
424,204,53100,2,0,P|390:266|412:323,1,100,0|0,0:0|0:0,0:0:0:0:
376,344,53617,1,8,0:0:0:0:
276,296,53961,1,4,0:0:0:0:
172,336,54306,6,0,P|124:296|100:244,1,100,8|0,0:0|0:0,0:0:0:0:
116,208,54822,1,0,0:0:0:0:
228,212,55167,2,0,B|256:205|256:205|293:206|321:177,1,100,0|0,0:0|0:0,0:0:0:0:
336,124,55684,1,8,0:0:0:0:
440,88,56028,1,0,0:0:0:0:
440,88,56201,2,0,P|404:40|360:20,1,100,0|0,0:0|0:0,0:0:0:0:
264,48,56890,6,0,L|204:92,1,50,0|8,0:0|0:0,0:0:0:0:
132,136,57406,2,0,L|100:204,1,50,0|0,0:0|0:0,0:0:0:0:
120,240,57751,1,8,0:0:0:0:
120,240,57923,2,0,P|196:292|200:320,1,100,0|0,0:0|0:0,0:0:0:0:
240,324,58440,1,8,0:0:0:0:
292,344,58612,2,0,P|368:292|372:264,1,100,0|0,0:0|0:0,0:0:0:0:
360,236,59129,1,8,0:0:0:0:
320,132,59474,1,4,0:0:0:0:
220,180,59818,6,0,P|208:112|252:52,1,100,8|0,0:0|0:0,0:0:0:0:
256,44,60335,1,0,0:0:0:0:
320,132,60680,2,0,P|328:192|316:228,1,100,0|0,0:0|0:0,0:0:0:0:
288,276,61196,2,0,P|340:320|414:312,1,100,8|0,0:0|0:0,0:0:0:0:
420,300,61713,1,0,0:0:0:0:
456,196,62058,6,0,P|460:136|428:92,1,100,0|0,0:0|0:0,0:0:0:0:
392,76,62574,1,8,0:0:0:0:
292,32,62919,1,0,0:0:0:0:
250,68,63091,2,0,L|174:68,1,50,0|8,0:0|0:0,0:0:0:0:
148,92,63436,2,0,P|88:100|40:92,1,100
20,140,63953,2,0,B|12:180|12:180|24:212|24:212|16:260,1,100,8|0,0:0|0:0,0:0:0:0:
112,296,64642,1,8,0:0:0:0:
220,296,64986,1,4,0:0:0:0:
256,108,76356,6,0,P|220:132|200:208,1,100,4|0,0:0|0:0,0:0:0:0:
308,208,77045,1,8,0:0:0:0:
308,208,77217,2,0,P|344:184|364:108,2,100,0|0|0,0:0|0:0|0:0,0:0:0:0:
232,288,78251,2,0,B|259:278|259:278|320:312|380:260,1,150,0|0,0:0|0:0,0:0:0:0:
436,176,79112,5,8,0:0:0:0:
368,92,79456,1,0,0:0:0:0:
264,56,79801,1,8,0:0:0:0:
184,132,80145,1,0,0:0:0:0:
184,132,80318,2,0,P|140:192|100:200,1,100,0|0,0:0|0:0,0:0:0:0:
64,188,80835,2,0,P|36:132|52:80,1,100,0|8,0:0|0:0,0:0:0:0:
128,28,81524,1,0,0:0:0:0:
236,44,81868,6,0,P|284:68|296:140,1,100,4|0,0:0|0:0,0:0:0:0:
408,128,82557,1,8,0:0:0:0:
408,128,82729,2,0,P|368:200|340:216,2,100,0|0|0,0:0|0:0|0:0,0:0:0:0:
300,116,83763,2,0,P|248:176|244:216,1,100,0|0,0:0|0:0,0:0:0:0:
232,248,84280,5,0,0:0:0:0:
232,248,84452,2,0,B|200:272|193:283|193:283|172:280|136:300,1,100,0|0,0:0|0:0,0:0:0:0:
80,204,85141,1,0,0:0:0:0:
125,105,85486,2,0,B|191:107|209:61|209:61|256:96|308:72,1,200,0|0,0:0|0:0,0:0:0:0:
356,64,86347,2,0,P|405:86|441:134,1,100,0|8,0:0|0:0,0:0:0:0:
408,228,87036,1,0,0:0:0:0:
312,284,87381,5,12,0:0:0:0:
208,240,87725,2,0,B|180:228|180:228|100:244|56:188,1,150,0|0,0:0|0:0,0:0:0:0:
144,124,88586,1,0,0:0:0:0:
248,168,88931,2,0,P|289:232|287:264,1,100,0|0,0:0|0:0,0:0:0:0:
276,308,89448,1,8,0:0:0:0:
276,308,89620,2,0,P|207:340|171:396,1,100,0|0,0:0|0:0,0:0:0:0:
136,356,90137,1,8,0:0:0:0:
60,276,90481,6,0,L|24:196,1,50,0|8,0:0|0:0,0:0:0:0:
20,180,90826,1,8,0:0:0:0:
128,164,91170,2,0,B|149:212|149:212|205:250,1,100,0|8,0:0|0:0,0:3:0:0:
240,258,91687,5,0,0:3:0:0:
292,268,91860,2,0,L|338:283,1,50,0|0,0:0|0:0,0:3:0:0:
381,245,92204,2,0,L|458:269,1,50,8|0,0:0|0:0,0:3:0:0:
481,247,92549,1,0,0:3:0:0:
440,144,92893,2,0,P|394:65|348:53,1,100,4|0,0:0|0:0,0:0:0:0:
336,50,93410,1,0,0:0:0:0:
336,50,93582,2,0,L|248:51,1,50,8|0,0:0|0:0,0:0:0:0:
176,36,94099,2,0,B|144:44|144:44|123:75|48:80,2,100
229,54,94960,6,0,L|233:129,1,50,8|0,0:0|0:0,0:0:0:0:
221,159,95305,2,0,P|212:230|221:266,1,100,0|8,0:0|0:0,0:0:0:0:
241,307,95822,2,0,B|270:320|270:320|306:355|349:351,1,100
344,243,96511,1,0,0:0:0:0:
344,243,96683,2,0,B|375:160|375:160|454:164|476:110,2,200
256,176,98406,6,0,P|212:116|156:108,1,100,4|0,0:0|0:0,0:0:0:0:
136,100,98922,1,0,0:0:0:0:
164,208,99267,2,0,B|191:261|264:276,1,100
292,268,99784,1,8,0:0:0:0:
374,195,100128,2,0,L|398:143,1,50,0|0,0:0|0:0,0:0:0:0:
390,95,100473,2,0,L|362:47,1,50,8|0,0:0|0:0,0:0:0:0:
314,35,100817,6,0,B|278:35|278:35|238:75|182:63,1,100,0|4,0:0|0:0,0:0:0:0:
112,64,101506,2,0,P|66:114|73:180,1,100,0|8,0:0|0:0,0:0:0:0:
103,181,102023,2,0,P|143:235|130:299,1,100
114,313,102540,1,8,0:0:0:0:
7,291,102885,1,0,0:0:0:0:
20,180,103229,2,0,L|35:115,1,50,8|0,0:3|0:3,0:0:0:0:
76,100,103574,1,0,0:0:0:0:
172,156,103918,6,0,P|240:192|296:168,1,100,12|0,0:0|0:0,0:0:0:0:
348,124,104607,1,8,0:0:0:0:
291,32,104952,2,0,B|254:23|231:31|231:31|200:82|150:83|81:38,2,200,0|0|4,0:0|0:0|0:0,0:0:0:0:
396,60,106674,5,8,0:0:0:0:
296,108,107018,1,0,0:0:0:0:
296,108,107191,2,0,P|308:172|312:220,2,100,0|0|0,0:0|0:0|0:0,0:0:0:0:
276,56,108052,2,0,L|160:52,1,100,8|0,0:0|0:0,0:0:0:0:
120,48,108569,1,0,0:0:0:0:
52,136,108914,2,0,P|64:208|64:300,1,150,0|8,0:0|0:0,0:0:0:0:
164,336,109774,1,0,0:0:0:0:
252,272,110119,5,8,0:0:0:0:
252,272,110291,2,0,P|328:272|396:284,1,100,0|0,0:0|0:0,0:0:0:0:
404,284,110808,1,8,0:0:0:0:
404,284,110981,2,0,P|420:224|424:168,1,100,0|0,0:0|0:0,0:0:0:0:
428,132,111497,1,8,0:0:0:0:
348,56,111842,1,4,0:0:0:0:
316,160,112186,6,0,P|252:164|208:164,1,100,8|0,0:0|0:0,0:0:0:0:
160,168,112703,2,0,P|124:236|128:284,2,100,0|0|0,0:0|0:0|0:0,0:0:0:0:
212,148,113564,2,0,P|204:80|216:40,1,100,8|0,0:0|0:0,0:0:0:0:
316,112,114254,1,8,0:0:0:0:
316,112,114427,2,0,L|350:277,1,150,0|8,0:0|0:0,0:0:0:0:
236,248,115287,6,0,L|176:192,1,50,0|0,0:0|0:0,0:0:0:0:
180,104,115804,2,0,P|116:124|88:168,1,100,0|0,0:0|0:0,0:0:0:0:
88,204,116321,1,8,0:0:0:0:
88,204,116493,2,0,P|122:266|100:323,1,100,0|0,0:0|0:0,0:0:0:0:
136,344,117010,1,8,0:0:0:0:
236,296,117354,1,4,0:0:0:0:
340,336,117699,6,0,P|388:296|412:244,1,100,8|0,0:0|0:0,0:0:0:0:
396,208,118215,1,0,0:0:0:0:
284,212,118560,2,0,B|256:205|256:205|219:206|191:177,1,100,0|0,0:0|0:0,0:0:0:0:
176,124,119077,1,8,0:0:0:0:
72,88,119421,1,0,0:0:0:0:
72,88,119594,2,0,P|108:40|152:20,1,100,0|0,0:0|0:0,0:0:0:0:
248,48,120283,6,0,L|308:92,1,50,0|8,0:0|0:0,0:0:0:0:
380,136,120799,2,0,L|412:204,1,50
392,236,121145,1,8,0:0:0:0:
392,236,121316,2,0,P|316:288|312:316,1,100
272,324,121833,1,8,0:0:0:0:
220,344,122005,2,0,P|144:292|140:264,1,100
152,236,122522,1,8,0:0:0:0:
192,132,122867,1,4,0:0:0:0:
292,180,123211,6,0,P|304:112|260:52,1,100,8|0,0:0|0:0,0:0:0:0:
256,44,123728,1,0,0:0:0:0:
192,132,124073,2,0,P|199:200|257:247,1,100,0|0,0:0|0:0,0:0:0:0:
236,276,124589,2,0,P|184:320|110:312,1,100,8|0,0:0|0:0,0:0:0:0:
100,308,125106,1,0,0:0:0:0:
56,208,125451,6,0,P|52:148|84:104,1,100,0|0,0:0|0:0,0:0:0:0:
120,92,125967,1,8,0:0:0:0:
220,32,126313,1,0,0:0:0:0:
262,68,126485,2,0,L|338:68,1,50,0|8,0:0|0:0,0:0:0:0:
364,92,126830,2,0,P|424:100|472:92,1,100
492,140,127347,2,0,B|500:180|500:180|488:212|488:212|496:260,1,100,8|0,0:0|0:0,0:0:0:0:
400,296,128036,1,8,0:0:0:0:
292,296,128380,1,4,0:0:0:0:
252,112,133892,6,0,B|216:148|216:148|160:140|112:192,1,150
204,256,134754,1,0,0:0:0:0:
308,292,135098,1,0,0:0:0:0:
416,264,135443,1,0,0:0:0:0:
416,264,135615,2,0,P|417:202|395:154,1,100,8|0,0:0|0:0,0:0:0:0:
300,128,136304,1,8,0:0:0:0:
256,192,136476,12,0,138716,0:0:0:0:
240,284,139405,6,0,B|264:276|292:268|292:268|324:284|356:292|408:256,1,150,0|0,0:0|0:0,0:0:0:0:
344,168,140266,2,0,L|275:95,1,100
180,36,140955,1,0,0:0:0:0:
180,36,141127,2,0,B|152:88|180:168,2,100,8|0|8,0:0|0:0|0:0,0:0:0:0:
256,192,141989,12,0,144228,0:0:0:0:
256,192,144917,6,0,B|200:196|163:180|163:180|108:204,1,150,8|0,0:0|0:0,0:0:0:0:
184,288,145779,1,0,0:0:0:0:
292,272,146123,2,0,P|336:236|332:164,1,100,0|0,0:0|0:0,0:0:0:0:
340,140,146640,2,0,B|360:124|360:124|408:120|432:100,1,100,8|0,0:0|0:0,0:0:0:0:
456,208,147329,6,0,L|424:280,1,50,8|0,0:0|0:0,0:0:0:0:
336,304,147846,1,0,0:0:0:0:
292,272,148018,1,8,0:0:0:0:
196,220,148363,2,0,B|180:200|180:200|192:176|192:176|172:156|172:156|192:128|192:128|168:104|168:104|168:88,1,150,0|0,0:0|0:0,0:0:0:0:
248,28,149224,2,0,L|316:44,1,50,0|8,0:0|0:0,0:0:0:0:
387,102,149741,2,0,B|387:103|387:103|399:134|399:134|369:151|369:151|378:178|378:178|357:195|357:195|364:220,1,150
256,208,150602,6,0,L|198:171,2,50,0|8|0,0:0|0:0|0:0,0:0:0:0:
168,276,151291,2,0,L|100:276,2,50,0|8|0,0:0|0:0|0:0,0:0:0:0:
256,340,151980,2,0,L|198:376,2,50,0|8|0,0:0|0:0|0:0,0:0:0:0:
344,276,152669,2,0,L|396:256,1,50,0|8,0:0|0:0,0:0:0:0:
456,168,153186,6,0,P|476:108|468:56,1,100,0|8,0:0|0:0,0:0:0:0:
367,102,153875,1,0,0:0:0:0:
256,104,154220,1,8,0:0:0:0:
208,200,154564,2,0,P|156:148|156:92,2,100,0|8|0,0:0|0:0|0:0,0:0:0:0:
316,188,155598,5,8,0:0:0:0:
384,276,155942,1,0,0:0:0:0:
276,292,156287,1,8,0:0:0:0:
316,188,156631,2,0,P|376:152|416:144,1,100,0|8,0:0|0:0,0:0:0:0:
416,36,157320,2,0,P|346:28|311:37,1,100,0|8,0:0|0:0,0:0:0:0:
248,120,158009,2,0,B|208:144|208:144|164:184,2,100,0|8|0,0:0|0:0|0:0,0:0:0:0:
312,212,159043,5,8,0:0:0:0:
208,252,159388,2,0,P|128:252|104:232,1,100,0|8,0:0|0:0,0:0:0:0:
52,152,160077,1,0,0:0:0:0:
48,40,160421,1,8,0:0:0:0:
156,64,160766,1,0,0:0:0:0:
248,120,161111,6,0,P|296:112|330:77,1,100,8|8,0:0|0:0,0:0:0:0:
440,56,161799,2,0,P|436:104|408:156,2,100,8|0|8,0:0|0:0|0:0,0:0:0:0:
330,77,162833,1,0,0:0:0:0:
240,140,163177,1,8,0:0:0:0:
344,180,163522,2,0,L|408:272,1,100,0|8,0:0|0:0,0:0:0:0:
300,304,164211,6,0,L|236:212,1,100,0|8,0:0|0:0,0:0:0:0:
164,144,164900,2,0,P|132:204|160:264,2,100,0|8|0,0:0|0:0|0:0,0:0:0:0:
248,76,165934,1,8,0:0:0:0:
352,44,166278,1,0,0:0:0:0:
324,152,166623,6,0,P|380:200|440:196,2,100,8|0|8,0:0|0:0|0:0,0:0:0:0:
248,76,167656,2,0,P|175:62|125:95,1,100,0|8,0:0|0:0,0:0:0:0:
64,132,168345,1,0,0:0:0:0:
84,240,168690,1,8,0:0:0:0:
180,296,169034,1,0,0:0:0:0:
180,184,169379,6,0,L|268:120,1,100,8|0,0:0|0:0,0:0:0:0:
356,176,170068,2,0,L|463:192,1,100,8|0,0:0|0:0,0:0:0:0:
428,83,170757,2,0,L|329:68,2,100,8|0|8,0:0|0:0|0:0,0:0:0:0:
454,191,171791,2,0,P|460:248|424:296,1,100,0|8,0:0|0:0,0:0:0:0:
328,296,172480,5,0,0:0:0:0:
220,284,172824,1,8,0:0:0:0:
148,200,173169,2,0,P|193:179|242:177,1,100,0|8,0:0|0:0,0:0:0:0:
256,192,173858,12,8,174891,0:0:0:0:
160,192,175580,5,12,0:0:0:0:
252,132,175925,2,0,L|308:156,1,50,0|0,0:0|0:0,0:0:0:0:
340,252,176442,2,0,P|396:206|408:168,2,100,0|0|0,0:0|0:0|0:0,0:0:0:0:
284,244,177303,1,0,0:0:0:0:
176,272,177648,1,8,0:0:0:0:
80,220,177992,6,0,B|84:180|84:180|104:144|88:96,1,100,0|8,0:0|0:0,0:0:0:0:
168,40,178681,2,0,L|220:56,1,50,0|0,0:0|0:0,0:0:0:0:
283,141,179198,1,0,0:0:0:0:
370,74,179543,2,0,L|422:90,1,50,0|0,0:0|0:0,0:0:0:0:
440,196,180059,2,0,P|456:252|432:308,2,100,0|8|0,0:0|0:0|0:0,0:0:0:0:
340,244,181093,5,8,0:0:0:0:
248,300,181437,1,0,0:0:0:0:
140,312,181782,2,0,L|128:252,1,50,8|0,0:0|0:0,0:0:0:0:
200,180,182299,1,0,0:0:0:0:
252,164,182471,1,12,0:0:0:0:
360,148,182816,2,0,B|392:128|392:128|436:128|464:112,2,100,0|8|4,0:0|0:0|0:0,0:0:0:0:
252,164,183849,6,0,P|256:96|288:56,1,100,8|0,0:0|0:0,0:0:0:0:
308,28,184366,1,0,0:0:0:0:
420,32,184711,2,0,P|456:96|442:146,1,100,0|0,0:0|0:0,0:0:0:0:
436,172,185227,1,8,0:0:0:0:
352,240,185572,2,0,L|296:264,1,50,0|0,0:0|0:0,0:0:0:0:
196,276,186089,6,0,B|168:248|168:248|156:204|100:196,1,100,0|0,0:0|0:0,0:0:0:0:
84,176,186605,2,0,P|76:104|108:60,1,100,8|0,0:0|0:0,0:0:0:0:
196,60,187295,1,8,0:0:0:0:
252,68,187467,1,0,0:0:0:0:
196,164,187811,2,0,L|264:172,2,50,0|8|0,0:0|0:0|0:0,0:0:0:0:
84,176,188500,2,0,L|96:224,1,50,0|8,0:0|0:0,0:0:0:0:
188,284,189017,2,0,P|264:268|316:296,1,100,4|8,0:0|0:0,0:0:0:0:
372,336,189706,6,0,P|396:272|380:236,1,100,0|8,0:0|0:0,0:0:0:0:
356,200,190223,2,0,P|332:152|356:92,1,100,0|0,0:0|0:0,0:0:0:0:
356,56,190740,1,8,0:0:0:0:
248,44,191084,2,0,L|200:88,1,50,0|0,0:0|0:0,0:0:0:0:
108,40,191601,2,0,P|96:104|136:152,1,100,0|0,0:0|0:0,0:0:0:0:
160,160,192118,1,8,0:0:0:0:
260,208,192462,2,0,L|316:276,1,50,0|0,0:0|0:0,0:0:0:0:
388,308,192979,2,0,B|424:280|432:248|432:248|484:228|500:180|464:124,1,200,8|8,0:0|0:0,0:0:0:0:
388,80,194013,2,0,L|336:124,1,50,0|8,0:0|0:0,0:0:0:0:
334,220,194530,6,0,P|265:246|240:292,1,100,4|8,0:0|0:0,0:0:0:0:
146,229,195219,1,0,0:0:0:0:
92,132,195563,1,8,0:0:0:0:
132,92,195736,2,0,P|200:80|240:40,1,100,0|0,0:0|0:0,0:0:0:0:
272,40,196252,2,0,P|316:80|328:144,1,100,8|0,0:0|0:0,0:0:0:0:
320,172,196769,1,0,0:0:0:0:
320,284,197114,6,0,P|404:252|420:212,1,100,0|0,0:0|0:0,0:0:0:0:
424,196,197630,1,8,0:0:0:0:
400,88,197975,2,0,L|344:52,1,50,0|0,0:0|0:0,0:0:0:0:
256,100,198492,2,0,P|192:104|152:84,1,100,0|0,0:0|0:0,0:0:0:0:
104,100,199009,1,8,0:0:0:0:
72,144,199181,2,0,P|76:208|56:248,1,100,0|0,0:0|0:0,0:0:0:0:
36,288,199698,1,8,0:0:0:0:
144,280,200042,6,0,P|200:256|260:268,1,100,4|8,0:0|0:0,0:0:0:0:
340,304,200731,2,0,L|360:248,1,50,0|0,0:0|0:0,0:0:0:0:
452,200,201248,2,0,P|400:156|328:156,1,100,0|0,0:0|0:0,0:0:0:0:
316,152,201765,2,0,P|240:200|196:200,1,100,8|0,0:0|0:0,0:0:0:0:
176,196,202282,1,0,0:0:0:0:
67,214,202626,6,0,P|71:168|110:104,1,100,0|0,0:0|0:0,0:0:0:0:
142,91,203143,1,8,0:0:0:0:
248,56,203487,2,0,L|312:72,1,50,0|0,0:0|0:0,0:0:0:0:
348,88,203832,2,0,L|376:156,1,50,8|0,0:0|0:0,0:0:0:0:
256,192,204177,12,0,205210,0:0:0:0:
256,116,205899,6,0,P|206:136|166:185,1,100,8|0,0:0|0:0,0:0:0:0:
152,219,206416,1,0,0:0:0:0:
248,272,206760,2,0,P|312:300|336:328,1,100,0|0,0:0|0:0,0:0:0:0:
384,336,207277,1,8,0:0:0:0:
456,252,207622,2,0,L|408:184,1,50,0|0,0:0|0:0,0:0:0:0:
316,208,208139,2,0,P|324:148|384:112,1,100,0|0,0:0|0:0,0:0:0:0:
396,92,208655,1,8,0:0:0:0:
300,36,209000,6,0,L|224:116,1,100,4|8,0:0|0:0,0:0:0:0:
140,172,209689,2,0,L|216:252,1,100,4|8,0:0|0:0,0:0:0:0:
316,208,210378,2,0,P|310:297|301:319,2,100,12|0|4,0:0|0:0|0:0,0:0:0:0:
216,164,211412,5,8,0:0:0:0:
136,88,211756,1,0,0:0:0:0:
84,108,211928,1,0,0:0:0:0:
52,212,212273,2,0,P|76:272|120:300,1,100,0|0,0:0|0:0,0:0:0:0:
156,284,212790,2,0,P|228:304|248:332,1,100,8|0,0:0|0:0,0:0:0:0:
296,332,213307,1,0,0:0:0:0:
360,240,213651,2,0,P|368:176|336:132,1,100,0|0,0:0|0:0,0:0:0:0:
308,112,214168,1,8,0:0:0:0:
220,44,214512,6,0,P|192:104|196:140,1,100,4|8,0:0|0:0,0:0:0:0:
84,144,215201,2,0,P|112:212|134:228,1,100,4|8,0:0|0:0,0:0:0:0:
56,312,215891,2,0,P|128:336|152:336,2,100,8|0|4,0:0|0:0|0:0,0:0:0:0:
131,226,216924,6,0,L|244:256,1,100,8|0,0:0|0:0,0:0:0:0:
284,260,217441,1,0,0:0:0:0:
352,344,217785,2,0,P|384:288|384:248,1,100,0|0,0:0|0:0,0:0:0:0:
364,204,218302,2,0,P|356:140|372:104,1,100,8|0,0:0|0:0,0:0:0:0:
404,68,218819,1,0,0:0:0:0:
300,28,219164,2,0,P|224:40|172:80,1,100,0|0,0:0|0:0,0:0:0:0:
164,84,219680,1,8,0:0:0:0:
63,129,220025,6,0,P|126:187|165:193,1,100,4|0,0:0|0:0,0:0:0:0:
220,263,220714,2,0,P|140:279|112:313,1,100,12|0,0:0|0:0,0:0:0:0:
202,370,221403,2,0,P|280:352|308:318,2,100,8|0|12,0:0|0:0|0:0,0:0:0:0:
128,290,222437,6,0,P|80:251|72:207,1,100,8|0,0:0|0:0,0:0:0:0:
84,163,222953,1,0,0:0:0:0:
193,174,223298,2,0,P|249:130|249:82,1,100,0|0,0:0|0:0,0:0:0:0:
261,50,223815,1,8,0:0:0:0:
370,39,224159,1,0,0:0:0:0:
422,59,224332,2,0,P|454:123|442:167,1,100,0|0,0:0|0:0,0:0:0:0:
396,244,225021,5,0,0:0:0:0:
344,264,225193,1,8,0:0:0:0:
260,336,225537,2,0,B|232:316|232:316|224:280|224:280|192:256|192:256|188:232,1,100,0|8,0:0|0:0,0:0:0:0:
152,240,226054,2,0,P|108:216|88:144,1,100,0|0,0:0|0:0,0:0:0:0:
92,116,226571,1,8,0:0:0:0:
188,60,226916,6,0,B|208:68|208:68|240:116|304:112,1,100,0|8,0:0|0:0,0:0:0:0:
320,136,227432,2,0,P|404:132|424:120,1,100,0|0,0:0|0:0,0:0:0:0:
464,96,227949,1,8,0:0:0:0:
444,44,228121,2,0,P|361:26|339:32,1,100,0|0,0:0|0:0,0:0:0:0:
296,44,228638,1,8,0:0:0:0:
244,64,228810,2,0,P|216:80|144:80,1,100,0|0,0:0|0:0,0:0:0:0:
96,84,229327,2,0,L|48:148,1,50,8|0,0:0|0:0,0:0:0:0:
112,224,229844,2,0,L|160:288,1,50,0|8,0:0|0:0,0:0:0:0:
224,188,230361,1,4,0:0:0:0:
