osu file format v14

[General]
AudioFilename: Monkey Wrench.mp3
AudioLeadIn: 0
PreviewTime: 43281
Countdown: 0
SampleSet: Normal
StackLeniency: 0.7
Mode: 0
LetterboxInBreaks: 0
EpilepsyWarning: 1
WidescreenStoryboard: 1

[Editor]
DistanceSpacing: 1.2
BeatDivisor: 4
GridSize: 4
TimelineZoom: 2.1

[Metadata]
Title:Monkey Wrench
TitleUnicode:Monkey Wrench
Artist:Foo Fighters
ArtistUnicode:Foo Fighters
Creator:Danny
Version:Insane
Source:
Tags:Kuronoya The Colour and the Shape Hard Rock Grunge Alternative
BeatmapID:257742
BeatmapSetID:90087

[Difficulty]
HPDrainRate:7
CircleSize:4
OverallDifficulty:8
ApproachRate:9
SliderMultiplier:1.6
SliderTickRate:1

[Events]
//Background and Video events
0,0,"foofighters.jpg",0,0
//Break Periods
//Storyboard Layer 0 (Background)
//Storyboard Layer 1 (Fail)
//Storyboard Layer 2 (Pass)
//Storyboard Layer 3 (Foreground)
//Storyboard Sound Samples

[TimingPoints]
12618,344.530577088717,4,1,1,60,1,0
18130,-100,4,2,1,40,0,0
18475,-100,4,1,1,60,0,0
23642,-100,4,2,1,40,0,0
23987,-100,4,1,1,60,0,0
29155,-100,4,2,1,40,0,0
29499,-100,4,1,1,60,0,0
34840,-100,4,1,1,100,0,0
35012,-100,4,1,1,60,0,0
37596,-100,4,1,1,100,0,0
37768,-100,4,1,1,60,0,0
40352,-100,4,1,1,100,0,0
40524,-100,4,1,1,60,0,0
42764,-100,4,1,1,100,0,0
42936,-100,4,1,1,60,0,0
43281,-100,4,1,1,70,0,1
48276,-100,4,1,1,100,0,1
48449,-100,4,1,1,70,0,1
53789,-100,4,1,1,100,0,1
53961,-100,4,1,1,70,0,1
59301,-100,4,1,1,100,0,1
59474,-100,4,1,1,70,0,1
64986,-100,4,1,1,80,0,0
65331,-100,4,1,1,60,0,0
81524,-100,4,2,1,40,0,0
81868,-100,4,1,1,60,0,0
87036,-100,4,2,1,40,0,0
87381,-100,4,1,1,60,0,0
92549,-100,4,2,1,40,0,0
92893,-100,4,1,1,60,0,0
98233,-100,4,1,1,100,0,0
98406,-100,4,1,1,60,0,0
100990,-100,4,1,1,100,0,0
101162,-100,4,1,1,60,0,0
103746,-100,4,1,1,100,0,0
103918,-100,4,1,1,60,0,0
106330,-100,4,1,1,100,0,0
106674,-100,4,1,1,70,0,1
111670,-100,4,1,1,100,0,1
111842,-100,4,1,1,70,0,1
117183,-100,4,1,1,100,0,1
117355,-100,4,1,1,70,0,1
122695,-100,4,1,1,100,0,1
122867,-100,4,1,1,70,0,1
128380,-100,4,1,1,100,0,0
128724,-100,4,1,1,60,0,0
153014,-100,4,1,1,100,0,0
153186,-100,4,1,1,60,0,0
183849,-100,4,1,1,70,0,1
188845,-100,4,1,1,100,0,1
189017,-100,4,1,1,70,0,1
194357,-100,4,1,1,100,0,1
194530,-100,4,1,1,70,0,1
199870,-100,4,1,1,100,0,1
200042,-100,4,1,1,70,0,1
205727,-100,4,1,1,60,0,1
205899,-100,4,1,1,70,0,1
209517,-100,4,1,1,100,0,1
209689,-100,4,1,1,70,0,1
210895,-100,4,1,1,100,0,1
211067,-100,4,1,1,70,0,1
215029,-100,4,1,1,100,0,1
215201,-100,4,1,1,70,0,1
216407,-100,4,1,1,100,0,1
216580,-100,4,1,1,70,0,1
220542,-100,4,1,1,100,0,1
220714,-100,4,1,1,70,0,1
221920,-100,4,1,1,100,0,1
222092,-100,4,1,1,70,0,1
230361,-100,4,1,1,100,0,0

[Colours]
Combo1 : 181,126,117
Combo2 : 120,170,180
Combo3 : 124,120,99
Combo4 : 101,147,180

[HitObjects]
171,36,12962,6,0,B|128:54|99:88|99:88|111:116|87:164,1,160,4|0,0:0|0:0,0:0:0:0:
132,240,13479,1,0,0:0:0:0:
220,276,13651,2,0,B|296:260|296:260|297:220|337:169,1,160,8|0,0:0|0:0,0:0:0:0:
328,96,14168,1,0,0:0:0:0:
388,20,14340,2,0,B|430:85|430:85|398:115|426:179,1,160,8|0,0:0|0:0,0:0:0:0:
312,176,14857,1,0,0:0:0:0:
220,144,15029,1,8,0:0:0:0:
188,52,15201,1,0,0:0:0:0:
96,84,15374,6,0,L|60:192,1,80,0|0,0:0|0:0,0:0:0:0:
244,232,15718,2,0,L|247:345,1,80,8|0,0:0|0:0,0:0:0:0:
164,184,16063,2,0,B|152:223|152:223|147:296,1,80,0|0,0:0|0:0,0:0:0:0:
332,268,16407,2,0,B|347:308|347:308|354:379,1,80,8|0,0:0|0:0,0:0:0:0:
244,232,16752,2,0,L|247:345,1,80,0|0,0:0|0:0,0:0:0:0:
432,256,17096,1,8,0:0:0:0:
436,132,17269,6,0,L|376:68,1,80,0|8,0:0|0:0,0:0:0:0:
280,40,17613,1,0,0:0:0:0:
272,136,17785,2,0,L|332:200,1,80,8|0,0:0|0:0,0:0:0:0:
364,283,18130,6,0,B|346:314|346:314|320:331|320:331|309:359,1,80,0|0,0:0|0:0,0:3:0:0:
200,312,18475,6,0,P|165:285|148:248,1,80,12|0,0:0|0:0,0:0:0:0:
166,133,18819,1,0,0:0:0:0:
213,49,18991,1,0,0:0:0:0:
300,92,19164,2,0,P|368:112|392:144,1,80,8|0,0:0|0:0,0:0:0:0:
408,256,19508,2,0,P|340:236|316:204,1,80,0|0,0:0|0:0,0:0:0:0:
300,92,19853,2,0,P|261:101|230:126,1,80,8|0,0:0|0:0,0:0:0:0:
228,224,20197,1,0,0:0:0:0:
220,320,20369,2,0,P|164:296|139:188,1,160,0|0,0:0|0:0,0:0:0:0:
175,120,20886,2,0,P|211:92|247:84,1,80,0|0,0:0|0:0,0:0:0:0:
340,100,21231,1,8,0:0:0:0:
428,140,21403,2,0,B|479:181|485:223|485:223|466:245|469:284,2,160,0|0|0,0:0|0:0|0:0,0:0:0:0:
340,100,22264,6,0,L|264:148,1,80,0|0,0:0|0:0,0:0:0:0:
168,196,22609,1,8,0:0:0:0:
196,308,22781,2,0,L|264:264,1,80,0|8,0:0|0:0,0:0:0:0:
348,204,23126,1,0,0:0:0:0:
428,140,23298,2,0,L|384:72,1,80,8|0,0:0|0:0,0:0:0:0:
284,32,23642,6,0,B|253:50|253:50|222:52|222:52|199:71,1,80,0|0,0:0|0:0,0:0:0:0:
128,148,23987,6,0,P|148:176|188:200,1,80,12|0,0:0|0:0,0:0:0:0:
284,128,24332,1,0,0:0:0:0:
372,164,24504,1,0,0:0:0:0:
408,252,24676,1,8,0:0:0:0:
352,332,24848,2,0,P|316:344|256:340,1,80,0|0,0:0|0:0,0:0:0:0:
178,337,25193,1,0,0:0:0:0:
101,280,25365,1,8,0:0:0:0:
154,198,25537,2,0,P|230:201|298:262,1,160,0|0,0:0|0:0,0:0:0:0:
352,332,26054,2,0,P|400:296|408:252,1,80,8|0,0:0|0:0,0:0:0:0:
400,184,26399,6,0,L|344:112,1,80,0|0,0:0|0:0,0:0:0:0:
112,200,26743,2,0,L|168:272,1,80,8|0,0:0|0:0,0:0:0:0:
372,256,27088,2,0,P|416:260|460:232,1,80,0|0,0:0|0:0,0:0:0:0:
140,128,27432,2,0,P|96:124|52:152,1,80,8|0,0:0|0:0,0:0:0:0:
256,116,27777,1,0,0:0:0:0:
284,208,27949,1,0,0:0:0:0:
224,284,28121,1,8,0:0:0:0:
132,320,28294,2,0,B|99:296|99:296|76:260,1,80,0|8,0:0|0:0,0:0:0:0:
192,205,28638,1,0,0:0:0:0:
75,153,28810,2,0,B|99:120|99:120|135:97,1,80,8|0,0:0|0:0,0:0:0:0:
240,88,29155,6,0,B|252:83|252:83|282:92|282:92|317:85,1,80,0|0,0:0|0:0,0:0:0:0:
408,8,29499,6,0,P|429:43|431:97,1,80,12|0,0:0|0:0,0:0:0:0:
393,198,29844,1,0,0:0:0:0:
356,286,30016,1,0,0:0:0:0:
292,212,30189,1,8,0:0:0:0:
255,300,30361,2,0,P|192:304|168:296,1,80
216,212,30705,1,0,0:0:0:0:
112,372,30878,2,0,P|81:316|78:291,1,80,8|0,0:0|0:0,0:0:0:0:
76,204,31222,2,0,P|88:148|84:108,1,80
184,116,31567,1,8,0:0:0:0:
248,188,31739,1,0,0:0:0:0:
220,304,31911,6,0,L|308:280,1,80,0|0,0:0|0:0,0:0:0:0:
144,156,32256,2,0,L|168:244,1,80,8|0,0:0|0:0,0:0:0:0:
292,80,32600,2,0,L|204:104,1,80,0|0,0:0|0:0,0:0:0:0:
371,235,32945,2,0,L|347:147,1,80,8|0,0:0|0:0,0:0:0:0:
292,80,33289,5,0,0:0:0:0:
261,71,33375,1,0,0:0:0:0:
230,62,33461,1,0,0:0:0:0:
199,53,33547,1,0,0:0:0:0:
168,44,33633,1,8,0:0:0:0:
140,60,33719,1,0,0:0:0:0:
126,89,33805,1,0,0:0:0:0:
113,118,33891,1,0,0:0:0:0:
100,147,33978,5,0,0:0:0:0:
87,176,34064,1,0,0:0:0:0:
73,205,34150,1,0,0:0:0:0:
80,236,34236,1,0,0:0:0:0:
110,246,34322,1,8,0:0:0:0:
140,256,34408,1,0,0:0:0:0:
171,267,34494,1,0,0:0:0:0:
201,277,34580,1,0,0:0:0:0:
231,287,34667,6,2,B|252:288|252:288|260:280|260:280|276:288|276:288|292:280|292:280|308:288|308:288|320:280|320:280|332:288|332:288|344:280|344:280|352:288|352:288|364:280|364:280|376:288|376:288,1,160,0|4,0:0|0:0,0:0:0:0:
376,76,35357,6,0,L|280:64,1,80,0|0,0:0|0:0,0:0:0:0:
200,60,35701,1,8,0:0:0:0:
116,108,35873,1,0,0:0:0:0:
72,192,36046,2,0,L|132:248,1,80,0|0,0:0|0:0,0:0:0:0:
312,288,36390,2,0,L|252:232,1,80,8|0,0:0|0:0,0:0:0:0:
200,60,36735,2,0,L|260:116,1,80,0|0,0:0|0:0,0:0:0:0:
456,136,37079,2,0,L|396:80,1,80,8|0,0:0|0:0,0:0:0:0:
356,56,37338,1,0,0:0:0:0:
356,56,37424,6,2,B|335:55|335:55|327:46|327:46|311:54|311:54|295:45|295:45|279:53|279:53|267:44|267:44|255:52|255:52|243:44|243:44|235:51|235:51|223:43|223:43|211:50|211:50,1,160,0|4,0:0|0:0,0:0:0:0:
60,204,38113,6,0,P|104:240|136:248,1,80,0|0,0:0|0:0,0:0:0:0:
224,252,38457,1,8,0:0:0:0:
320,232,38630,1,0,0:0:0:0:
408,192,38802,2,0,P|372:148|336:136,1,80,0|0,0:0|0:0,0:0:0:0:
104,192,39146,2,0,P|148:228|180:236,1,80,8|0,0:0|0:0,0:0:0:0:
256,40,39491,2,0,P|220:84|212:116,1,80,0|0,0:0|0:0,0:0:0:0:
256,344,39835,2,0,P|292:300|300:268,1,80,8|0,0:0|0:0,0:0:0:0:
312,224,40094,1,0,0:0:0:0:
312,224,40180,6,2,B|312:202|312:202|321:195|321:195|314:179|314:179|324:163|324:163|317:147|317:147|326:135|326:135|319:123|319:123|328:112|328:112|321:103|321:103|330:92|330:92|323:79|323:79,1,160,0|4,0:0|0:0,0:0:0:0:
112,36,40869,6,0,P|68:68|56:116,1,80,0|0,0:0|0:0,0:0:0:0:
60,192,41214,1,8,0:0:0:0:
116,272,41386,1,0,0:0:0:0:
212,288,41558,5,0,0:0:0:0:
245,274,41644,1,0,0:0:0:0:
276,256,41730,1,0,0:0:0:0:
304,233,41816,1,0,0:0:0:0:
326,205,41902,1,0,0:0:0:0:
342,173,41988,1,0,0:0:0:0:
347,137,42074,1,0,0:0:0:0:
339,103,42160,1,0,0:0:0:0:
315,77,42247,5,0,0:0:0:0:
280,67,42333,1,0,0:0:0:0:
246,76,42419,1,0,0:0:0:0:
216,96,42505,1,0,0:0:0:0:
208,132,42591,1,0,0:0:0:0:
216,168,42677,1,0,0:0:0:0:
236,196,42763,1,0,0:0:0:0:
272,216,42849,1,0,0:0:0:0:
304,233,42936,6,2,P|359:240|408:228,1,80,4|0,0:0|0:0,0:0:0:0:
469,193,43281,6,0,P|473:145|453:101,1,80,8|0,0:0|0:0,0:0:0:0:
388,56,43625,1,0,0:0:0:0:
284,40,43798,1,0,0:0:0:0:
172,52,43970,1,8,0:0:0:0:
108,152,44142,2,0,B|100:204|148:228|148:228|176:296,1,160
300,312,44659,2,0,P|336:295|367:270,1,80,8|0,0:0|0:0,0:0:0:0:
380,172,45003,2,0,P|339:176|292:204,1,80
220,256,45348,1,8,0:0:0:0:
92,257,45520,6,0,B|57:209|57:209|69:158|69:158|52:126|59:86,1,160,0|0,0:0|0:0,0:0:0:0:
156,51,46037,1,8,0:0:0:0:
228,170,46209,1,0,0:0:0:0:
295,49,46381,1,0,0:0:0:0:
158,131,46554,1,0,0:0:0:0:
225,10,46726,1,8,0:0:0:0:
296,129,46898,2,0,P|305:178|289:219,1,80
200,308,47243,1,0,0:0:0:0:
320,348,47415,1,8,0:0:0:0:
424,304,47587,2,0,P|443:270|445:216,1,80,0|0,0:0|0:0,0:0:0:0:
352,136,47932,1,0,0:0:0:0:
223,92,48104,2,0,B|201:112|201:112|189:168|168:181,1,80,8|0,0:0|0:0,0:0:0:0:
196,256,48449,6,0,P|228:302|256:318,1,80,4|0,0:0|0:0,0:0:0:0:
388,284,48793,6,0,L|476:252,1,80,8|0,0:0|0:0,0:0:0:0:
299,65,49138,2,0,L|211:97,1,80,0|0,0:0|0:0,0:0:0:0:
120,144,49482,1,8,0:0:0:0:
131,264,49655,2,0,B|177:277|194:311|194:311|235:304|272:329,1,160,0|0,0:0|0:0,0:0:0:0:
388,284,50171,2,0,P|416:240|408:192,1,80,8|0,0:0|0:0,0:0:0:0:
344,132,50516,1,0,0:0:0:0:
256,64,50688,1,0,0:0:0:0:
168,132,50860,1,8,0:0:0:0:
76,203,51033,6,0,B|65:241|52:267|52:267|52:310|128:351,1,160,0|0,0:0|0:0,0:0:0:0:
231,318,51549,2,0,L|287:254,1,80,8|0,0:0|0:0,0:0:0:0:
288,64,51894,2,0,L|232:128,1,80,0|0,0:0|0:0,0:0:0:0:
436,251,52239,1,8,0:0:0:0:
436,251,52411,2,0,L|364:208,1,80,0|0,0:0|0:0,0:0:0:0:
268,176,52755,1,0,0:0:0:0:
168,112,52928,1,8,0:0:0:0:
288,64,53100,2,0,P|336:88|376:128,1,80,0|0,0:0|0:0,0:0:0:0:
444,196,53444,1,0,0:0:0:0:
420,312,53617,2,0,B|393:326|393:326|337:322|318:339,1,80,8|0,0:0|0:0,0:0:0:0:
212,332,53961,6,0,P|172:304|180:220,1,120,4|0,0:0|2:0,0:0:0:0:
176,188,54306,6,0,P|148:148|104:140,1,80,8|0,0:0|0:0,0:0:0:0:
32,176,54650,1,0,0:0:0:0:
52,276,54822,1,0,0:0:0:0:
144,340,54995,1,8,0:0:0:0:
264,348,55167,2,0,B|294:323|332:320|332:320|352:298|352:298|339:270|352:220,1,160,0|0,0:0|0:0,0:0:0:0:
312,144,55684,1,8,0:0:0:0:
200,120,55856,1,0,0:0:0:0:
100,60,56028,2,0,P|141:20|167:7,1,80,0|0,0:0|0:0,0:0:0:0:
256,56,56373,1,8,0:0:0:0:
351,9,56545,6,0,P|385:30|412:60,1,80,0|0,0:0|0:0,0:0:0:0:
392,180,56890,1,0,0:0:0:0:
292,244,57062,2,0,P|235:232|209:218,1,80,8|0,0:0|0:0,0:0:0:0:
44,268,57406,2,0,P|100:279|126:293,1,80,0|0,0:0|0:0,0:0:0:0:
215,222,57751,1,8,0:0:0:0:
272,320,57923,2,0,P|283:263|297:237,1,80,0|0,0:0|0:0,0:0:0:0:
352,160,58268,1,0,0:0:0:0:
396,268,58440,5,8,0:0:0:0:
472,168,58612,2,0,P|456:120|436:92,1,80
328,44,58957,1,0,0:0:0:0:
297,36,59043,1,0,0:0:0:0:
267,46,59129,2,0,B|230:65|230:65|180:118,1,80,8|0,0:0|0:0,0:0:0:0:
192,188,59474,6,0,P|223:230|297:231,1,120,4|0,0:0|2:0,0:0:0:0:
334,236,59818,6,0,P|380:276|396:312,1,80,8|0,0:0|0:0,0:0:0:0:
300,332,60163,1,0,0:0:0:0:
196,340,60335,1,0,0:0:0:0:
124,252,60507,1,8,0:0:0:0:
160,136,60680,2,0,B|204:108|204:108|255:123|255:123|338:91,1,160,0|0,0:0|0:0,0:0:0:0:
400,148,61196,1,8,0:0:0:0:
424,248,61369,1,0,0:0:0:0:
356,328,61541,2,0,P|312:332|272:320,1,80,0|0,0:0|0:0,0:0:0:0:
180,268,61885,1,8,0:0:0:0:
232,168,62058,5,0,0:0:0:0:
152,96,62230,2,0,L|88:156,1,80,0|0,0:0|0:0,0:0:0:0:
352,88,62574,2,0,L|292:24,1,80,8|0,0:0|0:0,0:0:0:0:
368,273,62919,2,0,L|432:213,1,80,0|0,0:0|0:0,0:0:0:0:
160,296,63263,1,8,0:0:0:0:
84,228,63436,2,0,P|64:264|60:320,1,80,0|0,0:0|0:0,0:0:0:0:
120,376,63780,1,0,0:0:0:0:
214,354,63953,5,8,0:0:0:0:
245,346,64039,1,0,0:0:0:0:
274,332,64125,1,0,0:0:0:0:
300,313,64211,1,0,0:0:0:0:
322,290,64297,1,8,0:0:0:0:
342,265,64383,1,0,0:0:0:0:
372,255,64469,5,0,0:0:0:0:
398,237,64555,1,0,0:0:0:0:
414,210,64642,1,8,0:0:0:0:
421,179,64728,1,0,0:0:0:0:
420,147,64814,1,0,0:0:0:0:
326,41,64986,6,0,P|253:38|221:50,1,80,4|0,0:0|0:0,0:0:0:0:
108,120,65331,2,0,P|181:116|213:128,1,80,8|0,0:0|0:0,0:0:0:0:
326,195,65675,2,0,P|254:192|222:204,1,80,0|0,0:0|0:0,0:0:0:0:
108,274,66020,2,0,P|181:270|213:282,1,80,8|0,0:0|0:0,0:0:0:0:
384,296,66364,6,0,L|403:191,1,80,0|0,0:0|0:0,0:0:0:0:
145,93,66709,2,0,L|125:197,1,80,8|0,0:0|0:0,0:0:0:0:
354,81,67053,2,0,L|250:61,1,80,0|0,0:0|0:0,0:0:0:0:
157,302,67398,2,0,L|261:322,1,80,8|0,0:0|0:0,0:0:0:0:
377,228,67742,5,0,0:0:0:0:
329,310,67915,1,0,0:0:0:0:
250,107,68087,1,8,0:0:0:0:
340,141,68259,1,0,0:0:0:0:
137,152,68431,2,0,P|148:208|179:245,1,80,0|0,0:0|0:0,0:0:0:0:
377,228,68776,2,0,P|366:172|335:135,1,80,8|0,0:0|0:0,0:0:0:0:
144,248,69121,6,0,P|192:280|240:284,1,80,0|0,0:0|0:0,0:0:0:0:
296,236,69465,1,8,0:0:0:0:
356,160,69637,1,0,0:3:0:0:
352,119,69723,1,0,0:3:0:0:
320,82,69810,2,0,P|268:46|203:39,1,120,0|0,0:3|0:3,0:3:0:0:
164,36,70154,1,8,0:0:0:0:
68,44,70326,1,0,0:0:0:0:
48,80,70413,1,0,0:0:0:0:
40,120,70499,6,0,L|100:176,1,80
296,120,70843,2,0,L|236:176,1,80,8|0,0:0|0:0,0:0:0:0:
192,320,71188,2,0,L|252:264,1,80,0|0,0:0|0:0,0:0:0:0:
448,320,71532,2,0,L|388:264,1,80,8|0,0:0|0:0,0:0:0:0:
308,187,71877,5,0,0:0:0:0:
208,135,72049,1,0,0:0:0:0:
96,139,72221,1,8,0:0:0:0:
31,231,72394,1,0,0:0:0:0:
112,308,72566,2,0,L|188:336,1,80,0|0,0:0|0:0,0:0:0:0:
372,336,72910,2,0,L|400:260,1,80,8|0,0:0|0:0,0:0:0:0:
400,76,73255,6,0,L|324:48,1,80,0|0,0:0|0:0,0:0:0:0:
140,48,73599,2,0,L|112:124,1,80,8|0,0:0|0:0,0:0:0:0:
136,216,73944,1,0,0:0:0:0:
230,322,74116,1,0,0:0:0:0:
272,188,74288,1,8,0:0:0:0:
112,308,74461,1,0,0:0:0:0:
272,264,74633,5,0,0:0:0:0:
200,176,74805,2,0,P|196:136|218:104,1,80,0|8,0:0|0:0,0:0:0:0:
308,72,75150,1,0,0:0:0:0:
338,82,75236,1,0,0:0:0:0:
363,101,75322,2,0,P|383:137|375:189,1,80,0|0,0:0|0:0,0:0:0:0:
272,188,75667,1,8,0:0:0:0:
217,104,75839,2,0,B|172:76|144:84|144:84|120:116|120:116|100:120|64:152,1,160,0|0,0:0|2:0,0:0:0:0:
64,228,76356,6,0,B|72:272|72:272|104:312,1,80,12|0,0:0|0:0,0:0:0:0:
216,312,76700,2,0,P|260:284|280:220,1,80
284,156,77045,1,8,0:0:0:0:
251,66,77217,2,0,P|205:97|188:152,1,80,0|0,0:0|0:0,0:0:0:0:
220,216,77562,1,0,0:0:0:0:
308,256,77734,1,8,0:0:0:0:
404,248,77906,2,0,L|452:176,1,80,0|0,0:0|0:0,0:0:0:0:
436,84,78251,2,0,L|364:36,1,80,0|8,0:0|0:0,0:0:0:0:
272,36,78595,1,0,0:0:0:0:
180,68,78767,6,0,L|92:120,1,80,0|0,0:0|0:0,0:0:0:0:
332,68,79112,2,0,L|420:120,1,80,8|0,0:0|0:0,0:0:0:0:
156,164,79456,2,0,L|84:237,1,80,0|0,0:0|0:0,0:0:0:0:
356,164,79801,2,0,L|427:237,1,80,8|0,0:0|0:0,0:0:0:0:
152,268,80145,2,0,L|101:357,1,80,0|0,0:0|0:0,0:0:0:0:
360,268,80490,6,0,L|410:357,2,80,8|0|8,0:0|0:0|0:0,0:0:0:0:
256,260,81007,1,0,0:0:0:0:
152,268,81179,2,0,L|101:178,1,80,8|0,0:0|0:0,0:0:0:0:
80,120,81524,6,0,B|96:96|96:96|120:88|136:60,1,80,0|0,0:0|0:0,0:0:0:0:
248,28,81868,6,0,P|298:27|334:49,1,80,12|0,0:0|0:0,0:0:0:0:
400,100,82213,1,0,0:0:0:0:
428,192,82385,1,0,0:0:0:0:
396,284,82557,2,0,P|333:314|304:310,1,80,8|0,0:0|0:0,0:0:0:0:
232,288,82902,2,0,L|212:208,1,80,0|0,0:0|0:0,0:0:0:0:
280,96,83246,2,0,L|300:176,1,80,8|0,0:0|0:0,0:0:0:0:
232,288,83591,1,0,0:0:0:0:
208,180,83763,1,0,0:0:0:0:
136,96,83935,1,8,0:0:0:0:
80,188,84108,5,0,0:0:0:0:
96,284,84280,2,0,P|136:312|176:320,1,80,0|0,0:0|0:0,0:0:0:0:
360,288,84624,2,0,P|320:260|280:252,1,80,8|0,0:0|0:0,0:0:0:0:
429,333,84969,2,0,P|441:284|435:244,1,80,0|0,0:0|0:0,0:0:0:0:
387,174,85313,1,8,0:0:0:0:
268,123,85486,2,0,B|220:128|192:116|192:116|161:115|140:151|146:211,1,160,0|0,0:0|0:0,0:0:0:0:
173,300,86003,5,8,0:0:0:0:
272,308,86175,1,0,0:0:0:0:
348,248,86347,2,0,L|288:184,1,80,8|0,0:0|0:0,0:0:0:0:
88,96,86692,2,0,L|148:160,1,80,8|0,0:0|0:0,0:0:0:0:
136,240,87036,6,0,B|163:245|192:232|192:232|214:235,1,80,0|0,0:0|0:0,0:0:0:0:
236,116,87381,6,0,P|274:62|312:46,1,80,12|0,0:0|0:0,0:0:0:0:
352,164,87725,2,0,B|376:200|376:200|392:252,1,80
392,332,88070,2,0,L|308:356,1,80,8|0,0:0|0:0,0:0:0:0:
220,344,88414,2,0,L|218:256,1,80,0|0,0:3|0:0,0:3:0:0:
284,192,88759,1,8,0:0:0:0:
348,264,88931,1,0,0:0:0:0:
315,353,89103,2,0,L|227:346,1,80
144,320,89448,1,8,0:0:0:0:
96,236,89620,1,0,0:0:0:0:
92,140,89792,6,0,L|156:88,1,80,0|0,0:0|0:0,0:0:0:0:
420,244,90137,2,0,L|356:296,1,80,8|0,0:0|0:0,0:0:0:0:
129,75,90481,2,0,L|209:55,1,80,0|0,0:0|0:0,0:0:0:0:
382,308,90826,2,0,L|302:328,1,80,8|0,0:0|0:0,0:0:0:0:
188,31,91170,2,0,L|268:46,1,80,0|0,0:0|0:0,0:0:0:0:
318,350,91515,2,0,L|237:334,1,80,8|0,0:0|0:0,0:0:0:0:
193,223,91860,5,8,0:0:0:0:
272,164,92032,2,0,L|352:136,1,80,0|8,0:0|0:0,0:0:0:0:
448,192,92376,1,0,0:0:0:0:
424,280,92549,6,0,B|398:266|398:266|388:242|359:229,1,80,0|0,0:0|0:0,0:0:0:0:
372,112,92893,6,0,P|372:68|353:24,1,80,12|0,0:0|0:0,0:0:0:0:
264,88,93238,1,0,0:0:0:0:
176,128,93410,1,0,0:0:0:0:
144,220,93582,1,8,0:0:0:0:
192,304,93754,2,0,B|230:324|261:320|261:320|302:297|366:304,2,160,0|0|0,0:0|0:0|0:0,0:0:0:0:
144,220,94616,1,0,0:0:0:0:
192,100,94788,1,0,0:0:0:0:
316,76,94960,2,8,L|396:44,1,80,8|0,0:0|0:0,0:0:0:0:
144,220,95305,6,0,L|112:140,1,80
328,280,95649,2,0,L|248:312,1,80,8|0,0:0|0:0,0:0:0:0:
344,120,95994,2,0,L|376:200,1,80,0|0,0:0|0:0,0:0:0:0:
168,264,96338,2,0,L|136:184,1,80,8|0,0:0|0:0,0:0:0:0:
124,344,96683,2,0,P|204:334|218:322,1,80
268,236,97027,5,8,0:0:0:0:
280,206,97113,1,0,0:0:0:0:
304,186,97199,1,0,0:0:0:0:
335,177,97285,1,0,0:0:0:0:
367,180,97371,1,0,0:0:0:0:
398,189,97457,1,0,0:0:0:0:
424,207,97543,1,0,0:0:0:0:
447,230,97629,1,0,0:0:0:0:
459,258,97716,1,8,0:0:0:0:
460,291,97802,1,0,0:0:0:0:
448,320,97888,1,0,0:0:0:0:
427,345,97974,1,0,0:0:0:0:
404,368,98061,6,2,B|389:376|389:376|371:366|371:366|355:369|355:369|350:358|350:358|333:362|333:362|330:345|330:345|309:347|309:347|304:327|304:327|283:319|283:319|281:315,1,160,0|4,0:0|0:0,0:0:0:0:
284,133,98750,5,0,0:0:0:0:
343,56,98922,2,0,B|394:77|434:77|434:77|457:102|481:147,1,160,0|0,0:0|0:0,0:0:0:0:
436,235,99439,1,0,0:0:0:0:
356,313,99611,1,0,0:0:0:0:
244,324,99784,2,0,L|164:361,1,80,8|0,0:0|0:0,0:0:0:0:
207,156,100129,2,0,L|286:118,1,80,8|0,0:0|0:0,0:0:0:0:
172,280,100473,2,0,L|134:200,1,80,8|0,0:0|0:0,0:0:0:0:
120,156,100731,1,0,0:0:0:0:
120,156,100817,6,2,B|117:139|117:139|132:125|132:125|135:109|135:109|146:108|146:108|149:92|149:92|165:94|165:94|172:74|172:74|192:76|192:76|207:59|207:59|210:58,1,160,0|4,0:0|0:0,0:0:0:0:
424,108,101506,6,0,P|444:148|436:196,1,80,0|0,0:0|0:0,0:0:0:0:
344,240,101851,1,8,0:0:0:0:
280,168,102023,1,0,0:0:0:0:
256,276,102195,1,0,0:0:0:0:
188,188,102368,1,0,0:0:0:0:
180,316,102540,1,8,0:0:0:0:
112,208,102712,1,0,0:0:0:0:
84,96,102885,2,0,B|124:76|124:76|168:68,1,80,8|0,0:0|0:0,0:0:0:0:
352,140,103229,2,0,B|316:164|316:164|280:168,1,80,8|0,0:0|0:0,0:0:0:0:
224,164,103487,1,0,0:0:0:0:
224,164,103574,6,2,B|207:168|207:168|201:188|201:188|188:197|188:197|192:208|192:208|178:217|178:217|187:231|187:231|171:245|171:245|182:263|182:263|174:284|174:284|174:287,1,160,0|12,0:0|0:0,0:0:0:0:
392,248,104263,5,0,0:0:0:0:
352,140,104435,1,0,0:0:0:0:
429,57,104607,1,8,0:0:0:0:
264,68,104779,2,0,P|212:84|184:128,1,80,0|0,0:0|0:0,0:0:0:0:
188,148,105038,5,0,0:0:0:0:
197,186,105124,1,0,0:0:0:0:
220,220,105210,1,0,0:0:0:0:
252,236,105296,1,8,0:0:0:0:
292,236,105382,1,0,0:0:0:0:
324,212,105468,1,0,0:0:0:0:
340,176,105554,1,0,0:0:0:0:
336,136,105640,5,0,0:0:0:0:
308,108,105727,1,0,0:0:0:0:
272,92,105813,1,0,0:0:0:0:
232,100,105899,1,0,0:0:0:0:
196,124,105985,1,8,0:0:0:0:
164,152,106071,1,0,0:0:0:0:
124,172,106157,1,0,0:0:0:0:
80,184,106243,1,0,0:0:0:0:
36,192,106330,6,4,P|11:142|60:73,1,120,4|0,0:0|0:0,0:0:0:0:
72,56,106674,6,0,P|127:41|177:58,1,80,8|0,0:0|0:0,0:0:0:0:
232,100,107019,1,0,0:0:0:0:
336,96,107191,1,0,0:0:0:0:
444,132,107363,1,8,0:0:0:0:
467,253,107536,2,0,B|435:285|435:285|443:329|439:365|359:385,1,160,0|0,0:0|0:0,0:0:0:0:
263,343,108052,1,8,0:0:0:0:
151,279,108225,1,0,0:0:0:0:
168,152,108397,2,0,P|212:120|248:120,1,80,0|0,0:0|0:0,0:0:0:0:
336,96,108742,1,8,0:0:0:0:
320,196,108914,6,0,P|281:213|241:212,1,80,0|0,0:0|0:0,0:0:0:0:
168,152,109258,1,0,0:0:0:0:
164,40,109431,1,8,0:0:0:0:
276,24,109603,1,0,0:0:0:0:
356,80,109775,2,0,B|376:128|416:156|416:156|424:188|384:236,1,160,0|8,0:0|0:0,0:0:0:0:
344,292,110292,1,0,0:0:0:0:
88,256,110636,1,0,0:0:0:0:
92,128,110809,1,8,0:0:0:0:
208,184,110981,2,0,P|244:200|272:288,1,120,0|0,0:0|0:0,0:0:0:0:
276,320,111326,1,0,0:0:0:0:
418,341,111498,2,0,B|452:314|452:314|467:277,1,80,8|0,0:0|0:0,0:0:0:0:
408,168,111842,6,0,P|384:128|384:80,1,80,4|0,0:0|0:0,0:0:0:0:
256,64,112187,6,0,B|212:72|212:72|168:112,1,80,8|0,0:0|0:0,0:0:0:0:
104,192,112531,1,0,0:0:0:0:
192,280,112704,2,0,B|218:303|218:303|262:311,1,80,0|8,0:0|0:0,0:0:0:0:
380,262,113048,2,0,B|384:210|368:182|368:182|328:162|328:110,1,160,0|0,0:0|0:0,0:0:0:0:
204,100,113565,2,0,P|148:124|120:168,1,80,8|0,0:0|0:0,0:0:0:0:
140,232,113909,2,0,P|164:288|208:316,2,80,0|0|8,0:0|0:0|0:0,0:0:0:0:
135,137,114426,5,0,0:0:0:0:
160,44,114599,2,0,P|208:32|268:56,1,80,0|0,0:0|0:0,0:0:0:0:
332,52,114943,1,8,0:0:0:0:
412,120,115115,1,0,0:0:0:0:
408,224,115288,1,0,0:0:0:0:
328,276,115460,2,0,B|276:284|276:284|256:336|176:320,1,160,0|0,0:0|0:0,0:0:0:0:
84,52,116149,1,0,0:0:0:0:
140,184,116321,1,8,0:0:0:0:
236,76,116493,1,0,0:0:0:0:
408,224,116838,1,0,0:0:0:0:
340,332,117010,2,0,B|299:349|299:349|259:343,1,80,8|0,0:0|0:0,0:0:0:0:
160,336,117355,6,0,L|134:246,1,80,4|0,0:0|0:0,0:0:0:0:
256,128,117699,6,0,P|300:148|324:180,1,80,8|0,0:0|0:0,0:0:0:0:
264,252,118044,1,0,0:0:0:0:
172,204,118216,1,0,0:0:0:0:
172,92,118388,1,8,0:0:0:0:
280,36,118561,2,0,B|336:36|336:36|336:92|408:136,1,160,0|0,0:0|0:0,0:0:0:0:
460,220,119077,2,0,P|476:272|420:344,1,120,8|0,0:0|0:0,0:0:0:0:
400,352,119422,1,0,0:0:0:0:
280,352,119594,1,0,0:0:0:0:
184,276,119767,1,8,0:0:0:0:
132,144,119939,6,0,L|148:60,1,80,0|0,0:0|0:0,0:0:0:0:
240,44,120283,1,0,0:0:0:0:
308,112,120456,2,0,L|292:196,1,80,8|0,0:0|0:0,0:0:0:0:
384,288,120800,1,0,0:0:0:0:
400,184,120972,2,0,B|384:144|384:144|404:80|340:32,1,160,0|0,0:0|0:0,0:0:0:0:
196,72,121661,1,0,0:0:0:0:
124,156,121834,2,0,L|196:216,1,80,8|0,0:0|0:0,0:0:0:0:
408,300,122350,1,0,0:0:0:0:
440,288,122437,1,0,0:0:0:0:
464,264,122523,2,0,B|440:232|438:202|438:202|432:180|386:165,1,120,8|0,0:0|0:0,0:0:0:0:
352,164,122867,6,0,P|318:185|302:221,1,80,4|0,0:0|0:0,0:0:0:0:
424,184,123212,6,0,P|424:143|377:96,1,80,8|0,0:0|0:0,0:0:0:0:
332,48,123556,1,0,0:0:0:0:
228,48,123729,1,0,0:0:0:0:
128,100,123901,1,8,0:0:0:0:
60,200,124073,2,0,B|71:242|71:242|44:266|41:316|80:351,1,160,0|0,0:0|0:0,0:0:0:0:
180,356,124590,1,8,0:0:0:0:
276,312,124762,1,0,0:0:0:0:
380,257,124934,2,0,P|352:228|296:196,2,80,0|0|8,0:0|0:0|0:0,0:0:0:0:
276,312,125451,6,0,P|224:268|228:200,1,80,0|0,0:0|0:0,0:0:0:0:
224,164,125796,1,0,0:0:0:0:
240,60,125968,1,8,0:0:0:0:
316,140,126140,1,0,0:0:0:0:
224,164,126313,2,0,L|144:175,1,80,0|0,0:0|0:0,0:0:0:0:
44,196,126657,1,8,0:0:0:0:
55,92,126829,2,0,P|99:52|212:56,1,160,0|0,0:0|0:0,0:0:0:0:
280,101,127346,5,8,0:0:0:0:
291,131,127432,1,0,0:0:0:0:
307,159,127518,1,0,0:0:0:0:
320,188,127604,1,0,0:0:0:0:
330,218,127690,1,8,0:0:0:0:
304,236,127776,1,0,0:0:0:0:
277,254,127862,5,0,0:0:0:0:
251,272,127948,1,0,0:0:0:0:
221,284,128035,1,8,0:0:0:0:
198,260,128121,1,0,0:0:0:0:
183,232,128207,1,0,0:0:0:0:
167,204,128293,1,0,0:0:0:0:
151,176,128380,6,2,P|141:93|237:33,1,160,4|8,0:0|0:0,0:0:0:0:
288,32,128897,2,0,P|352:56|384:88,1,80,4|0,0:0|0:0,0:0:0:0:
388,172,129241,1,0,0:0:0:0:
348,260,129413,1,8,0:0:0:0:
250,266,129586,1,4,0:0:0:0:
156,248,129758,6,0,L|113:172,1,80,0|8,0:0|0:0,0:0:0:0:
164,40,130102,2,0,L|206:116,1,80,8|0,0:0|0:0,0:0:0:0:
344,164,130447,2,0,L|301:88,1,80,0|8,0:0|0:0,0:0:0:0:
164,40,130791,1,8,0:0:0:0:
116,178,130964,1,4,0:0:0:0:
256,192,131136,12,0,133203,0:0:0:0:
248,228,133548,5,8,0:0:0:0:
248,228,133720,1,0,0:0:0:0:
156,240,133892,2,0,B|156:192|184:160|184:160|240:156|252:104,1,160,4|8,0:0|0:0,0:0:0:0:
328,76,134409,1,4,0:0:0:0:
472,204,134754,1,0,0:0:0:0:
408,276,134926,1,8,0:0:0:0:
320,312,135098,1,4,0:0:0:0:
224,300,135270,6,0,L|195:209,1,80,0|0,0:0|0:0,0:0:0:0:
385,59,135615,2,0,L|413:149,1,80,8|0,0:0|0:0,0:0:0:0:
192,70,135959,2,0,L|282:41,1,80,0|0,0:0|0:0,0:0:0:0:
385,59,136304,1,8,0:0:0:0:
416,152,136476,1,0,0:0:0:0:
256,192,136649,12,0,138371,0:0:0:0:
148,116,138716,5,0,0:0:0:0:
244,120,138888,1,0,0:0:0:0:
273,147,138974,1,0,0:0:0:0:
311,154,139060,1,8,0:0:0:0:
376,224,139232,1,0,0:0:0:0:
392,260,139319,1,0,0:0:0:0:
384,300,139405,6,0,B|328:308|328:308|288:292|288:292|228:316,1,160,4|0,0:0|0:0,0:0:0:0:
140,292,139922,2,0,P|124:248|204:168,1,160,4|0,0:0|0:0,0:0:0:0:
311,154,140438,1,8,0:0:0:0:
384,92,140611,2,0,P|376:41|331:6,1,80,4|0,0:0|0:0,0:0:0:0:
212,44,140955,5,0,0:0:0:0:
312,76,141127,1,8,0:0:0:0:
140,124,141300,1,0,0:0:0:0:
240,156,141472,1,0,0:0:0:0:
68,204,141644,1,0,0:0:0:0:
168,236,141816,1,8,0:0:0:0:
256,192,141989,12,0,144228,0:0:0:0:
152,164,144573,5,8,0:0:0:0:
152,164,144745,1,0,0:0:0:0:
140,68,144917,2,0,P|196:80|248:168,1,160,4|0,0:0|0:0,0:0:0:0:
212,252,145434,2,0,P|245:322|319:346,1,160,4|0,0:0|0:0,0:0:0:0:
416,256,145951,1,8,0:0:0:0:
380,132,146123,1,0,0:0:0:0:
284,132,146295,6,0,P|248:100|236:60,1,80
380,132,146640,2,0,P|367:178|337:207,1,80,8|0,0:0|0:0,0:0:0:0:
256,236,146984,1,0,0:0:0:0:
168,120,147157,1,0,0:0:0:0:
168,268,147329,1,8,0:0:0:0:
284,132,147501,2,0,P|292:84|319:53,1,80,0|0,0:0|0:0,0:0:0:0:
412,60,147846,1,0,0:0:0:0:
452,152,148018,1,8,0:0:0:0:
452,152,148363,6,2,B|448:164|448:164|436:172|436:172|440:188|440:188|424:196|424:196|428:216|428:216|416:220|416:220|420:236|420:236|408:244|408:244|412:256|412:256|400:264|400:264|404:280|404:280|392:284|392:284,1,160,0|8,0:0|0:0,0:0:0:0:
312,308,148879,5,0,0:0:0:0:
160,204,149224,1,0,0:0:0:0:
160,108,149396,2,0,P|196:64|276:56,1,120,8|0,0:0|0:0,0:0:0:0:
304,56,149741,6,2,B|316:59|316:59|324:72|324:72|340:68|340:68|348:84|348:84|368:80|368:80|372:92|372:92|388:88|388:88|396:100|396:100|407:96|407:96|416:108|416:108|432:104|432:104|436:116|436:116,1,160,0|8,0:0|0:0,0:0:0:0:
426,202,150257,6,0,B|376:255|394:308|394:308|339:309,1,160
255,324,150774,1,8,0:0:0:0:
155,271,150947,2,0,B|128:241|132:218|132:218|176:171|137:129,1,160
216,52,151463,1,8,0:0:0:0:
342,75,151636,2,0,B|397:91|412:119|412:119|382:146|375:213,1,160,0|0,0:0|0:0,0:0:0:0:
260,232,152152,1,8,0:0:0:0:
126,177,152325,2,0,B|122:126|122:126|196:119|220:73,1,160
258,84,152755,5,0,0:0:0:0:
258,84,152841,2,0,B|297:110|297:110|355:117,1,80,8|0,0:0|0:0,0:0:0:0:
432,215,153186,6,0,B|418:253|418:253|374:295,1,80
80,169,153531,2,0,B|94:131|94:131|138:89,1,80,8|0,0:0|0:0,0:0:0:0:
448,140,153875,2,0,P|500:180|504:212,1,80
64,244,154220,2,0,P|12:204|8:172,1,80,8|0,0:0|0:0,0:0:0:0:
112,72,154564,6,0,P|152:52|200:36,1,80
400,72,154909,2,0,P|360:52|312:36,1,80,8|0,0:0|0:0,0:0:0:0:
112,312,155253,2,0,P|152:332|200:348,1,80
400,312,155598,2,0,P|360:332|312:348,1,80,8|0,0:0|0:0,0:0:0:0:
132,240,155942,6,0,P|88:240|52:268,1,80
380,144,156287,2,0,P|424:144|460:116,1,80,8|0,0:0|0:0,0:0:0:0:
132,144,156631,2,0,P|88:144|52:116,1,80
380,240,156976,2,0,P|424:240|460:268,1,80,8|0,0:0|0:0,0:0:0:0:
312,336,157320,6,0,B|272:324|272:324|212:320,1,80
132,192,157665,1,8,0:0:0:0:
200,48,157837,2,0,B|240:60|240:60|300:64,1,80
380,192,158182,1,0,0:0:0:0:
312,336,158354,1,8,0:0:0:0:
170,242,158526,1,0,0:0:0:0:
147,220,158612,1,0,0:0:0:0:
132,192,158698,6,0,P|115:132|83:100,1,80,0|0,0:0|0:0,0:0:0:0:
380,192,159043,2,0,P|397:252|429:284,1,80,8|0,0:0|0:0,0:0:0:0:
174,320,159388,2,0,P|135:311|105:286,1,80
337,63,159732,2,0,P|376:72|407:98,1,80,8|0,0:0|0:0,0:0:0:0:
438,257,160077,6,0,B|400:257|400:257|363:276,1,80
72,126,160421,2,0,B|111:126|111:126|148:107,1,80,8|0,0:0|0:0,0:0:0:0:
431,108,160766,2,0,B|404:136|404:136|392:176,1,80
80,275,161110,2,0,B|108:248|108:248|120:208,1,80,8|0,0:0|0:0,0:0:0:0:
208,40,161455,6,0,P|236:88|232:140,1,80
304,344,161799,2,0,P|276:296|280:244,1,80,8|0,0:0|0:0,0:0:0:0:
363,74,162144,2,0,P|336:122|289:145,1,80
148,309,162488,2,0,P|175:261|222:238,1,80,8|0,0:0|0:0,0:0:0:0:
356,228,162833,6,0,B|392:208|392:208|408:160,1,80
256,108,163177,1,8,0:0:0:0:
107,171,163350,2,0,B|120:208|120:208|156:228,1,80
256,108,163694,1,0,0:0:0:0:
108,48,163866,1,8,0:0:0:0:
32,192,164039,1,0,0:0:0:0:
44,220,164125,1,0,0:0:0:0:
70,239,164211,6,0,P|112:284|112:328,1,80
303,377,164555,2,0,P|348:336|392:336,1,80,8|0,0:0|0:0,0:0:0:0:
441,144,164900,2,0,P|400:100|400:56,1,80
208,6,165245,2,0,P|164:48|120:48,1,80,8|0,0:0|0:0,0:0:0:0:
144,212,165589,6,0,P|136:280|116:304,1,80
381,288,165934,2,0,P|365:251|368:212,1,80,8|0,0:0|0:0,0:0:0:0:
64,328,166278,2,0,P|96:356|148:368,1,80
380,367,166623,2,0,P|418:354|448:328,1,80,8|0,0:0|0:0,0:0:0:0:
448,168,166967,6,0,B|440:124|440:124|404:88,1,80
64,216,167312,2,0,B|72:260|72:260|108:296,1,80,8|0,0:0|0:0,0:0:0:0:
380,368,167656,2,0,B|414:339|414:339|427:289,1,80
132,16,168001,2,0,B|97:44|97:44|84:94,1,80,8|0,0:0|0:0,0:0:0:0:
152,224,168345,6,0,P|196:236|232:276,1,80
380,260,168690,1,8,0:0:0:0:
156,144,168862,2,0,P|112:156|76:196,1,80,0|0,0:0|0:0,0:0:0:0:
156,308,169207,1,0,0:0:0:0:
304,248,169379,1,8,0:0:0:0:
256,96,169551,1,0,0:0:0:0:
235,71,169637,1,0,0:0:0:0:
212,49,169723,6,0,P|168:64|112:60,1,80
299,334,170068,2,0,P|344:320|400:324,1,80,8|0,0:0|0:0,0:0:0:0:
91,261,170413,2,0,P|127:280|156:308,1,80
420,122,170757,2,0,P|384:103|356:75,1,80,8|0,0:0|0:0,0:0:0:0:
204,132,171102,6,0,L|128:160,1,80
308,252,171446,2,0,L|384:224,1,80,8|0,0:0|0:0,0:0:0:0:
76,100,171791,2,0,P|48:148|48:188,1,80,0|0,0:0|0:0,0:0:0:0:
436,284,172135,2,0,P|464:236|464:196,1,80,8|0,0:0|0:0,0:0:0:0:
345,105,172480,2,0,P|317:57|317:17,1,80,0|0,0:0|0:0,0:0:0:0:
170,25,172824,6,0,P|130:24|92:34,1,80,8|0,0:0|0:0,0:0:0:0:
341,358,173169,2,0,P|381:359|420:350,1,80
419,33,173513,2,0,P|381:24|341:25,1,80,8|0,0:0|0:0,0:0:0:0:
92,350,173858,2,0,P|120:358|180:344,1,80
256,288,174202,5,8,0:0:0:0:
273,252,174288,1,0,0:0:0:0:
286,214,174374,1,0,0:0:0:0:
293,175,174460,1,0,0:0:0:0:
292,135,174546,1,0,0:0:0:0:
280,97,174632,1,0,0:0:0:0:
252,69,174718,5,0,0:0:0:0:
213,61,174805,1,0,0:0:0:0:
176,75,174891,1,8,0:0:0:0:
152,106,174977,1,0,0:0:0:0:
153,145,175063,1,0,0:0:0:0:
177,177,175149,1,0,0:0:0:0:
211,197,175236,6,2,P|272:212|357:201,1,120,4|0,0:0|0:0,0:0:0:0:
377,197,175580,5,8,0:0:0:0:
448,132,175753,1,0,0:0:0:0:
372,72,175925,2,0,P|316:64|272:80,1,80
220,132,176270,1,8,0:0:0:0:
230,227,176442,2,0,B|249:263|249:263|301:303,1,80
181,358,176786,2,0,B|162:322|162:322|110:282,1,80,0|8,0:0|0:0,0:0:0:0:
118,202,177131,1,0,0:0:0:0:
196,144,177303,2,0,L|268:88,1,80,0|0,0:0|0:0,0:0:0:0:
432,116,177648,2,0,L|360:172,1,80,8|0,0:0|0:0,0:0:0:0:
268,212,177992,5,0,0:0:0:0:
68,112,178337,6,0,P|116:72|176:72,1,120,8|0,0:0|0:0,0:0:0:0:
220,80,178681,1,0,0:0:0:0:
304,128,178854,1,0,0:0:0:0:
304,224,179026,1,8,0:0:0:0:
228,284,179198,2,0,P|174:258|129:207,1,120,0|0,0:0|0:0,0:0:0:0:
116,168,179543,2,0,B|164:142|158:97|158:97|195:105|229:54,1,160,0|0,0:0|0:0,0:0:0:0:
312,48,180059,1,0,0:0:0:0:
420,80,180232,1,0,0:0:0:0:
352,168,180404,2,0,P|312:164|256:136,1,80,8|0,0:0|0:0,0:0:0:0:
312,48,180748,5,0,0:0:0:0:
124,89,181093,6,0,P|93:124|88:183,1,80,4|0,0:0|0:0,0:0:0:0:
228,233,181437,2,0,P|197:198|192:139,1,80,4|0,0:0|0:0,0:0:0:0:
216,72,181782,1,4,0:0:0:0:
312,48,181954,2,0,B|343:67|372:69|372:69|420:117|392:188,1,160,4|0,0:0|0:0,0:0:0:0:
316,204,182471,2,0,P|294:165|256:140,1,80,8|0,0:0|0:0,0:0:0:0:
176,177,182815,5,0,0:0:0:0:
166,207,182901,1,0,0:0:0:0:
165,240,182987,1,0,0:0:0:0:
174,270,183073,1,0,0:0:0:0:
193,295,183160,1,8,0:0:0:0:
222,308,183245,1,0,0:0:0:0:
253,303,183332,1,0,0:0:0:0:
281,287,183418,1,0,0:0:0:0:
304,264,183505,6,0,P|336:212|328:136,1,120,0|0,0:0|0:0,0:0:0:0:
316,112,183849,6,0,P|284:80|248:68,1,80,12|0,0:0|0:0,0:0:0:0:
156,60,184194,1,8,0:0:0:0:
72,120,184366,1,0,0:0:0:0:
24,220,184538,1,8,0:0:0:0:
87,326,184711,2,0,B|131:354|131:354|164:321|236:329,1,160,0|0,0:0|0:0,0:0:0:0:
216,204,185227,1,8,0:0:0:0:
276,128,185400,2,0,B|308:160|308:160|316:204,2,80,0|0|0,0:0|0:0|0:0,0:0:0:0:
172,124,185916,1,8,0:0:0:0:
88,64,186089,6,0,B|104:40|119:20|119:20|160:32|204:20,1,120,0|0,0:0|0:0,0:0:0:0:
236,28,186433,1,0,0:0:0:0:
332,68,186605,1,8,0:0:0:0:
332,172,186778,1,0,0:0:0:0:
404,236,186950,2,0,B|368:272|340:292|340:292|304:272|264:292,1,160,0|8,0:0|0:0,0:0:0:0:
172,288,187467,1,0,0:0:0:0:
88,64,187811,1,0,0:0:0:0:
236,28,187984,1,8,0:0:0:0:
164,152,188156,1,0,0:0:0:0:
332,68,188500,1,0,0:0:0:0:
396,184,188673,2,0,P|412:256|399:283,1,80,8|0,0:0|0:0,0:0:0:0:
320,336,189017,6,0,P|254:335|234:343,1,80,4|0,0:0|0:0,0:0:0:0:
85,222,189362,6,0,B|88:173|88:173|122:127,1,80,8|0,0:0|0:0,0:0:0:0:
181,87,189706,1,0,0:0:0:0:
275,130,189878,1,0,0:0:0:0:
208,220,190051,1,8,0:0:0:0:
85,222,190223,2,0,B|78:273|46:310|46:310|47:343|98:379,1,160,0|0,0:0|0:0,0:0:0:0:
204,348,190740,1,8,0:0:0:0:
276,262,190912,1,0,0:0:0:0:
260,152,191084,2,0,P|221:165|184:196,2,80,0|0|8,0:0|0:0|0:0,0:0:0:0:
354,130,191601,5,0,0:0:0:0:
453,160,191773,1,0,0:0:0:0:
436,264,191946,1,0,0:0:0:0:
348,308,192118,2,0,L|284:240,1,80,8|0,0:0|0:0,0:0:0:0:
300,72,192462,2,0,L|364:140,1,80,0|0,0:0|0:0,0:0:0:0:
228,160,192807,1,8,0:0:0:0:
181,75,192979,2,0,P|112:104|104:180,1,120,0|0,0:0|0:0,0:0:0:0:
96,192,193324,1,0,0:0:0:0:
136,332,193496,1,8,0:0:0:0:
96,192,193668,1,0,0:0:0:0:
340,128,194013,1,0,0:0:0:0:
240,48,194185,2,0,L|147:91,1,80,8|0,0:0|0:0,0:0:0:0:
96,192,194530,6,0,P|112:224|152:248,1,80,4|0,0:0|0:0,0:0:0:0:
340,128,194874,6,0,B|340:168|364:188|364:188|340:216|340:260,1,120,8|0,0:0|0:0,0:0:0:0:
304,268,195219,1,0,0:0:0:0:
236,188,195391,1,0,0:0:0:0:
228,76,195563,1,8,0:0:0:0:
338,22,195736,2,0,B|406:26|422:50|422:50|442:86|506:86,1,160,0|0,0:0|0:0,0:0:0:0:
433,203,196252,2,0,P|390:234|339:228,1,80,8|0,0:0|0:0,0:0:0:0:
268,320,196597,1,0,0:0:0:0:
168,240,196769,1,0,0:0:0:0:
100,192,196941,2,0,P|142:160|193:166,1,80,8|0,0:0|0:0,0:0:0:0:
260,184,197286,5,0,0:0:0:0:
200,276,197458,1,0,0:0:0:0:
68,264,197630,1,8,0:0:0:0:
36,156,197803,2,0,B|68:124|68:124|116:112,2,80,0|0|0,0:0|0:0|0:0,0:0:0:0:
68,264,198319,1,8,0:0:0:0:
200,276,198492,1,0,0:0:0:0:
412,132,198836,1,0,0:0:0:0:
224,72,199009,1,8,0:0:0:0:
332,240,199181,1,0,0:0:0:0:
99,320,199525,1,0,0:0:0:0:
78,295,199611,1,0,0:0:0:0:
68,265,199698,2,0,B|44:225|64:201|64:201|44:185|68:137,1,120,8|0,0:0|0:0,0:0:0:0:
68,104,200042,6,0,P|77:59|135:16,1,80,4|0,0:0|0:0,0:0:0:0:
228,124,200387,5,8,0:0:0:0:
248,224,200559,1,0,0:0:0:0:
336,156,200731,2,0,P|376:134|446:151,1,80,0|0,0:0|0:0,0:0:0:0:
508,184,201076,1,8,0:0:0:0:
472,288,201248,2,0,B|416:316|416:316|392:360|312:352,1,160,0|0,0:0|0:0,0:0:0:0:
236,352,201765,2,0,B|175:358|151:314|151:314|95:286,1,160,8|0,0:0|0:0,0:0:0:0:
92,192,202282,2,0,P|112:148|160:128,1,80,0|8,0:0|0:0,0:0:0:0:
228,84,202626,5,0,0:0:0:0:
320,136,202798,2,0,L|353:208,1,80,0|0,0:0|0:0,0:0:0:0:
263,283,203143,2,0,L|223:198,1,80,8|0,0:0|0:0,0:0:0:0:
436,180,203487,2,0,P|436:232|420:268,1,80,0|0,0:0|0:0,0:0:0:0:
304,348,203832,1,8,0:0:0:0:
164,292,204004,1,0,0:0:0:0:
100,154,204176,5,0,0:0:0:0:
88,124,204262,1,0,0:0:0:0:
76,94,204348,1,0,0:0:0:0:
64,65,204434,1,0,0:0:0:0:
94,68,204520,1,8,0:0:0:0:
125,73,204606,1,0,0:0:0:0:
157,78,204692,1,0,0:0:0:0:
189,83,204779,1,0,0:0:0:0:
217,92,204865,5,0,0:0:0:0:
228,122,204951,1,0,0:0:0:0:
239,152,205037,1,0,0:0:0:0:
250,182,205123,1,0,0:0:0:0:
261,212,205209,1,8,0:0:0:0:
292,204,205295,1,0,0:0:0:0:
313,180,205381,1,0,0:0:0:0:
335,156,205468,1,0,0:0:0:0:
356,132,205555,6,2,L|403:63,1,80,0|0,0:0|0:0,0:0:0:0:
301,240,205899,2,0,L|371:287,1,80,8|0,0:0|0:0,0:0:0:0:
337,100,206244,2,0,L|350:17,1,80,0|0,0:0|0:0,0:0:0:0:
264,243,206588,2,0,L|307:315,1,80,8|0,0:0|0:0,0:0:0:0:
392,352,206933,5,0,0:0:0:0:
444,268,207105,1,0,0:0:0:0:
444,172,207277,1,8,0:0:0:0:
384,96,207450,1,0,0:0:0:0:
292,72,207622,2,0,L|216:132,1,80,0|0,0:0|0:0,0:0:0:0:
220,312,207966,2,0,L|296:252,1,80,8|0,0:0|0:0,0:0:0:0:
216,196,208311,1,0,0:0:0:0:
156,100,208483,1,0,0:0:0:0:
116,204,208655,1,8,0:0:0:0:
64,104,208828,1,0,0:0:0:0:
144,28,209000,6,8,B|204:40|204:40|256:88|336:24,1,160,4|8,0:0|0:0,0:0:0:0:
380,36,209517,1,0,0:0:0:0:
432,116,209689,2,0,B|373:133|373:133|325:185|240:128,1,160,4|8,0:0|0:0,0:0:0:0:
196,143,210206,1,0,0:0:0:0:
80,128,210378,2,0,B|76:180|100:212|100:212|140:212|161:245|179:278,1,160,12|8,0:0|0:0,0:0:0:0:
160,294,210809,1,0,0:0:0:0:
160,294,210895,6,0,B|125:309|125:309|77:294,1,80
96,203,211239,1,0,0:0:0:0:
252,220,211412,6,0,L|219:323,1,80,8|0,0:0|0:0,0:0:0:0:
436,156,211756,2,0,L|476:52,1,80,0|0,0:0|0:0,0:0:0:0:
308,268,212101,2,0,L|315:379,1,80,8|0,0:0|0:0,0:0:0:0:
380,108,212445,2,0,L|372:-3,1,80,0|0,0:0|0:0,0:0:0:0:
280,28,212790,1,8,0:0:0:0:
192,64,212962,1,0,0:0:0:0:
200,168,213134,2,0,P|256:200|284:204,1,80,0|0,0:0|0:0,0:0:0:0:
276,104,213479,1,8,0:0:0:0:
192,64,213651,2,0,B|168:108|136:116|96:124|96:124|124:164|132:200|124:248,1,240,0|8,0:0|0:0,0:0:0:0:
192,312,214340,1,0,0:0:0:0:
288,296,214512,6,0,B|320:248|320:248|320:220|316:200|316:200|344:156|352:120,1,160,4|8,0:0|0:0,0:0:0:0:
352,40,215029,1,0,0:0:0:0:
468,48,215201,2,0,B|444:100|444:100|449:128|457:147|457:147|437:195|435:232,1,160,4|8,0:0|0:0,0:0:0:0:
384,276,215718,1,0,0:0:0:0:
288,296,215891,2,0,L|196:256,1,80,12|0,0:0|0:0,0:0:0:0:
224,88,216235,2,0,L|316:128,1,80,8|0,0:0|0:0,0:0:0:0:
322,160,216493,1,0,0:0:0:0:
322,160,216580,6,0,B|301:195|301:195|259:206,1,80
76,168,216924,6,0,L|116:252,1,80,8|0,0:0|0:0,0:0:0:0:
436,168,217269,2,0,L|396:252,1,80,0|0,0:0|0:0,0:0:0:0:
316,284,217613,1,8,0:0:0:0:
224,312,217785,2,0,P|232:232|308:188,1,160,0|0,0:0|0:0,0:0:0:0:
384,255,218302,1,8,0:0:0:0:
348,348,218475,1,0,0:0:0:0:
224,312,218647,2,0,P|180:268|176:232,1,80,0|0,0:0|0:0,0:0:0:0:
153,159,218991,1,8,0:0:0:0:
104,75,219164,2,0,P|176:63|212:81,1,80,0|0,0:0|0:0,0:0:0:0:
244,136,219508,2,0,L|224:224,1,80,0|8,0:0|0:0,0:0:0:0:
324,224,219853,1,0,0:0:0:0:
365,137,220025,6,0,B|410:159|410:159|405:220|405:220|450:251,1,160,4|8,0:0|0:0,0:0:0:0:
434,343,220542,1,0,0:0:0:0:
312,344,220714,2,0,P|237:305|220:286,1,80,4|0,0:0|0:0,0:0:0:0:
162,215,221058,1,8,0:0:0:0:
167,94,221231,1,0,0:0:0:0:
285,75,221403,2,0,P|310:119|297:171,1,80,12|0,0:0|0:0,0:0:0:0:
111,32,221748,2,0,P|86:76|99:128,1,80,8|0,0:0|0:0,0:0:0:0:
90,151,222006,1,0,0:0:0:0:
90,151,222092,6,0,P|75:215|49:244,1,80,0|0,0:0|0:0,0:0:0:0:
180,289,222437,6,0,P|220:341|256:357,1,80,8|0,0:0|0:0,0:0:0:0:
356,322,222781,1,0,0:0:0:0:
465,256,222953,1,0,0:0:0:0:
459,127,223126,1,8,0:0:0:0:
346,69,223298,2,0,B|311:57|282:33|282:33|248:45|248:45|223:35|171:45,1,160,0|0,0:0|0:0,0:0:0:0:
125,146,223815,2,0,L|119:236,1,80,8|0,0:0|0:0,0:0:0:0:
284,80,224159,2,0,L|193:74,1,80,0|0,0:0|0:0,0:0:0:0:
108,72,224504,5,8,0:0:0:0:
40,140,224676,1,0,0:0:0:0:
44,236,224848,1,0,0:0:0:0:
108,308,225021,1,0,0:0:0:0:
204,312,225193,2,0,P|248:288|256:224,1,120,8|0,0:0|0:0,0:0:0:0:
236,180,225537,6,2,B|236:164|236:164|244:148|244:148|244:128|244:128|260:116|260:116|264:96|264:96|280:88|280:88|304:56,1,120,0|0,0:0|0:0,0:0:0:0:
328,60,225882,5,8,0:0:0:0:
412,108,226054,2,0,B|448:136|448:136|468:184,1,80
460,264,226399,1,0,0:0:0:0:
392,332,226571,2,0,P|343:346|293:306,1,120,8|0,0:0|0:0,0:0:0:0:
276,261,226916,6,2,B|264:249|264:249|247:244|247:244|233:229|233:229|213:232|213:232|196:221|196:221|179:227|179:227|140:221,1,120,0|0,0:0|0:0,0:0:0:0:
124,224,227260,5,8,0:0:0:0:
64,148,227432,2,0,P|88:116|172:100,1,120,0|0,0:0|0:0,0:0:0:0:
208,112,227777,5,0,0:0:0:0:
316,144,227949,1,8,0:0:0:0:
240,224,228121,2,0,P|264:256|348:272,1,120,0|0,0:0|0:0,0:0:0:0:
380,252,228466,5,0,0:0:0:0:
444,140,228638,1,8,0:0:0:0:
316,144,228810,2,0,P|257:136|217:93,1,120
216,44,229155,5,0,0:0:0:0:
72,35,229327,1,8,0:0:0:0:
154,156,229499,2,8,P|183:205|266:220,1,120,0|0,0:0|0:0,0:0:0:0:
288,217,229844,5,0,0:0:0:0:
444,140,230016,2,0,B|455:180|475:188|475:188|458:212|468:266,1,120,8|0,0:0|0:0,0:0:0:0:
449,292,230361,1,4,0:0:0:0:
