osu file format v14

[General]
AudioFilename: Monkey Wrench.mp3
AudioLeadIn: 0
PreviewTime: 43281
Countdown: 0
SampleSet: Normal
StackLeniency: 0.7
Mode: 0
LetterboxInBreaks: 0
EpilepsyWarning: 1
WidescreenStoryboard: 1

[Editor]
Bookmarks: 197975
DistanceSpacing: 1.1
BeatDivisor: 2
GridSize: 4
TimelineZoom: 1

[Metadata]
Title:Monkey Wrench
TitleUnicode:Monkey Wrench
Artist:Foo Fighters
ArtistUnicode:Foo Fighters
Creator:Danny
Version:Easy
Source:
Tags:Kuronoya The Colour and the Shape Hard Rock Grunge Alternative
BeatmapID:430615
BeatmapSetID:90087

[Difficulty]
HPDrainRate:2
CircleSize:3
OverallDifficulty:2
ApproachRate:3
SliderMultiplier:0.8
SliderTickRate:1

[Events]
//Background and Video events
0,0,"foofighters.jpg",0,0
//Break Periods
2,65186,74916
2,128580,132452
//Storyboard Layer 0 (Background)
//Storyboard Layer 1 (Fail)
//Storyboard Layer 2 (Pass)
//Storyboard Layer 3 (Foreground)
//Storyboard Sound Samples

[TimingPoints]
12618,344.530577088717,4,1,1,60,1,0
18475,-100,4,1,1,60,0,0
23987,-100,4,1,1,60,0,0
29499,-100,4,1,1,60,0,0
35012,-100,4,1,1,60,0,0
37768,-100,4,1,1,60,0,0
40524,-100,4,1,1,60,0,0
42936,-100,4,1,1,60,0,0
43281,-100,4,1,1,70,0,1
48449,-100,4,1,1,70,0,1
53961,-100,4,1,1,70,0,1
59474,-100,4,1,1,70,0,1
64986,-100,4,1,1,100,0,0
65331,-100,4,1,1,60,0,0
76700,-100,4,1,1,60,0,0
81868,-100,4,1,1,60,0,0
87381,-100,4,1,1,60,0,0
92893,-100,4,1,1,60,0,0
98406,-100,4,1,1,60,0,0
101162,-100,4,1,1,60,0,0
103918,-100,4,1,1,60,0,0
106330,-100,4,1,1,100,0,0
106674,-100,4,1,1,70,0,1
111842,-100,4,1,1,70,0,1
117355,-100,4,1,1,70,0,1
122867,-100,4,1,1,70,0,1
128380,-100,4,1,1,100,0,0
128724,-100,4,1,1,60,0,0
144917,-100,4,1,1,60,0,0
153186,-100,4,1,1,60,0,0
175236,-100,4,1,1,60,0,0
183849,-100,4,1,1,70,0,1
189017,-100,4,1,1,70,0,1
194530,-100,4,1,1,70,0,1
200042,-100,4,1,1,70,0,1
205899,-100,4,1,1,70,0,1
209689,-100,4,1,1,70,0,1
211067,-100,4,1,1,70,0,1
215201,-100,4,1,1,70,0,1
216580,-100,4,1,1,70,0,1
220714,-100,4,1,1,70,0,1
222092,-100,4,1,1,70,0,1
230361,-100,4,1,1,100,0,0

[Colours]
Combo1 : 181,126,117
Combo2 : 120,170,180
Combo3 : 124,120,99
Combo4 : 101,147,180

[HitObjects]
256,104,12962,5,4,0:0:0:0:
196,172,13307,2,0,P|196:244|216:272,1,80,0|8,0:0|0:0,0:0:0:0:
272,207,13996,2,0,P|308:191|335:162,1,80,0|8,0:0|0:0,0:0:0:0:
380,88,14685,2,0,B|432:116|424:172|424:172|432:192|452:200,2,120,0|0|8,0:0|0:0|0:0,0:0:0:0:
292,96,16063,2,0,P|232:116|192:148,1,80,0|8,0:0|0:0,0:0:0:0:
156,188,16752,2,0,P|160:268|224:308,1,160
236,220,17785,1,8,0:0:0:0:
300,56,18475,6,0,B|332:88|332:88|320:156|388:192,2,160,4|8|8,0:0|0:0|0:0,0:0:0:0:
156,156,20542,2,0,B|124:124|124:124|136:56|68:20,2,160,8|8|8,0:0|0:0|0:0,0:0:0:0:
180,240,22264,2,0,P|188:283|212:328,1,80,0|8,0:0|0:0,0:0:0:0:
286,344,22953,1,0,0:0:0:0:
374,356,23298,1,8,0:0:0:0:
384,184,23987,5,12,0:0:0:0:
360,272,24332,2,0,B|308:256|308:256|260:296|192:280,2,160
444,252,26054,1,8,0:0:0:0:
392,180,26399,2,0,B|340:163|340:163|323:102|258:77,2,160,0|0|0,0:0|0:0|0:0,0:0:0:0:
444,252,28121,1,8,0:0:0:0:
504,316,28466,2,0,P|464:335|412:330,1,80,8|8,0:0|0:0,0:0:0:0:
295,220,29499,6,0,B|359:196|423:236|423:236|475:244|495:128,1,240,4|0,0:0|0:0,0:0:0:0:
458,80,30878,1,8,0:0:0:0:
376,48,31222,2,0,P|300:24|268:28,1,80,0|8,0:0|0:0,0:0:0:0:
212,24,31911,2,0,P|172:30|136:47,1,80,0|8,0:0|0:0,0:0:0:0:
140,136,32600,1,0,0:0:0:0:
196,204,32945,1,8,0:0:0:0:
284,216,33289,6,0,B|332:200|332:200|404:240|456:192,2,160,0|0|0,0:0|0:0|0:0,0:0:0:0:
224,280,35012,5,12,0:0:0:0:
136,264,35357,2,0,B|120:228|140:192|140:192|128:128,2,120,0|0|8,0:0|0:0|0:0,0:0:0:0:
224,280,36735,2,0,L|288:212,1,80,0|8,0:0|0:0,0:0:0:0:
328,148,37424,6,0,B|367:175|367:238,1,80,0|8,0:0|0:0,0:0:0:0:
372,304,38113,2,0,B|348:340|304:330|304:330|262:355|248:361,2,120,0|0|8,0:0|0:0|0:0,0:0:0:0:
365,215,39491,2,0,B|367:175|328:148,1,80,0|8,0:0|0:0,0:0:0:0:
252,192,40180,6,0,B|227:149|253:93,1,80,0|8,0:0|0:0,0:0:0:0:
268,28,40869,1,0,0:0:0:0:
344,72,41214,1,8,0:0:0:0:
416,124,41558,2,0,B|442:99|442:99|438:71|438:71|466:59|466:59|466:31|466:31|498:11,2,160,0|0|4,0:0|0:0|0:0,0:0:0:0:
340,164,43281,6,0,P|264:148|224:148,1,80,8|0,0:0|0:0,0:0:0:0:
176,140,43970,2,8,B|188:80|248:60|248:60|328:60,1,160
380,84,45003,2,0,P|425:157|416:208,2,120,0|0|8,0:0|0:0|0:0,0:0:0:0:
294,106,46381,1,0,0:0:0:0:
272,236,46898,6,0,B|219:216|219:216|156:236|118:188,1,160
185,131,47932,2,0,L|217:79,1,40,0|8,0:0|0:0,0:0:0:0:
294,106,48449,1,4,0:0:0:0:
365,54,48793,6,0,B|393:82|381:130|381:130|441:166|417:238,1,200,8|0,0:0|0:0,0:0:0:0:
348,340,50171,1,8,0:0:0:0:
260,328,50516,2,0,B|221:311|209:277|209:277|173:252|146:260,2,120,8|8|8,0:0|0:0|0:0,0:0:0:0:
348,340,51894,2,0,L|388:316,1,40
449,262,52411,6,0,B|441:217|441:217|369:190|373:104,1,160
288,116,53444,2,0,L|268:172,1,40,0|8,0:0|0:0,0:0:0:0:
240,236,53961,1,4,0:0:0:0:
248,324,54306,6,0,B|288:320|312:324|312:324|348:348|380:344|416:332|452:300,1,200,8|8,0:0|0:0,0:0:0:0:
432,180,55684,1,8,0:0:0:0:
350,215,56028,2,0,P|347:156|380:108,2,120
432,180,57406,2,0,P|436:238|405:288,1,120
320,312,58268,2,0,L|296:348,2,40,0|8|0,0:0|0:0|0:0,0:0:0:0:
200,260,59129,6,0,B|156:252|128:240|128:240|88:260|40:232,2,160,8|8|8,0:0|0:0|0:0,0:0:0:0:
312,124,61196,2,0,B|356:132|384:144|384:144|424:124|472:152,2,160,8|8|8,0:0|0:0|0:0,0:0:0:0:
240,176,62919,2,0,P|260:240|228:300,1,120
120,232,63953,6,0,B|88:192|88:192|100:152|100:152|60:96|104:36|160:36,1,240,8|4,0:0|0:0,0:0:0:0:
184,240,76356,6,0,B|140:276|86:271|86:271|72:332,2,160,4|8|8,0:0|0:0|0:0,0:0:0:0:
248,180,78078,1,0,0:0:0:0:
328,144,78423,2,0,B|372:108|425:112|425:112|440:52,2,160,8|8|8,0:0|0:0|0:0,0:0:0:0:
248,180,80145,2,0,P|219:229|181:254,1,80,0|8,0:0|0:0,0:0:0:0:
128,288,80835,1,0,0:0:0:0:
53,241,81179,1,8,0:0:0:0:
156,100,81868,6,0,P|228:128|304:100,2,160,4|8|8,0:0|0:0|0:0,0:0:0:0:
80,148,83591,2,0,L|48:240,1,80,0|8,0:0|0:0,0:0:0:0:
48,312,84280,1,0,0:0:0:0:
132,284,84624,2,0,P|205:255|278:282,2,160,8|8|8,0:0|0:0|0:0,0:0:0:0:
64,228,86347,1,0,0:0:0:0:
24,148,86692,1,8,0:0:0:0:
132,284,87381,6,0,B|180:264|180:264|200:332|272:328,1,160,4|8,0:0|0:0,0:0:0:0:
384,200,88759,2,0,B|336:180|336:180|316:248|244:248,2,160,8|8|8,0:0|0:0|0:0,0:0:0:0:
432,32,90826,2,0,B|443:73|503:73|503:73|511:145,1,160,8|8,0:0|0:0,0:0:0:0:
488,228,91860,1,8,0:0:0:0:
428,292,92204,1,8,0:0:0:0:
260,248,92893,5,8,0:0:0:0:
188,196,93238,2,0,P|177:277|216:328,2,120,0|0|8,0:0|0:0|0:0,0:0:0:0:
256,140,94616,2,0,L|326:102,1,80,0|8,0:0|0:0,0:0:0:0:
384,36,95305,2,0,P|412:132|396:164,2,120,0|0|8,0:0|0:0|0:0,0:0:0:0:
296,32,96683,2,0,L|208:112,1,80,0|8,0:0|0:0,0:0:0:0:
176,148,97372,2,0,L|220:248,1,80,0|8,0:0|0:0,0:0:0:0:
276,276,98061,1,0,0:0:0:0:
288,188,98406,6,0,P|276:140|248:104,1,80,4|0,0:0|0:0,0:0:0:0:
136,60,99267,2,0,B|89:58|89:58|58:100|-4:94,1,120,0|8,0:0|0:0,0:0:0:0:
36,180,100128,1,0,0:0:0:0:
60,264,100473,1,8,0:0:0:0:
146,246,100817,5,0,0:0:0:0:
203,312,101162,2,0,L|312:304,1,80,8|0,0:0|0:0,0:0:0:0:
412,280,102023,2,0,B|443:245|443:245|431:194|475:150,1,120,0|8,0:0|0:0,0:0:0:0:
420,92,102885,1,0,0:0:0:0:
352,36,103229,1,8,0:0:0:0:
264,32,103574,6,0,P|216:56|180:100,1,80,0|8,0:0|0:0,0:0:0:0:
148,144,104263,1,0,0:0:0:0:
128,228,104607,1,8,0:0:0:0:
180,300,104952,2,0,B|216:308|216:308|236:288|236:288|264:300|264:300|281:277|281:277|358:280,2,160,0|0|4,0:0|0:0|0:0,0:0:0:0:
108,248,106674,6,0,P|80:208|68:152,1,80,8|0,0:0|0:0,0:0:0:0:
160,172,107363,2,0,B|180:120|180:120|232:112|232:112|256:88|276:56,1,160,8|8,0:0|0:0,0:0:0:0:
352,56,108397,2,0,P|419:109|428:160,2,120,0|0|8,0:0|0:0|0:0,0:0:0:0:
340,144,109774,1,0,0:0:0:0:
276,260,110292,6,0,B|204:280|204:280|168:244|168:244|116:240,1,160
72,180,111325,2,0,L|84:120,1,40,0|8,0:0|0:0,0:0:0:0:
116,60,111842,1,4,0:0:0:0:
204,56,112187,6,0,B|249:61|269:87|269:87|269:132|288:146|288:146|365:160,1,200,8|0,0:0|0:0,0:0:0:0:
476,192,113564,1,8,0:0:0:0:
412,252,113909,2,0,B|388:287|352:293|352:293|322:324|325:352,2,120,8|8|8,0:0|0:0|0:0,0:0:0:0:
476,192,115287,2,0,L|449:153,1,40
416,80,115804,6,0,B|361:99|367:176|367:176|330:202,1,160
248,224,116837,2,0,L|192:204,1,40,0|8,0:0|0:0,0:0:0:0:
176,128,117354,1,4,0:0:0:0:
87,128,117699,6,0,B|56:184|56:184|95:216|95:216|104:252|100:304,1,200,8|0,0:0|0:0,0:0:0:0:
224,344,119077,1,8,0:0:0:0:
272,268,119422,2,0,P|289:211|336:177,2,120,0|0|8,0:0|0:0|0:0,0:0:0:0:
360,263,120800,2,0,P|343:318|297:355,1,120,0|0,0:3|0:3,0:3:0:0:
212,332,121661,2,0,L|176:308,2,40,0|8|0,0:0|0:0|0:0,0:0:0:0:
320,256,122523,6,0,B|370:232|370:232|387:193|387:193|445:166,2,160,8|0|8,0:0|0:0|0:0,0:0:0:0:
192,128,124590,2,0,B|141:151|141:151|124:190|124:190|66:217,2,160,8|0|8,0:0|0:0|0:0,0:0:0:0:
280,136,126312,2,0,L|348:248,1,120
256,340,127346,5,8,0:0:0:0:
176,308,127691,2,0,L|116:212,1,80,0|8,0:0|0:0,0:0:0:0:
144,152,128380,1,4,0:0:0:0:
236,140,133892,6,0,P|184:168|156:232,1,120
192,304,134754,1,0,0:0:0:0:
248,232,135098,2,0,B|288:220|328:224|328:224|352:244|396:260|452:212,1,200,0|0,0:0|0:0,0:0:0:0:
384,152,136304,1,8,0:0:0:0:
256,192,136476,12,0,138027,0:0:0:0:
312,128,139405,6,0,B|340:160|376:168|376:168|408:184|424:216,1,120
344,256,140266,1,0,0:0:0:0:
256,252,140611,2,0,B|216:232|216:232|180:244|141:230,1,120,0|8,0:0|0:0,0:0:0:0:
60,196,141472,2,0,P|96:152|144:136,1,80,0|8,0:0|0:0,0:0:0:0:
256,192,141989,12,0,143539,0:0:0:0:
176,244,144917,6,0,B|144:236|128:276|128:276|108:292|88:296|48:300,1,120,8|0,0:0|0:0,0:0:0:0:
64,208,145779,1,0,0:0:0:0:
80,120,146123,2,0,P|120:81|184:68,1,120
268,68,146984,2,0,P|282:125|263:181,1,120
216,256,147846,2,0,L|260:320,1,40,0|8,0:0|0:0,0:0:0:0:
324,304,148363,6,0,B|356:284|356:284|360:256|360:256|384:244|384:244|408:216,1,120,0|0,0:0|0:0,0:0:0:0:
412,136,149224,2,0,L|368:96,1,40,0|8,0:0|0:0,0:0:0:0:
296,92,149741,6,0,B|264:112|264:112|260:140|260:140|236:152|236:152|212:180,1,120,0|0,0:0|0:0,0:0:0:0:
180,300,150774,2,0,L|132:320,1,40,8|0,0:0|0:0,0:0:0:0:
36,240,151463,2,0,L|40:196,1,40,8|0,0:0|0:0,0:0:0:0:
56,68,152152,2,0,L|104:48,1,40,8|0,0:0|0:0,0:0:0:0:
224,40,152841,1,8,0:0:0:0:
288,99,153186,5,0,0:0:0:0:
375,112,153531,1,8,0:0:0:0:
400,196,153875,1,0,0:0:0:0:
324,240,154220,2,0,P|368:280|424:284,2,80,8|0|8,0:0|0:0|0:0,0:0:0:0:
272,160,155253,2,0,B|232:140|232:140|192:180|104:152,1,160,0|0,0:0|0:0,0:0:0:0:
60,216,156287,5,8,0:0:0:0:
120,280,156631,1,0,0:0:0:0:
208,284,156976,1,8,0:0:0:0:
288,248,157320,2,0,P|296:296|284:332,2,80,0|8|0,0:0|0:0|0:0,0:0:0:0:
256,168,158354,2,0,P|247:129|255:90,1,80,8|0,0:0|0:0,0:0:0:0:
340,64,159043,5,8,0:0:0:0:
420,28,159388,1,0,0:0:0:0:
424,116,159732,1,8,0:0:0:0:
360,176,160077,2,0,P|388:212|400:268,1,80,0|8,0:0|0:0,0:0:0:0:
352,320,160766,2,0,P|324:284|312:228,1,80,0|8,0:0|0:0,0:0:0:0:
260,184,161455,5,0,0:0:0:0:
176,160,161799,1,8,0:0:0:0:
112,220,162144,2,0,P|92:184|100:116,2,80,0|8|0,0:0|0:0|0:0,0:0:0:0:
196,248,163177,2,0,P|215:282|218:322,2,80,8|0|8,0:0|0:0|0:0,0:0:0:0:
112,220,164211,1,0,0:0:0:0:
60,152,164555,5,8,0:0:0:0:
60,64,164900,2,0,P|94:40|162:42,1,80,0|8,0:0|0:0,0:0:0:0:
196,92,165589,1,0,0:0:0:0:
240,168,165934,2,0,P|268:140|280:72,1,80,8|0,0:0|0:0,0:0:0:0:
340,36,166623,1,8,0:0:0:0:
416,76,166967,6,0,P|472:136|472:164,2,80,0|8|0,0:0|0:0|0:0,0:0:0:0:
388,160,168001,1,8,0:0:0:0:
320,216,168345,1,0,0:0:0:0:
256,156,168690,2,0,P|232:204|240:252,1,80,8|0,0:0|0:0,0:0:0:0:
180,300,169379,6,0,P|148:252|152:208,1,80,8|0,0:0|0:0,0:0:0:0:
108,152,170068,1,8,0:0:0:0:
124,64,170413,1,0,0:0:0:0:
212,60,170757,2,0,B|245:48|296:71|296:71|327:130|384:113,2,160,8|8|8,0:0|0:0|0:0,0:0:0:0:
124,64,172480,5,0,0:0:0:0:
140,152,172824,2,0,L|196:224,1,80,8|0,0:0|0:0,0:0:0:0:
268,252,173513,2,0,L|212:324,2,80,8|0|8,0:0|0:0|0:0,0:0:0:0:
324,184,174547,2,0,B|312:156|312:156|288:132|292:76,1,80,0|8,0:0|0:0,0:0:0:0:
228,52,175236,5,4,0:0:0:0:
152,96,175580,2,0,B|146:146|146:146|80:188|80:268,1,160,8|8,0:0|0:0,0:0:0:0:
244,296,176959,1,8,0:0:0:0:
256,208,177303,2,0,P|292:220|328:272,2,80,0|8|0,0:0|0:0|0:0,0:0:0:0:
204,135,178337,6,0,P|241:121|280:122,1,80,8|0,0:0|0:0,0:0:0:0:
340,56,179026,2,0,B|380:96|364:152|364:152|412:200,1,160,8|8,0:0|0:0,0:0:0:0:
380,276,180059,1,0,0:0:0:0:
300,308,180404,1,8,0:0:0:0:
136,244,181093,5,8,0:0:0:0:
100,164,181437,1,8,0:0:0:0:
128,80,181782,2,0,L|176:28,1,40,8|0,0:0|0:0,0:0:0:0:
288,64,182471,1,8,0:0:0:0:
372,92,182816,2,0,B|380:144|404:164|404:164|428:212|404:260,1,160,0|4,0:0|0:0,0:0:0:0:
328,212,183849,5,8,0:0:0:0:
240,196,184194,2,0,B|197:151|197:151|157:159|117:127,2,120,0|0|8,0:0|0:0|0:0,0:0:0:0:
264,280,185572,2,0,B|307:325|307:325|347:317|387:349,2,120,0|0|8,0:0|0:0|0:0,0:0:0:0:
240,196,186950,1,0,0:0:0:0:
272,68,187467,2,0,P|212:67|167:88,2,80
360,52,188500,2,0,L|396:84,1,40,0|8,0:0|0:0,0:0:0:0:
464,124,189017,1,4,0:0:0:0:
420,200,189362,5,0,0:0:0:0:
360,264,189706,2,0,B|391:312|391:312|436:323|447:368,2,120
272,264,191084,2,0,B|240:312|240:312|195:323|184:368,2,120
312,184,192462,1,0,0:0:0:0:
404,88,192979,2,0,L|476:44,2,80
328,128,194013,2,0,L|316:196,1,40,0|8,0:0|0:0,0:0:0:0:
292,252,194530,1,4,0:0:0:0:
300,340,194874,6,0,P|376:356|448:304,2,160,8|8|8,0:0|0:0|0:0,0:0:0:0:
212,340,196597,2,0,P|136:356|80:320,2,120,0|0|8,0:0|0:0|0:0,0:0:0:0:
256,264,197975,2,0,P|332:248|392:292,1,120
428,204,198836,2,0,P|440:136|432:92,1,80
356,92,199525,2,0,L|288:52,1,40,0|8,0:0|0:0,0:0:0:0:
232,80,200042,6,0,L|160:168,1,80,0|8,0:0|0:0,0:0:0:0:
182,230,200731,2,0,P|235:275|286:275,2,120,0|0|8,0:0|0:0|0:0,0:0:0:0:
259,188,202109,2,0,P|312:142|363:142,2,120,0|0|8,0:0|0:0|0:0,0:0:0:0:
181,230,203487,1,0,0:0:0:0:
160,148,203832,1,8,0:0:0:0:
93,93,204177,6,0,P|176:64|166:233,1,320,0|0,0:0|0:0,0:0:0:0:
96,208,205899,5,8,0:0:0:0:
103,295,206244,2,0,P|147:343|209:350,2,120,0|0|8,0:0|0:0|0:0,0:0:0:0:
185,263,207622,2,0,L|195:206,1,40
171,137,208139,2,0,B|208:101|208:101|235:57|293:52,1,120,0|8,0:0|0:0,0:0:0:0:
344,32,209000,6,0,B|394:30|435:71|435:71|438:139,1,160,4|0,0:0|0:0,0:0:0:0:
436,305,210378,2,0,B|385:306|344:265|344:265|341:197,1,160,4|0,0:0|0:0,0:0:0:0:
268,160,211412,5,8,0:0:0:0:
188,121,211756,2,0,B|146:158|146:158|90:142|61:181,2,120,0|0|8,0:0|0:0|0:0,0:0:0:0:
268,160,213134,2,0,L|306:201,1,40
383,192,213651,2,0,B|384:151|384:151|417:108|405:68,1,120,0|8,0:0|0:0,0:0:0:0:
320,90,214512,6,0,B|286:56|286:56|224:58|224:58|169:15,1,160
56,146,215891,2,0,B|89:179|89:179|87:241|87:241|130:296,1,160
188,336,216924,5,8,0:0:0:0:
236,260,217269,2,0,P|279:212|339:205,2,120,0|0|8,0:0|0:0|0:0,0:0:0:0:
320,288,218647,2,0,L|347:324,1,40
404,256,219164,2,0,P|422:199|401:143,1,120,0|8,0:0|0:0,0:0:0:0:
352,72,220025,6,0,B|316:40|276:48|276:48|244:72|188:72,1,160
52,160,221403,2,0,B|88:192|128:184|128:184|160:160|216:160,1,160
268,104,222437,1,8,0:0:0:0:
336,48,222781,5,0,0:0:0:0:
448,116,223298,2,0,B|456:156|456:156|424:204|436:260,1,120,0|8,0:0|0:0,0:0:0:0:
380,300,224159,2,0,L|324:328,1,40
256,328,224676,5,0,0:0:0:0:
167,317,225021,2,0,L|132:300,1,40,0|8,0:0|0:0,0:0:0:0:
92,224,225537,2,0,B|90:186|90:186|68:168|68:168|70:142|70:142|57:107,1,120
120,48,226399,2,0,L|180:28,1,40,0|8,0:0|0:0,0:0:0:0:
236,76,226916,6,0,B|256:108|256:108|284:112|284:112|296:136|296:136|324:160,1,120
404,148,227777,2,0,L|468:120,2,40,0|8|0,0:0|0:0|0:0,0:0:0:0:
368,228,228466,2,0,L|304:256,2,40,0|8|0,0:0|0:0|0:0,0:0:0:0:
444,272,229155,2,0,L|508:244,2,40,0|8|0,0:0|0:0|0:0,0:0:0:0:
376,328,229844,2,0,L|312:356,1,40,0|8,0:0|0:0,0:0:0:0:
256,316,230361,1,4,0:0:0:0:
