osu file format v6

[General]
AudioFilename: Foals - Cassius.mp3
AudioLeadIn: 1985
PreviewTime: 25434
Countdown: 0
SampleSet: Normal
StackLeniency: 0.3
Mode: 0
LetterboxInBreaks: 1

[Editor]
Bookmarks: 198,25636,50678,63795,77309,89234
DistanceSpacing: 0.800000011920929
BeatDivisor: 4
GridSize: 32

[Metadata]
Title:Cassius
Artist:Foals
Creator:Nharox
Version:Hard
Source:
Tags:

[Difficulty]
HPDrainRate:7
CircleSize:4
OverallDifficulty:7
SliderMultiplier:1.8
SliderTickRate:1

[Events]
//Background and Video events
0,0,"foals.jpg"
//Break Periods
2,54283,62922
//Storyboard Layer 0 (Background)
//Storyboard Layer 1 (Fail)
//Storyboard Layer 2 (Pass)
//Storyboard Layer 3 (Foreground)
//Storyboard Sound Samples
//Background Colour Transformations
3,100,163,162,255

[TimingPoints]
225,397.482610135807,4,1,0,80,1,0
22980,-100,4,1,0,30,0,0
23576,-100,4,1,0,50,0,0
24172,-100,4,1,0,70,0,0
24768,-100,4,1,0,90,0,0
25663,-100,4,1,0,100,0,1
37389,-100,4,1,0,100,0,0
38383,-100,4,1,0,100,0,1
43848,-100,4,1,0,100,0,0
44743,-100,4,1,0,100,0,1
50307,-100,4,1,0,100,0,0
50705,-100,4,1,0,100,0,1
52295,-100,4,1,0,100,0,0
63623,-100,4,1,0,80,0,0
72268,-100,4,1,0,30,0,0
73062,-100,4,1,0,40,0,0
73856,-100,4,1,0,50,0,0
74650,-100,4,1,0,60,0,0
75444,-100,4,1,0,70,0,0
75945,-100,4,1,0,80,0,0
86776,-100,4,1,0,40,0,0
87173,-100,4,1,0,50,0,0
87570,-100,4,1,0,60,0,0
87967,-100,4,1,0,70,0,0
88364,-100,4,1,0,80,0,0
88761,-100,4,1,0,90,0,0
89261,-100,4,1,0,100,0,1
94726,-100,4,1,0,100,0,0
95620,-100,4,1,0,100,0,1
101185,-100,4,1,0,100,0,0
101980,-100,4,1,0,100,0,1
106750,-100,4,1,0,100,0,0
108340,-100,4,1,0,100,0,1
110313,-200,4,1,0,100,0,1
113507,-100,4,1,0,100,0,0
113805,-100,4,1,0,50,0,0
114004,-100,4,1,0,70,0,0
114202,-100,4,1,0,90,0,0
114600,-100,4,1,0,100,0,0
114699,-100,4,1,0,100,0,1
114898,-100,4,1,0,100,0,0

[Colours]
Combo1 : 255,255,0
Combo2 : 240,0,0
Combo3 : 0,113,225
Combo4 : 0,155,78

[HitObjects]
256,96,225,1,0
256,288,622,1,8
96,96,1019,5,0
176,144,1218,1,0
256,96,1417,1,8
336,144,1616,1,0
416,96,1814,1,0
416,96,2212,1,8
416,288,2609,5,0
336,240,2808,1,0
256,288,3007,1,8
176,240,3206,1,0
96,288,3404,1,0
96,288,3603,1,0
96,288,3702,1,0
96,288,3802,1,8
256,64,4199,5,0
184,104,4398,1,0
256,144,4597,1,8
328,104,4796,1,0
352,192,4994,2,0,B|416:256|320:320,1,135
339,306,5392,1,8
256,240,5591,1,0
160,192,5789,2,0,B|96:256|192:320,1,135
173,306,6187,1,8
256,240,6385,1,0
256,160,6584,1,0
256,80,6783,1,0
256,80,6882,1,0
256,80,6982,1,8
64,320,7379,5,0
64,320,7479,1,0
64,320,7578,2,0,B|0:288|160:224|32:128,1,180,0|8
64,64,8174,1,0
160,96,8373,1,0
192,192,8572,1,8
192,192,8671,1,0
192,192,8770,1,0
448,320,8969,5,0
448,320,9068,1,0
448,320,9168,2,0,B|512:288|352:224|480:128,1,180,0|8
448,64,9764,1,0
352,96,9963,1,0
320,192,10162,1,8
320,192,10261,1,0
320,192,10360,1,0
352,320,10559,6,0,B|416:320,2,45,0|0|0
256,320,10957,1,8
256,320,11155,1,0
160,320,11354,2,0,B|96:320,2,45,0|0|0
256,320,11751,1,8
256,320,11950,1,0
256,224,12149,2,0,B|256:160,2,45,0|0|0
256,320,12546,1,8
256,320,12745,1,0
256,224,12944,5,0
256,224,13043,1,0
256,224,13143,1,0
256,224,13242,1,0
256,224,13341,1,8
80,96,13739,5,0
160,144,13938,1,0
80,192,14136,1,8
160,240,14335,1,0
80,288,14534,1,0
80,288,14931,1,8
432,96,15329,5,0
352,144,15528,1,0
432,192,15726,1,8
352,240,15925,1,0
432,288,16124,1,0
432,288,16323,1,0
432,288,16422,1,0
432,288,16521,1,8
136,64,16919,5,0
216,64,17118,1,0
296,64,17316,1,8
376,64,17515,1,0
352,160,17714,2,0,B|329:262|227:217,1,135
256,227,18111,1,8
256,128,18310,1,0
160,160,18509,2,0,B|183:262|285:217,1,135
256,227,18906,1,8
256,320,19105,1,0
256,227,19304,1,0
256,128,19502,1,0
256,128,19602,1,0
256,128,19701,1,8
384,160,20099,6,0,B|286:244|411:337,1,180,0|8
432,240,20695,1,0
432,240,20894,2,0,B|530:156|405:63,1,180,0|8
256,128,21490,5,0
128,160,21689,6,0,B|226:244|101:337,1,180,0|8
80,240,22285,1,0
80,240,22484,2,0,B|-18:156|107:63,1,180,0|12
128,160,23080,5,0
128,160,23278,1,4
192,96,23477,1,0
192,96,23676,1,12
256,160,23875,2,0,B|256:256,2,90,0|4|0
256,160,24471,1,12
320,96,24670,1,0
320,96,24868,1,4
384,160,25067,1,0
384,160,25266,1,12
56,77,25663,6,0,B|120:77|120:141,1,90
119,130,26061,2,0,B|79:193|175:225,1,90,8|0
135,207,26458,2,0,B|224:225|195:298,1,90
201,259,26856,2,0,B|201:323|297:323,1,90,8|0
256,319,27253,1,0
256,224,27452,5,0
256,224,27551,1,0
256,224,27651,1,8
256,128,27850,2,0,B|256:32,3,90,0|0|0|8
256,38,28645,1,0
456,77,28843,6,0,B|392:77|392:141,1,90
393,130,29241,2,0,B|433:193|337:225,1,90,8|0
377,207,29638,2,0,B|288:225|317:298,1,90
311,259,30036,2,0,B|311:323|215:323,1,90,8|0
256,319,30433,1,0
256,224,30632,5,0
256,216,30731,1,0
256,208,30831,1,8
256,200,30930,1,0
256,192,31029,1,0
256,184,31129,1,0
256,176,31228,1,4
256,32,31626,1,8
96,320,32023,5,0
176,320,32222,1,0
256,320,32421,1,8
336,320,32619,1,0
416,320,32818,1,0
336,320,33017,1,0
256,320,33216,1,8
176,320,33414,1,0
96,320,33613,1,0
400,128,34011,5,8
400,128,34209,1,0
360,56,34408,1,0
440,56,34607,1,0
480,128,34805,1,8
440,200,35004,1,0
360,200,35203,1,0
320,128,35402,1,0
320,128,35501,1,0
320,128,35600,1,8
112,128,35799,5,0
152,56,35998,1,0
72,56,36197,1,0
32,128,36395,1,8
72,200,36594,1,0
152,200,36793,1,0
192,128,36992,1,0
192,128,37091,1,0
192,128,37190,1,8
192,128,37290,1,0
192,128,37389,1,0
256,64,37588,5,4
256,320,37985,1,8
256,64,38383,5,0
320,128,38582,1,0
256,192,38780,1,8
192,256,38979,1,0
256,320,39178,1,0
320,256,39377,1,0
256,192,39575,1,8
192,128,39774,1,0
256,64,39973,1,0
192,336,40370,5,8
192,336,40569,2,0,B|96:336,1,90
320,336,40966,2,0,B|416:336,1,90,0|8
192,240,41364,2,0,B|96:240,1,90
320,240,41761,2,0,B|416:240,1,90,0|8
192,144,42159,2,0,B|96:144,1,90
320,144,42556,2,0,B|416:144,1,90,0|8
352,48,42954,1,0
256,48,43153,1,0
160,48,43351,1,0
160,48,43451,1,0
160,48,43550,1,8
160,48,43649,1,0
160,48,43749,1,0
160,48,43848,1,0
160,48,43948,5,4
352,48,44345,1,8
128,256,44743,5,0
192,320,44941,1,0
256,256,45140,1,8
320,320,45339,1,0
384,256,45538,1,0
320,320,45736,1,0
256,256,45935,1,8
192,320,46134,1,0
128,256,46332,1,0
256,256,46531,2,0,B|256:192,2,45,0|0|8
320,320,46929,5,0
384,256,47127,1,0
448,192,47326,1,0
448,192,47525,1,8
384,128,47724,1,0
320,64,47922,1,0
192,320,48320,5,8
128,256,48519,1,0
64,192,48717,1,0
64,192,48916,1,0
64,192,49115,1,8
128,128,49314,1,0
192,64,49512,1,0
192,64,49711,6,0,B|128:64,2,45,0|0|8
320,64,50109,2,0,B|384:64,2,45
256,192,50705,5,4
256,192,50804,12,4,52295
128,192,53686,5,0
384,192,54083,1,4
128,64,63822,5,0
0,192,64219,1,8
128,320,64617,1,0
256,192,65014,1,8
128,64,65412,1,0
128,80,65511,1,0
128,96,65610,1,0
128,112,65710,1,0
128,128,65809,1,8
128,192,66008,5,0
64,256,66207,1,0
128,320,66405,1,0
192,256,66604,1,8
384,64,67002,5,0
512,192,67399,1,8
384,320,67797,1,0
256,192,68194,1,8
384,64,68592,1,0
384,80,68691,1,0
384,96,68790,1,0
384,112,68890,1,0
384,128,68989,1,8
384,192,69188,5,0
448,256,69386,1,0
384,320,69585,1,0
320,256,69784,1,8
256,64,70181,5,0
256,192,70579,1,8
256,192,70778,1,0
256,192,70976,1,0
256,320,71374,1,8
256,320,71771,1,0
256,192,72169,1,8
256,128,72368,5,0
320,160,72566,1,0
352,224,72765,1,0
320,288,72964,1,8
256,320,73163,1,0
192,288,73361,1,0
160,224,73560,1,0
192,160,73759,1,8
256,128,73958,1,0
320,160,74156,1,0
352,224,74355,1,0
320,288,74554,1,8
256,320,74752,1,0
192,288,74951,1,0
160,224,75150,1,0
192,160,75349,1,8
256,128,75547,1,0
256,128,75647,1,0
256,128,75746,1,0
256,128,75846,1,0
256,128,75945,6,0,B|256:32,3,90,0|8|0|4
256,38,76939,1,8
128,320,77336,5,0
192,256,77535,1,0
256,192,77734,1,8
320,256,77932,1,0
384,320,78131,1,0
384,320,78529,1,8
384,64,78926,5,0
320,128,79125,1,0
256,192,79324,1,8
192,128,79522,1,0
128,64,79721,1,0
128,64,80119,1,8
192,320,80516,6,0,B|288:224,1,90
320,320,80913,2,0,B|224:224,1,90,8|0
352,224,81311,2,0,B|329:122|227:167,1,135
256,157,81708,1,8
256,256,81907,1,0
160,224,82106,2,0,B|183:122|285:167,1,135
256,157,82503,1,8
320,96,82702,1,0
256,32,82901,1,0
192,96,83100,1,0
192,96,83199,1,0
192,96,83298,1,8
184,256,83696,6,0,B|100:158|7:283,1,180,0|8
104,304,84292,1,0
104,304,84491,2,0,B|188:402|281:277,1,180,0|8
256,192,85087,5,0
328,128,85286,6,0,B|412:226|505:101,1,180,0|8
408,80,85882,1,0
408,80,86081,2,0,B|324:-18|231:107,1,180,0|8
128,320,86876,5,4
128,64,87273,1,8
384,64,87671,1,4
384,320,88068,1,8
256,192,88466,1,4
256,192,88863,1,8
128,64,89261,5,0
192,128,89459,1,0
256,64,89658,1,8
320,128,89857,1,0
384,64,90056,1,0
320,128,90254,2,0,B|320:224,1,90,0|8
192,218,90652,2,0,B|192:128,1,90
256,320,91248,5,8
256,320,91447,1,0
320,256,91646,1,0
384,192,91844,1,0
320,128,92043,1,8
256,64,92242,1,0
192,128,92440,1,0
128,192,92639,1,0
192,256,92838,1,8
256,320,93037,6,0,B|256:224,1,90
320,166,93434,2,0,B|320:256,1,90,0|8
192,166,93832,2,0,B|192:256,1,90
256,320,94229,2,0,B|256:384,6,45,0|0|8|0|0|0|4
256,320,95223,1,8
208,80,95620,5,0
144,144,95819,1,0
144,240,96018,1,8
208,304,96217,1,0
304,304,96415,1,0
368,240,96614,1,0
368,144,96813,1,8
304,80,97012,1,0
208,80,97210,1,0
48,192,97608,5,8
48,192,97806,2,0,B|128:96,1,90
48,192,98204,2,0,B|128:288,1,90,0|8
48,192,98601,2,0,B|144:192,1,90
256,192,98999,5,0
256,192,99198,1,8
464,192,99396,6,0,B|384:96,1,90
464,192,99794,2,0,B|384:288,1,90,0|8
464,192,100191,2,0,B|368:192,1,90
374,192,100589,6,0,B|288:192,2,45,0|0|8
138,192,100986,2,0,B|224:192,2,45
256,64,101583,5,8
128,320,101980,6,0,B|224:224,1,90
384,320,102378,2,0,B|288:224,1,90,8|0
384,64,102775,2,0,B|288:160,1,90
128,64,103172,2,0,B|224:160,1,90,8|0
256,192,103570,1,0
256,192,103769,2,0,B|256:256,2,45,0|0|8
8,112,104166,5,0
48,184,104365,1,0
88,256,104564,1,0
128,184,104762,1,8
168,112,104961,1,0
216,184,105160,1,0
256,256,105359,1,0
296,184,105557,1,8
336,112,105756,1,0
376,184,105955,1,0
416,256,106154,1,0
456,184,106352,1,8
496,112,106551,1,0
496,112,106750,1,0
496,112,107147,5,12
256,112,107545,1,0
8,112,107942,1,12
384,320,108340,6,0,B|384:224,1,90
384,64,108737,2,0,B|288:64,1,90,8|0
128,64,109135,2,0,B|128:160,1,90
128,320,109532,2,0,B|256:320,1,90,8|0
256,192,109930,1,0
256,192,110327,1,8
80,192,110526,5,0
80,192,110725,1,0
80,192,110923,1,0
80,192,111122,2,0,B|176:192,2,90,8|0|8
432,192,112116,5,0
432,192,112315,1,0
432,192,112513,1,0
432,192,112712,2,0,B|336:192,2,90,8|0|8
256,320,113905,5,0
256,192,114103,1,0
256,64,114302,1,8
256,64,114699,1,4
