osu file format v6

[General]
AudioFilename: Foals - Cassius.mp3
AudioLeadIn: 1985
PreviewTime: 25434
Countdown: 0
SampleSet: Normal
StackLeniency: 0.3
Mode: 0
LetterboxInBreaks: 1

[Editor]
Bookmarks: 198,25636,50678,63795,77309,89234,115875
DistanceSpacing: 1
BeatDivisor: 4
GridSize: 8

[Metadata]
Title:Cassius
Artist:Foals
Creator:Nharox
Version:EEeeeasy
Source:
Tags:

[Difficulty]
HPDrainRate:4
CircleSize:3
OverallDifficulty:3
SliderMultiplier:1.2
SliderTickRate:1

[Events]
//Background and Video events
0,0,"foals.jpg"
//Break Periods
2,6784,12299
2,63823,64568
2,67202,67748
2,70381,70928
//Storyboard Layer 0 (Background)
//Storyboard Layer 1 (Fail)
//Storyboard Layer 2 (Pass)
//Storyboard Layer 3 (Foreground)
//Storyboard Sound Samples
//Background Colour Transformations
3,100,163,162,255

[TimingPoints]
225,397.482610135807,4,1,0,80,1,0
22980,-100,4,1,0,30,0,0
23576,-100,4,1,0,50,0,0
24172,-100,4,1,0,70,0,0
24768,-100,4,1,0,90,0,0
25663,-100,4,1,0,100,0,1
37389,-100,4,1,0,100,0,0
38383,-100,4,1,0,100,0,1
43848,-100,4,1,0,100,0,0
44743,-100,4,1,0,100,0,1
50307,-100,4,1,0,100,0,0
50705,-100,4,1,0,100,0,1
52295,-100,4,1,0,100,0,0
63623,-100,4,1,0,80,0,0
72268,-100,4,1,0,30,0,0
73062,-100,4,1,0,40,0,0
73856,-100,4,1,0,50,0,0
74650,-100,4,1,0,60,0,0
75444,-100,4,1,0,70,0,0
75945,-100,4,1,0,80,0,0
89261,-100,4,1,0,100,0,1
94726,-100,4,1,0,100,0,0
95620,-100,4,1,0,100,0,1
101185,-100,4,1,0,100,0,0
101980,-100,4,1,0,100,0,1
106750,-100,4,1,0,100,0,0
108340,-100,4,1,0,100,0,1
113308,-200,4,1,0,100,0,0
114699,-100,4,1,0,100,0,1
114897,-100,4,1,0,100,0,0

[Colours]
Combo1 : 255,255,0
Combo2 : 240,0,0
Combo3 : 0,113,225
Combo4 : 0,155,78

[HitObjects]
96,72,225,2,0,B|96:208,1,120
96,312,1019,2,2,B|48:312,4,30
216,312,1814,2,0,B|352:312,1,120
456,312,2609,2,2,B|504:312,4,30
456,192,3404,6,0,B|320:192,1,120
216,192,4199,2,2,B|168:192,4,30
216,72,4994,2,0,B|360:72,1,120
456,72,5789,2,2,B|456:24,4,30
456,192,6584,1,4
416,72,13739,6,0,B|416:208,1,120
416,312,14534,2,2,B|464:312,4,30
296,312,15329,2,0,B|160:312,1,120
56,312,16124,2,2,B|8:312,4,30
56,192,16919,6,0,B|192:192,1,120
296,192,17714,2,2,B|344:192,4,30
296,72,18509,2,0,B|152:72,1,120
56,72,19304,2,2,B|56:24,4,30
56,192,20099,5,0
56,312,20496,2,0,B|128:312,1,60
176,312,20894,2,8,B|256:312,2,60
296,312,21689,1,0
416,312,22086,2,0,B|416:240,1,60
416,192,22484,6,8,B|416:112,2,60
296,192,23278,2,8,B|296:112,2,60
176,192,24073,2,8,B|176:112,2,60
56,192,24868,2,8,B|56:112,2,60
56,72,25663,5,4
176,72,26061,1,0
296,72,26458,1,0
416,72,26856,1,0
416,192,27253,2,0,B|288:192,3,120
296,312,28843,5,0
176,312,29241,1,0
56,312,29638,1,0
56,192,30036,1,0
56,72,30433,1,0
456,312,32023,5,4
336,312,32421,1,0
216,312,32818,1,0
96,312,33216,1,0
96,192,33613,2,0,B|224:192,3,120
216,72,35203,5,0
336,72,35600,1,0
456,72,35998,1,0
456,192,36395,1,0
456,312,36793,1,0
256,192,37190,12,4,38383
224,40,38780,5,0
288,136,39178,1,0
224,240,39575,1,0
296,336,39973,1,0
488,192,40768,5,0
488,192,40966,1,0
488,192,41165,1,0
488,192,41364,1,0
488,192,41563,5,0
384,128,41960,1,0
280,192,42358,1,0
176,128,42755,1,0
72,192,43153,1,0
192,80,44743,5,4
312,80,45140,1,0
192,80,45538,1,0
312,80,45935,1,0
192,80,46332,1,0
224,256,46929,6,2,B|296:256,4,60
224,256,47922,1,4
400,256,48519,6,2,B|472:256,4,60
400,256,49512,1,4
40,256,50705,5,4
472,72,52295,5,4
48,72,53686,1,4
48,72,54083,1,4
48,312,55475,5,4
464,312,56866,1,4
464,312,57263,1,4
48,184,58654,5,4
464,184,60046,1,4
464,184,60443,1,4
464,184,61834,5,4
48,184,63225,1,4
48,184,63623,1,4
112,104,66008,5,0
168,104,66207,1,8
224,104,66405,1,0
280,104,66604,1,8
336,104,66803,1,0
392,104,67002,1,4
392,104,69188,5,0
336,104,69386,1,8
280,104,69585,1,0
224,104,69784,1,8
168,104,69983,1,0
112,104,70181,1,4
256,304,72368,5,0
256,304,72566,2,0,B|336:304,3,60
288,256,73361,2,0,B|368:256,3,60
320,200,74156,2,0,B|400:200,3,60,4|0|0|0
352,144,74951,2,0,B|432:144,3,60
120,136,76541,6,4,B|24:248,1,120,4|0
104,328,77336,1,0
224,328,77734,1,0
344,328,78131,1,0
464,328,78529,1,0
464,208,78926,6,4,B|368:96,1,120,0|0
288,192,79721,1,0
168,192,80119,1,0
168,312,80516,1,0
48,312,80913,1,0
48,192,81311,6,0,B|48:56,1,120
168,72,82106,2,0,B|168:200,1,120
288,192,82901,1,4
424,320,84491,5,2
424,320,84690,1,2
424,320,84888,1,2
64,320,86081,5,2
64,320,86279,1,2
64,320,86478,1,2
64,200,86876,5,2
64,200,87074,1,2
64,200,87273,1,2
64,80,87671,5,8
64,80,87869,1,8
64,80,88068,1,8
184,80,88466,6,2,B|184:8,2,60
304,80,89261,5,4
416,112,89658,1,0
304,160,90056,1,0
416,200,90453,1,0
304,248,90851,1,0
208,80,92440,5,4
96,112,92838,1,0
208,160,93235,1,0
96,200,93633,1,0
208,248,94030,1,0
256,360,95620,5,4
256,240,96018,1,0
256,120,96415,2,0,B|256:-8,2,120
288,296,97806,6,2,B|216:296,4,60
288,296,98800,1,4
112,296,99396,6,2,B|40:296,4,60
112,296,100390,1,4
256,104,101185,5,8
256,104,101583,1,8
376,104,101980,6,4,B|504:104,1,120,4|0
496,224,102775,2,0,B|360:224,1,120
376,344,103570,1,0
16,344,105160,6,4,B|144:344,1,120,0|0
136,224,105955,2,0,B|0:224,1,120
16,104,106750,1,0
488,192,108340,5,4
376,144,108737,1,0
256,128,109135,1,0
136,144,109532,1,0
24,192,109930,1,0
256,192,110526,12,4,113110
256,192,113905,5,0
256,192,114302,1,0
256,72,114699,1,4
