osu file format v5

[General]
AudioFilename: Foals - Antidote - 06 Balloons.mp3
AudioLeadIn: 0
PreviewTime: -1
Countdown: 0
SampleSet: Soft
StackLeniency: 0.7
Mode: 0
LetterboxInBreaks: 1
EditorBookmarks: 66180,72610,75728,79040,85081,88198,94434,96577,100279,115965,141004

[Metadata]
Title:Balloons
Artist:Foals
Creator:Yorito
Version:Vocals
Source:
Tags:

[Difficulty]
HPDrainRate:4
CircleSize:4
OverallDifficulty:4
SliderMultiplier:1.3
SliderTickRate:1

[Events]
//Background and Video events
1,0,"Foals Balloons (Music Video).flv"
//Break Periods
2,113340,115132
//Storyboard Layer 0 (Background)
//Storyboard Layer 1 (Failing)
//Storyboard Layer 2 (Passing)
//Storyboard Layer 3 (Foreground)
//Storyboard Sound Samples
//Background Colour Transformations
3,100,163,162,255

[TimingPoints]
20000,389.708130848,4,2,0,100

[Colours]
Combo1 : 179,255,102
Combo2 : 255,98,98

[HitObjects]
160,128,66570,1,4
256,128,66959,1,0
256,160,67154,1,0
352,128,67544,1,2
352,256,69687,5,4
256,256,70077,1,0
256,224,70272,1,0
160,256,70662,1,2
82,144,72805,5,2
112,99,73000,1,2
160,86,73195,1,2
218,98,73390,1,2
258,133,73779,1,0
272,183,73974,1,0
264,227,74169,1,4
229,266,74559,1,4
341,268,75923,5,0
362,229,76117,1,0
364,182,76312,1,0
341,136,76507,1,0
309,117,76897,1,0
262,111,77092,1,0
213,119,77287,1,4
174,144,77676,1,4
174,145,78066,1,4
128,224,79040,5,4
192,224,79430,2,2,B|282:225,3,65
160,128,82158,1,4
256,128,82548,1,4
256,160,82743,1,4
352,128,83132,1,4
96,128,85276,5,4
136,158,85470,1,0
174,183,85665,1,2
218,212,85860,1,2
258,244,86250,1,2
299,267,86640,1,2
346,275,87029,1,2
394,274,87224,2,4,B|490:274,1,65
205,228,88393,5,0
175,190,88588,1,0
208,158,88783,1,0
179,122,88978,1,0
259,75,89368,1,4
321,103,89757,1,0
339,172,90147,1,4
352,224,90342,1,4
296,236,91511,5,2
265,206,91706,1,2
279,163,91901,1,2
241,133,92096,1,4
182,97,92485,1,0
146,123,92680,1,0
116,157,92875,1,4
152,230,93265,2,4,B|224:283,1,65
265,233,94629,5,2
300,211,94823,1,2
343,216,95018,1,2
367,256,95213,1,2
378,147,95603,1,0
342,119,95798,1,0
299,119,95993,1,4
244,166,96382,1,0
202,154,96577,2,4,B|137:124,3,65
85,182,97746,5,2
104,218,97941,1,2
139,250,98136,1,2
179,272,98331,1,2
384,224,98721,1,0
350,244,98915,1,0
306,260,99110,1,4
234,269,99500,1,4
352,96,100864,5,2
288,96,101059,1,2
224,96,101254,1,2
160,96,101448,1,2
192,160,101838,1,0
256,160,102033,1,0
320,160,102228,1,4
288,224,102618,2,4,B|192:224,1,65
256,192,103787,12,0,106515
256,192,106904,12,0,109632
256,192,110022,12,0,113140
160,128,116452,5,4
256,128,116842,1,2
256,160,117037,1,2
352,128,117427,1,2
352,256,119570,5,4
256,256,119960,1,2
256,224,120154,1,2
160,256,120544,1,2
192,96,122688,5,4
192,192,123077,1,2
224,192,123272,1,2
192,288,123662,1,2
320,288,125805,5,4
320,192,126195,1,2
288,192,126390,1,2
320,96,126780,1,2
384,96,128923,5,4
384,160,129313,1,2
384,224,129507,1,2
384,288,129897,1,2
128,96,132041,5,4
128,160,132430,1,2
128,224,132625,1,2
128,288,133015,1,2
128,96,135158,5,0
384,96,135548,1,0
288,128,135743,1,0
224,128,136133,1,0
384,288,138276,5,0
128,288,138666,1,0
224,256,138860,1,0
288,256,139250,1,0
183,87,141394,5,2
161,130,141588,1,2
194,167,141783,1,2
171,210,141978,1,4
204,244,142368,1,0
179,276,142563,1,0
207,310,142758,1,0
256,320,143147,2,2,B|352:320,1,65
64,192,144511,5,2
64,256,144706,1,2
128,256,144901,1,2
192,256,145096,1,4
256,256,145486,1,0
256,192,145680,1,0
256,256,145875,1,0
320,256,146265,2,4,B|480:256,2,130
202,73,147629,5,2
128,96,147824,1,2
67,146,148019,1,2
40,223,148213,1,4
128,256,148603,1,0
224,288,148798,1,0
320,288,148993,1,4
352,288,149383,1,4
246,52,150747,5,2
316,86,150941,1,2
361,158,151136,1,2
390,242,151331,1,4
280,205,151721,1,0
190,144,151916,1,0
113,157,152111,1,0
125,249,152500,2,4,B|163:324,1,65
192,160,153864,5,2
256,160,154059,1,2
192,160,154254,1,2
256,160,154449,1,4
224,224,154839,1,0
288,224,155033,1,0
352,224,155228,1,0
160,224,155618,2,4,B|64:224,1,65
416,224,156982,5,2
416,192,157177,1,2
416,160,157372,1,2
384,128,157566,1,4
224,96,157956,1,0
160,96,158151,1,0
96,96,158346,1,0
128,160,158736,2,4,B|256:256,2,130
224,256,160100,5,2
320,224,160294,1,2
384,160,160489,1,2
352,64,160684,1,4
256,32,161074,1,0
160,32,161269,1,0
96,96,161464,1,4
128,192,161853,1,4
211,215,163217,5,2
133,238,163412,1,2
155,159,163607,1,2
265,272,163802,1,4
335,214,164192,1,0
416,197,164386,1,0
416,122,164581,1,0
316,98,164971,2,4,B|252:130,1,65
256,192,165166,12,0,167017
