osu file format v5

[General]
AudioFilename: Foals - Antidote - 06 Balloons.mp3
AudioLeadIn: 0
PreviewTime: -1
Countdown: 0
SampleSet: Soft
StackLeniency: 0.7
Mode: 0
LetterboxInBreaks: 1
EditorBookmarks: 15132,66180,72610,75728,79040,85081,88198,94434,96577,100279,141004

[Metadata]
Title:Balloons
Artist:Foals
Creator:Yorito
Version:Beat
Source:
Tags:

[Difficulty]
HPDrainRate:0
CircleSize:3
OverallDifficulty:2
SliderMultiplier:1.2
SliderTickRate:0.5

[Events]
//Background and Video events
1,0,"Foals Balloons (Music Video).flv"
//Break Periods
2,103601,108856
2,116071,121326
2,128542,133797
//Storyboard Layer 0 (Background)
//Storyboard Layer 1 (Failing)
//Storyboard Layer 2 (Passing)
//Storyboard Layer 3 (Foreground)
//Storyboard Sound Samples
//Background Colour Transformations
3,100,163,162,255

[TimingPoints]
5000,389.708130848,4,2,0,100

[Colours]
Combo1 : 179,255,102
Combo2 : 255,98,98

[HitObjects]
64,224,16496,2,4,B|160:128,1,120
224,96,17665,1,0
320,96,18444,1,0
416,96,19224,1,0
416,191,19614,2,4,B|416:319,1,120
320,320,20783,1,0
224,320,21562,1,0
128,320,22342,1,0
32,320,22731,6,4,B|32:192,1,120
128,192,23900,1,0
256,288,24680,1,0
352,288,25459,1,0
448,288,25849,2,4,B|448:160,1,120
352,160,27018,1,0
448,96,27797,1,0
352,96,28577,1,0
256,96,28967,6,4,B|128:96,1,120
64,96,30136,1,0
256,192,30915,1,0
160,192,31695,1,0
160,288,32084,2,4,B|288:288,1,120
352,288,33253,1,0
256,192,34033,1,0
256,96,34812,1,0
352,96,35202,6,4,B|448:192,1,120
352,224,36371,1,0
256,192,37150,1,0
256,96,37930,1,0
32,96,38320,2,4,B|160:96,1,120
160,192,39489,1,0
352,192,40268,1,0
256,288,41048,1,0
160,288,41437,6,4,B|160:160,1,120
160,96,42606,1,0
64,192,43386,1,0
64,96,44165,1,0
160,96,44555,2,4,B|256:192,1,120
320,192,45724,1,0
256,192,46503,1,0
352,192,47283,1,0
480,96,47673,2,4,B|352:96,1,120
256,96,48842,1,0
160,96,49621,1,0
160,192,50400,1,0
32,288,50790,6,4,B|160:288,1,120
256,288,51959,1,0
352,288,52739,1,0
448,288,53518,1,0
448,192,53908,2,4,B|320:192,1,120
320,96,55077,1,0
416,96,55856,1,0
256,192,56636,1,0
160,288,57026,2,4,B|96:160,1,120
32,288,58195,1,0
64,192,58974,1,0
64,96,59753,1,0
160,96,60143,6,4,B|288:160,1,120
352,192,61312,1,0
448,96,62092,1,0
448,192,62871,1,0
352,192,63261,2,4,B|224:192,1,120
160,192,64430,1,0
224,96,65209,1,0
322,100,65989,1,0
276,184,66768,1,0
348,247,67548,1,0
244,277,68327,5,0
143,280,69106,1,0
138,196,69886,1,0
147,110,70665,1,0
266,118,71445,1,0
313,222,72224,1,0
192,223,73004,5,0
251,323,73783,1,0
360,300,74562,1,0
405,205,75342,1,0
277,125,76121,1,0
164,188,76901,5,0
66,261,77680,5,0
226,280,78459,5,0
329,243,79239,1,0
425,225,80018,1,0
389,112,80798,1,0
255,108,81577,1,0
105,122,82357,5,0
88,260,83136,1,0
196,302,83915,1,0
328,297,84695,1,0
434,256,85474,1,0
418,142,86254,1,0
290,105,87033,1,0
124,116,87812,1,0
216,215,88592,5,0
104,256,89371,1,0
175,123,90151,1,0
220,223,90930,1,0
316,199,91320,2,4,B|400:136,1,90
403,260,92489,1,0
184,237,93268,1,0
312,185,94048,1,0
460,106,94438,6,4,B|337:103,1,120
264,95,95607,5,0
151,104,96386,1,0
96,228,97165,1,0
94,328,97555,2,4,B|224:322,1,120
320,298,98724,1,0
309,174,99504,1,0
206,182,100283,1,0
89,173,100673,2,4,B|124:52,1,120
219,136,101842,5,0
356,148,102621,1,0
296,236,103401,1,0
171,178,110416,5,2
256,216,111195,1,2
336,184,111974,1,2
258,124,112754,1,2
158,136,113533,5,2
158,221,114313,1,2
256,160,115092,1,2
266,244,115871,1,2
162,208,122886,5,2
284,230,123666,1,2
383,241,124445,1,2
300,150,125224,1,2
184,168,126004,5,2
274,266,126783,1,2
144,264,127563,1,2
291,170,128342,1,2
351,252,135357,5,2
262,268,136136,1,2
158,264,136916,1,2
110,159,137695,1,2
240,115,138475,5,2
376,157,139254,1,2
416,291,140033,1,2
308,276,140813,1,2
164,265,141592,5,0
70,207,142372,1,0
184,136,143151,1,0
336,139,143930,1,0
239,210,144710,5,0
368,272,145489,1,0
355,161,146269,1,0
218,196,147048,1,0
202,300,147828,5,0
107,168,148607,1,0
241,129,149386,1,0
366,139,150166,1,0
379,277,150945,5,0
251,268,151725,1,0
104,275,152504,1,0
104,126,153283,1,0
216,68,154063,5,0
354,94,154842,1,0
380,200,155622,1,0
296,305,156401,1,0
156,300,157181,1,0
60,174,157960,5,0
167,115,158739,1,0
279,106,159519,1,0
212,238,160298,1,0
336,308,161078,1,0
444,202,161857,1,0
320,179,162636,1,0
148,188,163416,5,0
250,290,164195,1,0
134,87,164975,1,0
293,164,165754,1,0
158,225,166534,5,0
204,140,167313,1,0
274,188,168092,1,0
197,195,168482,1,0
104,234,169456,1,0
157,260,169846,1,0
284,270,170821,1,0
348,263,171210,1,0
192,180,172184,1,0
131,207,172573,1,0
267,260,173548,1,0
325,262,173938,1,0
236,120,174912,1,0
172,151,175301,1,0
288,220,176471,5,0
345,228,176860,1,0
106,182,178030,5,0
169,212,178420,1,0
