osu file format v6

[General]
AudioFilename: Flyleaf - The Kind.mp3
AudioLeadIn: 0
PreviewTime: 50432
Countdown: 0
SampleSet: Normal
StackLeniency: 0.6
Mode: 0
LetterboxInBreaks: 0

[Editor]
Bookmarks: 5078,12164,20432,27755,31062,35786,42873,50668,73109
DistanceSpacing: 0.800000011920929
BeatDivisor: 1
GridSize: 32

[Metadata]
Title:The Kind
Artist:Flyleaf
Creator:Nharox
Version:Relaxing
Source:
Tags:

[Difficulty]
HPDrainRate:3
CircleSize:3
OverallDifficulty:3
SliderMultiplier:1.2
SliderTickRate:1

[Events]
//Background and Video events
0,0,"Flyleaf.jpg"
//Break Periods
//Storyboard Layer 0 (Background)
//Storyboard Layer 1 (Fail)
//Storyboard Layer 2 (Pass)
//Storyboard Layer 3 (Foreground)
Sprite,Foreground,Centre,"White.png",320,240 F,0,32952,33188,1,0 F,0,33424,33660,1,0 F,0,33896,34133,1,0 F,0,34369,34605,1,0 F,0,34841,35078,1,0 F,0,35314,35550,1,0 F,0,55629,55865,1,0 F,0,56101,56337,1,0 F,0,56574,56810,1,0 F,0,57046,57282,1,0 F,0,57518,57755,1,0 F,0,62243,62479,1,0 F,0,62715,62952,1,0 F,0,63188,63424,1,0 F,0,63660,63896,1,0 F,0,64133,64369,1,0 F,0,64605,64841,1,0 F,0,65078,65314,1,0 F,0,73109,,1 F,0,73109,78778,1,0 M,0,140668,,320,240
Sprite,Foreground,Centre,"Red.png",320,240 S,0,5550,,0.624 F,0,5550,6022,1,0 F,0,6495,6967,1,0 F,0,7440,7912,1,0 F,0,8385,8857,1,0 F,0,9329,9802,1,0 F,0,10274,10747,1,0 F,0,11219,11692,1,0 F,0,12164,12637,1,0 F,0,13109,13581,1,0 F,0,14054,14526,1,0 F,0,14999,15471,1,0 F,0,15944,16416,1,0 F,0,16889,17361,1,0 F,0,17833,18306,1,0 F,0,19015,19487,1,0 F,0,19723,20196,1,0 F,0,20668,21140,1,0 F,0,21613,22085,1,0 F,0,22558,23030,1,0 F,0,23503,23975,1,0 F,0,24448,24920,1,0 F,0,25392,25865,1,0 F,0,26337,26810,1,0 F,0,27282,27755,1,0 F,0,28227,28700,1,0 F,0,29172,29644,1,0 F,0,30117,30589,1,0 F,0,31062,31534,1,0 F,0,32007,32479,1,0 F,0,32952,33424,1,0 F,0,33896,34369,1,0 F,0,34841,35314,1,0 F,0,35786,36259,1,0 F,0,36731,37203,1,0 F,0,37676,38148,1,0 F,0,38621,39093,1,0 F,0,39566,40038,1,0 F,0,40511,40983,1,0 F,0,41455,41928,1,0 F,0,42400,42873,1,0 F,0,43345,43818,1,0 F,0,44290,44763,1,0 F,0,45235,45707,1,0 F,0,46180,46652,1,0 F,0,47125,47597,1,0 F,0,48070,48542,1,0 F,0,49015,49487,1,0 F,0,49959,50432,1,0 F,0,50904,51377,1,0 F,0,51849,52322,1,0 F,0,52794,53266,1,0 F,0,53739,54211,1,0 F,0,54684,55156,1,0 F,0,55629,56101,1,0 F,0,56574,57046,1,0 F,0,57518,57991,1,0 F,0,58463,58936,1,0 F,0,59408,59881,1,0 F,0,60353,60826,1,0 F,0,61298,61770,1,0 F,0,62243,62715,1,0 F,0,63188,63660,1,0 F,0,64133,64605,1,0 F,0,65078,65550,1,0 F,0,66022,66495,1,0 F,0,66967,67440,1,0 F,0,67912,68385,1,0 F,0,68857,69329,1,0 F,0,69802,70274,1,0 F,0,70747,71219,1,0 F,0,71692,72164,1,0 F,0,72637,73109,1,0
//Storyboard Sound Samples
//Background Colour Transformations
3,100,163,162,255

[TimingPoints]
5078,472.44094488189,4,1,1,40,1,0
7676,-100,4,1,1,0,0,0
8148,-100,4,1,1,41,0,0
11455,-100,4,1,1,0,0,0
11928,-100,4,1,1,40,0,0
20196,-100,4,1,1,60,0,0
27637,-100,4,1,1,80,0,0
27755,-100,4,1,1,80,0,1
35668,-100,4,1,1,40,0,0
42755,-100,4,1,1,60,0,0
50432,-100,4,1,1,80,0,1
73345,-100,4,1,1,40,0,0

[Colours]
Combo1 : 187,0,0
Combo2 : 255,0,0

[HitObjects]
152,128,5078,2,0,B|32:128|32:256|160:256,1,240
256,192,6495,1,8
256,192,6731,1,0
360,128,7203,5,0
360,128,7440,2,0,B|480:128|480:256|352:256,1,240,8|8
224,288,8857,5,0
256,320,9093,1,0
288,288,9329,1,8
256,192,9802,1,0
136,144,10274,5,8
136,144,10511,1,0
136,144,10747,2,0,B|136:0|376:0|376:160,1,360,0|8
375,148,12637,1,0
320,272,13109,5,8
320,272,13345,1,0
192,272,13818,5,0
192,272,14054,1,8
143,171,14526,6,0,B|207:139|239:235|271:171,1,120,0|8
256,192,15235,2,0,B|320:224|352:128|384:192,1,120
367,172,15944,1,8
312,48,16416,6,0,B|328:72|328:72|360:48,2,60,0|0|8
200,48,17361,2,0,B|184:72|184:72|152:48,2,60,0|0|8
256,160,18306,2,0,B|256:288,3,120,0|8|0|8
96,288,20668,5,8
160,192,21140,1,0
96,96,21613,1,8
416,288,22558,5,8
352,192,23030,1,0
416,96,23503,1,8
208,96,24448,5,8
304,96,24920,1,0
352,192,25392,1,8
256,192,25865,1,0
160,192,26337,1,8
208,288,26810,1,0
304,288,27282,1,8
208,288,27755,5,4
304,288,28227,1,8
256,192,28700,1,0
256,160,28936,1,0
256,128,29172,1,8
368,128,29644,5,0
304,48,30117,1,8
208,48,30589,1,0
144,128,31062,1,8
256,320,31770,5,0
256,320,32007,1,8
256,320,32243,1,0
312,208,32715,5,0
312,208,32952,2,4,B|184:208,5,120,12|4|12|4|12|4
160,96,35786,5,8
256,32,36259,1,0
352,96,36731,1,8
312,248,37676,6,0,B|376:248,1,60,8|0
200,248,38385,2,0,B|136:248,1,60,0|8
64,160,39093,5,0
128,64,39566,1,8
192,160,40038,1,0
256,64,40511,1,8
320,160,40983,1,0
384,64,41455,1,8
448,160,41928,1,0
448,160,42400,1,8
336,320,43109,5,0
336,320,43345,2,0,B|464:320,2,120,8|0|8
176,320,44999,5,0
176,320,45235,2,0,B|48:320,2,120,8|0|8
149,181,46889,5,0
149,181,47125,1,8
149,181,47361,2,0,B|213:213|213:213|277:181,1,120
256,191,48070,1,8
256,96,48542,1,0
365,181,49015,1,8
365,181,49251,1,0
365,181,49487,2,0,B|301:213|301:213|237:181,1,120,0|8
352,304,50432,6,0,B|368:280|368:280|400:304,2,60,4|0|8
256,336,51377,1,0
256,336,51849,1,8
160,304,52322,6,0,B|144:280|144:280|112:304,2,60,0|0|8
256,336,53267,1,0
256,336,53739,1,8
256,160,54448,5,0
256,160,54684,1,8
256,64,55156,1,0
352,112,55629,1,12
352,208,56101,1,4
256,256,56574,1,12
160,208,57046,1,4
160,112,57518,1,12
64,224,58463,5,8
160,288,58936,1,0
256,352,59408,1,8
448,224,60353,5,8
352,288,60826,1,0
256,352,61298,1,8
256,96,62007,5,0
256,96,62243,2,4,B|256:224,6,120,12|4|12|4|12|4|12
416,128,65786,5,0
416,128,66022,2,0,B|352:160,4,60,8|0|0|0|8
96,128,67676,5,0
96,128,67912,2,0,B|160:160,4,60,8|0|0|0|8
256,320,69566,5,0
256,288,69802,1,8
256,256,70039,1,0
256,192,70274,12,4,73109
