osu file format v14

[General]
AudioFilename: you picked the wrong house fool.mp3
AudioLeadIn: 0
PreviewTime: 30279
Countdown: 1
SampleSet: None
StackLeniency: 0.7
Mode: 1
LetterboxInBreaks: 1
WidescreenStoryboard: 1

[Editor]
DistanceSpacing: 1
BeatDivisor: 2
GridSize: 4
TimelineZoom: 0.5599998

[Metadata]
Title:Big Smoke's Order
TitleUnicode:Big Smoke's Order
Artist:FlyingKitty
ArtistUnicode:FlyingKitty
Creator:zigizigiefe
Version:Futsuu
Source:
Tags:PS2 Video Game Rockstar Games Grand Theft Auto CJ Carl Johnson Big Smoke Sweet
BeatmapID:1644666
BeatmapSetID:783243

[Difficulty]
HPDrainRate:5
CircleSize:5
OverallDifficulty:5
ApproachRate:5
SliderMultiplier:1.4
SliderTickRate:1

[Events]
//Background and Video events
0,0,"BG.jpg",0,0
//Break Periods
//Storyboard Layer 0 (Background)
//Storyboard Layer 1 (Fail)
//Storyboard Layer 2 (Pass)
//Storyboard Layer 3 (Foreground)
//Storyboard Sound Samples

[TimingPoints]
701,636.942675159236,4,1,0,60,1,0
10892,636.942675159236,4,1,0,60,1,8
10895,633.579725448786,4,1,0,60,1,0
23555,632.911392405063,4,1,0,60,1,0
31135,638.297872340426,4,1,0,70,1,0
34964,631.578947368421,4,1,0,70,1,8
36227,631.578947368421,4,1,0,70,1,0
38753,631.578947368421,4,1,0,70,1,8
38778,618.556701030928,4,1,0,70,1,0
40029,625,4,1,0,70,1,0
41285,631.578947368421,4,1,0,70,1,0
46337,631.578947368421,4,1,0,70,1,8
46345,634.920634920635,4,1,0,70,1,0
51424,634.920634920635,4,1,0,80,1,1
52705,638.297872340426,4,1,0,80,1,9
53981,638.297872340426,4,1,0,80,1,1
59085,625,4,1,0,80,1,1
61585,625,4,1,0,80,1,9
61600,631.578947368421,4,1,0,80,1,1
65395,629.590766002099,4,1,0,80,1,9
66654,629.590766002099,4,1,0,80,1,0

[HitObjects]
184,168,701,5,0,0:0:0:0:
184,156,1974,1,8,0:0:0:0:
184,156,2611,1,8,0:0:0:0:
236,180,3248,1,0,0:0:0:0:
236,180,3885,1,8,0:0:0:0:
180,128,4522,1,8,0:0:0:0:
184,168,5796,1,8,0:0:0:0:
184,156,6433,1,8,0:0:0:0:
184,156,7070,1,0,0:0:0:0:
236,180,8344,1,0,0:0:0:0:
236,180,8981,1,8,0:0:0:0:
180,128,9299,1,0,0:0:0:0:
180,128,9618,1,8,0:0:0:0:
184,168,10895,1,0,0:0:0:0:
200,80,11528,1,8,0:0:0:0:
184,156,12162,1,8,0:0:0:0:
184,156,12478,1,8,0:0:0:0:
184,156,12795,1,0,0:0:0:0:
184,168,13429,1,0,0:0:0:0:
196,104,14062,1,8,0:0:0:0:
184,156,14696,1,8,0:0:0:0:
172,108,15013,1,8,0:0:0:0:
172,108,15330,1,0,0:0:0:0:
184,168,15963,1,0,0:0:0:0:
184,156,16597,1,8,0:0:0:0:
184,156,17230,1,8,0:0:0:0:
184,168,18497,1,0,0:0:0:0:
184,156,19131,1,8,0:0:0:0:
184,156,19765,1,8,0:0:0:0:
184,156,20081,1,0,0:0:0:0:
184,156,20398,1,0,0:0:0:0:
184,168,21032,1,0,0:0:0:0:
184,156,22299,1,8,0:0:0:0:
184,156,22933,1,8,0:0:0:0:
184,168,23555,1,8,0:0:0:0:
148,64,23871,1,0,0:0:0:0:
184,156,24187,1,8,0:0:0:0:
184,156,24820,1,8,0:0:0:0:
144,144,26086,1,8,0:0:0:0:
144,144,26403,1,8,0:0:0:0:
192,136,26719,1,8,0:0:0:0:
144,144,27352,1,0,0:0:0:0:
144,144,27668,1,0,0:0:0:0:
200,84,27985,1,0,0:0:0:0:
200,84,28618,1,0,0:0:0:0:
268,116,29251,1,8,0:0:0:0:
248,108,29884,1,0,0:0:0:0:
256,108,30200,1,0,0:0:0:0:
248,104,30517,1,8,0:0:0:0:
96,132,31135,1,0,0:0:0:0:
216,88,32411,1,8,0:0:0:0:
216,88,33049,1,8,0:0:0:0:
208,80,33688,1,0,0:0:0:0:
208,84,34007,1,0,0:0:0:0:
200,96,34326,1,8,0:0:0:0:
196,88,34964,1,8,0:0:0:0:
184,128,36227,1,0,0:0:0:0:
184,128,36858,1,8,0:0:0:0:
192,132,37490,1,0,0:0:0:0:
192,132,37805,1,0,0:0:0:0:
192,132,38121,1,8,0:0:0:0:
188,176,38778,1,0,0:0:0:0:
192,168,39396,1,8,0:0:0:0:
200,200,40029,1,8,0:0:0:0:
96,132,41285,1,0,0:0:0:0:
136,136,41916,1,8,0:0:0:0:
216,88,42548,1,8,0:0:0:0:
208,80,43811,1,0,0:0:0:0:
200,96,44442,1,8,0:0:0:0:
192,92,44758,1,8,0:0:0:0:
196,88,45074,1,8,0:0:0:0:
184,128,46345,1,0,0:0:0:0:
184,128,46979,1,8,0:0:0:0:
192,132,47614,1,8,0:0:0:0:
188,176,48884,1,0,0:0:0:0:
192,168,49519,1,8,0:0:0:0:
192,172,49837,1,8,0:0:0:0:
200,200,50154,1,8,0:0:0:0:
248,104,51424,1,4,0:0:0:0:
156,140,52058,1,8,0:0:0:0:
168,136,52376,1,8,0:0:0:0:
148,128,52705,1,8,0:0:0:0:
208,136,53343,1,8,0:0:0:0:
172,144,53981,1,8,0:0:0:0:
188,168,54300,1,8,0:0:0:0:
184,160,54619,1,8,0:0:0:0:
172,144,55257,1,0,0:0:0:0:
188,168,55576,1,0,0:0:0:0:
184,160,55895,1,0,0:0:0:0:
168,92,56534,1,0,0:0:0:0:
184,100,57810,1,8,0:0:0:0:
184,112,59085,1,0,0:0:0:0:
200,116,59710,1,8,0:0:0:0:
196,116,60022,1,8,0:0:0:0:
192,112,60335,1,8,0:0:0:0:
184,112,61600,1,0,0:0:0:0:
200,116,62225,1,8,0:0:0:0:
196,116,62537,1,8,0:0:0:0:
192,112,62850,1,8,0:0:0:0:
184,112,64127,1,0,0:0:0:0:
200,116,64752,1,8,0:0:0:0:
196,116,65064,1,8,0:0:0:0:
192,112,65395,1,8,0:0:0:0:
196,96,66020,1,8,0:0:0:0:
180,96,66654,1,4,0:0:0:0:
