osu file format v12

[General]
AudioFilename: flying steps - We Are Electric.mp3
AudioLeadIn: 3000
PreviewTime: 15208
Countdown: 0
SampleSet: Soft
StackLeniency: 0.2
Mode: 0
LetterboxInBreaks: 1

[Editor]
DistanceSpacing: 0.8
BeatDivisor: 2
GridSize: 8

[Metadata]
Title:We Are Electric
TitleUnicode:We Are Electric
Artist:Flying Steps
ArtistUnicode:Flying Steps
Creator:iMirai
Version:Double Kill
Source:DotA
Tags:DamnAll iMirai WoDotA
BeatmapID:224909
BeatmapSetID:80902

[Difficulty]
HPDrainRate:4
CircleSize:3
OverallDifficulty:5
ApproachRate:5
SliderMultiplier:1.4
SliderTickRate:1

[Events]
//Background and Video events
0,0,"BG.jpg",0,0
//Break Periods
//Storyboard Layer 0 (Background)
//Storyboard Layer 1 (Fail)
//Storyboard Layer 2 (Pass)
//Storyboard Layer 3 (Foreground)
//Storyboard Sound Samples
//Background Colour Transformations
3,100,163,162,255

[TimingPoints]
155,461.538461538462,4,2,0,50,1,0
81871,-100,4,2,0,80,0,1
95486,-100,4,2,0,50,0,0
115102,461.538461538462,4,2,0,50,1,0

[Colours]
Combo1 : 255,255,0
Combo2 : 175,175,175
Combo3 : 255,0,255
Combo4 : 89,213,203
Combo5 : 243,119,52

[HitObjects]
256,192,15154,5,4,0:0:0:0:
200,120,15385,1,0,0:0:0:0:
256,48,15616,2,0,P|368:64|408:216,1,280
256,192,17001,1,2,0:0:0:0:
320,272,17231,1,0,0:0:0:0:
256,336,17462,2,0,P|144:320|104:168,1,280
256,192,18847,5,4,0:0:0:0:
312,264,19078,1,0,0:0:0:0:
216,328,19308,2,0,P|160:256|88:264,2,140
256,192,20693,1,2,0:0:0:0:
200,120,20924,1,0,0:0:0:0:
296,56,21154,2,0,P|352:128|424:120,2,140
256,192,22539,5,4,0:0:0:0:
312,264,22770,1,0,0:0:0:0:
256,336,23001,2,0,P|144:320|64:160,1,280
256,192,24385,1,2,0:0:0:0:
200,120,24616,1,0,0:0:0:0:
256,48,24847,2,0,P|368:64|448:224,1,280
256,192,26231,5,2,0:0:0:0:
184,248,26462,1,0,0:0:0:0:
112,192,26693,2,0,P|128:80|208:40,1,210
256,192,27616,12,0,29001,0:0:0:0:
64,80,29924,6,0,P|152:48|208:80,1,140
264,128,30847,2,0,B|312:192|384:200|384:200,1,140
440,280,31770,2,0,P|416:322|334:330,3,70
376,200,33154,6,0,P|304:176|240:200,1,140
176,248,34077,2,0,P|104:288|40:256,1,140
16,176,35001,2,0,P|40:88|80:72,2,140
16,176,36155,1,2,0:0:0:0:
224,200,36847,5,0,0:0:0:0:
224,200,37308,2,0,P|232:112|280:96,1,140
376,104,38231,2,0,P|432:176|416:232,2,140
272,80,39616,1,2,0:0:0:0:
272,80,39847,1,2,0:0:0:0:
168,128,40309,5,0,0:0:0:0:
128,232,40539,2,0,P|144:272|184:296,1,70
272,320,41001,2,0,P|320:328|352:328,1,70
432,240,41462,2,0,L|320:240,1,70
432,152,42155,1,0,0:0:0:0:
376,56,42386,2,0,P|352:32|304:32,1,70
256,120,42847,2,0,L|256:240,3,70
256,304,44693,5,0,0:0:0:0:
256,192,45154,1,4,0:0:0:0:
256,96,45616,2,0,P|336:72|400:120,1,140
440,200,46539,1,0,0:0:0:0:
256,192,47001,1,4,0:0:0:0:
352,192,47463,2,0,P|376:272|328:336,1,140
248,376,48386,1,0,0:0:0:0:
256,192,48847,5,4,0:0:0:0:
256,288,49309,2,0,P|176:312|112:264,1,140
72,184,50232,1,0,0:0:0:0:
256,192,50693,1,4,0:0:0:0:
160,192,51155,2,0,P|136:112|184:48,1,140
279,50,52078,1,0,0:0:0:0:
111,106,52539,5,2,0:0:0:0:
264,224,53001,2,0,P|368:240|408:192,2,140
416,320,54385,1,0,0:0:0:0:
248,160,54847,2,0,P|144:144|104:192,2,140
232,48,56231,5,2,0:0:0:0:
400,168,56693,1,0,0:0:0:0:
280,336,57155,1,0,0:0:0:0:
112,216,57616,1,0,0:0:0:0:
176,136,58077,5,0,0:0:0:0:
312,112,58539,1,0,0:0:0:0:
336,248,59001,1,0,0:0:0:0:
200,272,59462,1,0,0:0:0:0:
256,192,59924,5,2,0:0:0:0:
312,288,60385,1,0,0:0:0:0:
360,192,60847,2,0,P|352:280|272:264,1,140
256,192,61770,1,0,0:0:0:0:
200,96,62231,1,0,0:0:0:0:
152,192,62693,2,0,P|160:104|240:120,1,140
256,192,63616,6,0,P|336:184|352:128,1,140,2|0,0:0|0:0,0:0:0:0:
352,136,64539,1,0,0:0:0:0:
272,64,65001,1,0,0:0:0:0:
168,96,65462,2,0,P|112:120|104:200,2,140,0|0|2,0:0|0:0|0:0,0:0:0:0:
312,192,67308,6,0,L|392:192,2,70,2|0|0,0:0|0:0|0:0,0:0:0:0:
368,280,68231,2,0,L|368:376,2,70
200,192,69154,2,0,L|80:192,2,70
144,104,70077,2,0,L|144:8,2,70
200,192,71001,6,0,P|240:128|336:144,1,140,2|0,0:0|0:0,0:0:0:0:
408,128,71924,2,0,P|464:144|488:224,1,140
440,320,72847,2,0,P|352:336|312:248,1,140
272,200,73770,2,0,P|232:136|120:152,1,140
64,160,74693,5,4,0:0:0:0:
64,48,75154,2,0,P|128:8|184:32,2,140
64,160,76539,1,0,0:0:0:0:
64,272,77001,2,0,P|128:312|184:288,2,140
176,192,78385,1,2,0:0:0:0:
288,192,78847,1,0,0:0:0:0:
232,96,79308,1,0,0:0:0:0:
256,192,79770,12,0,81616,0:0:0:0:
256,192,82077,5,4,0:0:0:0:
256,80,82539,2,0,P|328:56|384:88,1,140
456,168,83462,2,0,P|480:216|432:304,1,140
352,336,84385,2,0,L|264:336,4,70
288,240,85770,1,0,0:0:0:0:
176,264,86231,2,0,L|104:320,2,70
120,168,87154,5,0,0:0:0:0:
208,96,87616,2,0,B|240:168|344:160|344:160,1,140
432,184,88539,1,0,0:0:0:0:
392,80,89001,2,0,B|360:0|264:8,1,140,0|2,0:0|0:0,0:0:0:0:
176,24,89924,2,0,P|184:96|152:152,1,140
232,232,90847,2,0,P|320:176|320:128,1,140
400,72,91770,5,0,0:0:0:0:
400,184,92231,2,0,L|400:328|400:336,1,140
288,328,93154,1,2,0:0:0:0:
176,328,93616,1,0,0:0:0:0:
168,216,94077,2,0,L|168:72|168:64,1,140
280,48,95001,1,0,0:0:0:0:
144,192,96385,6,0,L|-16:192,2,140
256,192,97770,1,0,0:0:0:0:
368,192,98231,2,0,L|528:192,2,140
256,192,99616,1,0,0:0:0:0:
256,80,100077,6,0,L|416:80,2,140
256,192,101462,1,0,0:0:0:0:
256,304,101924,2,0,L|96:304,2,140
256,192,103308,1,0,0:0:0:0:
256,80,103770,6,0,B|280:56|416:104|408:208|360:272,1,280
256,304,105154,1,0,0:0:0:0:
256,304,105616,2,0,B|232:328|96:280|104:176|152:112,1,280
256,104,107000,1,0,0:0:0:0:
328,192,107462,5,0,0:0:0:0:
328,192,107924,2,0,L|152:192,1,140
192,192,108847,1,0,0:0:0:0:
192,192,109308,2,0,L|368:192,3,140
256,192,111154,12,0,114847,0:0:0:0:
