osu file format v14

[General]
AudioFilename: electric.ogg
AudioLeadIn: 0
PreviewTime: 65769
Countdown: 0
SampleSet: Soft
StackLeniency: 0.7
Mode: 3
LetterboxInBreaks: 0
SpecialStyle: 0
WidescreenStoryboard: 0

[Editor]
DistanceSpacing: 0.6
BeatDivisor: 16
GridSize: 4
TimelineZoom: 2.899999

[Metadata]
Title:We Are Electric
TitleUnicode:We Are Electric
Artist:Flying Steps
ArtistUnicode:Flying Steps
Creator:-Troke-
Version:7K Lv. 89
Source:Dota 2
Tags:dota 2 doto flyteps o2jam hard
BeatmapID:469264
BeatmapSetID:197849

[Difficulty]
HPDrainRate:6
CircleSize:7
OverallDifficulty:5
ApproachRate:5
SliderMultiplier:1.4
SliderTickRate:1

[Events]
//Background and Video events
0,0,"doto.png",0,0
//Break Periods
//Storyboard Layer 0 (Background)
//Storyboard Layer 1 (Fail)
//Storyboard Layer 2 (Pass)
//Storyboard Layer 3 (Foreground)
//Storyboard Sound Samples

[TimingPoints]
395,461.538461538462,4,2,2,100,1,0

[HitObjects]
36,192,1029,5,0,0:0:0:0:soft-hitnormal2.ogg
182,192,1029,1,0,0:0:0:0:soft-hitnormal2.ogg
256,192,1029,1,0,0:0:0:0:soft-hitnormal2.ogg
329,192,1029,1,0,0:0:0:0:soft-hitnormal2.ogg
475,192,1029,1,0,0:0:0:0:soft-hitnormal2.ogg
109,192,1260,1,0,0:0:0:0:soft-hitnormal2.ogg
402,192,1491,1,0,0:0:0:0:soft-hitnormal2.ogg
256,192,1952,1,0,0:0:0:0:soft-hitnormal2.ogg
256,192,2298,1,0,0:0:0:0:soft-hitnormal2.ogg
256,192,2645,1,0,0:0:0:0:soft-hitnormal2.ogg
402,192,3106,1,0,0:0:0:0:soft-hitnormal2.ogg
109,192,3337,1,0,0:0:0:0:soft-hitnormal2.ogg
36,192,3798,1,0,0:0:0:0:soft-hitnormal2.ogg
475,192,3914,1,0,0:0:0:0:soft-hitnormal2.ogg
256,192,4145,1,0,0:0:0:0:soft-hitnormal2.ogg
256,192,4491,1,0,0:0:0:0:soft-hitnormal2.ogg
36,192,4952,1,0,0:0:0:0:soft-hitnormal2.ogg
475,192,5183,1,0,0:0:0:0:soft-hitnormal2.ogg
256,192,5645,1,0,0:0:0:0:soft-hitnormal2.ogg
256,192,5991,1,0,0:0:0:0:soft-hitnormal2.ogg
256,192,6337,1,0,0:0:0:0:soft-hitnormal2.ogg
475,192,6798,1,0,0:0:0:0:soft-hitnormal2.ogg
36,192,7029,1,0,0:0:0:0:soft-hitnormal2.ogg
182,192,7491,1,0,0:0:0:0:soft-hitnormal2.ogg
329,192,7606,1,0,0:0:0:0:soft-hitnormal2.ogg
256,192,7837,1,0,0:0:0:0:soft-hitnormal2.ogg
256,192,8183,1,0,0:0:0:0:soft-hitnormal2.ogg
36,192,8414,1,0,0:0:0:0:soft-hitnormal2.ogg
109,192,8414,1,0,0:0:0:0:soft-hitnormal2.ogg
402,192,8414,1,0,0:0:0:0:soft-hitnormal2.ogg
475,192,8414,1,0,0:0:0:0:soft-hitnormal2.ogg
182,192,8645,1,0,0:0:0:0:soft-hitnormal2.ogg
329,192,8875,1,0,0:0:0:0:soft-hitnormal2.ogg
256,192,9337,1,0,0:0:0:0:soft-hitnormal2.ogg
256,192,9683,1,0,0:0:0:0:soft-hitnormal2.ogg
256,192,10029,1,0,0:0:0:0:soft-hitnormal2.ogg
329,192,10491,1,0,0:0:0:0:soft-hitnormal2.ogg
182,192,10721,1,0,0:0:0:0:soft-hitnormal2.ogg
109,192,11183,1,0,0:0:0:0:soft-hitnormal2.ogg
402,192,11298,1,0,0:0:0:0:soft-hitnormal2.ogg
256,192,11529,1,0,0:0:0:0:soft-hitnormal2.ogg
256,192,11875,1,0,0:0:0:0:soft-hitnormal2.ogg
36,0,12106,128,0,15683:0:0:0:0:soft-hitnormal2.ogg
475,0,12106,128,0,15683:0:0:0:0:soft-hitnormal2.ogg
109,0,13029,128,0,15683:0:0:0:0:soft-hitnormal2.ogg
402,0,13029,128,0,15683:0:0:0:0:soft-hitnormal2.ogg
256,0,13952,128,0,15798:0:0:0:0:soft-hitnormal2.ogg
329,0,13952,128,0,14673:0:0:0:0:soft-hitnormal2.ogg
182,0,13952,128,0,14673:0:0:0:0:soft-hitnormal2.ogg
329,192,14846,1,0,0:0:0:0:soft-hitnormal2.ogg
182,192,14991,1,0,0:0:0:0:soft-hitnormal2.ogg
329,192,15106,1,0,0:0:0:0:soft-hitnormal2.ogg
182,192,15221,1,0,0:0:0:0:soft-hitnormal2.ogg
329,192,15337,1,0,0:0:0:0:soft-hitnormal2.ogg
182,192,15452,1,0,0:0:0:0:soft-hitnormal2.ogg
329,192,15568,1,0,0:0:0:0:soft-hitnormal2.ogg
182,192,15683,1,0,0:0:0:0:soft-hitnormal2.ogg
36,192,15798,1,0,0:0:0:0:soft-hitnormal2.ogg
109,192,15798,1,0,0:0:0:0:soft-hitnormal2.ogg
329,192,15798,1,0,0:0:0:0:soft-hitnormal2.ogg
402,192,15798,1,0,0:0:0:0:soft-hitnormal2.ogg
475,192,15798,1,0,0:0:0:0:soft-hitnormal2.ogg
36,0,16029,128,0,16491:0:0:0:0:soft-hitnormal2.ogg
329,0,16029,128,0,16606:0:0:0:0:soft-hitnormal2.ogg
182,0,16145,128,0,16952:0:0:0:0:soft-hitnormal2.ogg
256,0,16260,128,0,16375:0:0:0:0:soft-hitnormal2.ogg
475,0,16260,128,0,16721:0:0:0:0:soft-hitnormal2.ogg
109,0,16375,128,0,16606:0:0:0:0:soft-hitnormal2.ogg
402,0,16375,128,0,17991:0:0:0:0:soft-hitnormal2.ogg
256,0,16491,128,0,16837:0:0:0:0:soft-hitnormal2.ogg
36,0,16606,128,0,16952:0:0:0:0:soft-hitnormal2.ogg
109,0,16721,128,0,17183:0:0:0:0:soft-hitnormal2.ogg
329,0,16721,128,0,17068:0:0:0:0:soft-hitnormal2.ogg
475,0,16837,128,0,17298:0:0:0:0:soft-hitnormal2.ogg
256,0,16952,128,0,17298:0:0:0:0:soft-hitnormal2.ogg
36,0,17068,128,0,17991:0:0:0:0:soft-hitnormal2.ogg
182,0,17068,128,0,18337:0:0:0:0:soft-hitnormal2.ogg
329,0,17183,128,0,17414:0:0:0:0:soft-hitnormal2.ogg
109,0,17298,128,0,17529:0:0:0:0:soft-hitnormal2.ogg
475,0,17414,128,0,17645:0:0:0:0:soft-hitnormal2.ogg
256,0,17414,128,0,17875:0:0:0:0:soft-hitnormal2.ogg
329,0,17529,128,0,18221:0:0:0:0:soft-hitnormal2.ogg
109,0,17645,128,0,17760:0:0:0:0:soft-hitnormal2.ogg
475,0,17760,128,0,18106:0:0:0:0:soft-hitnormal2.ogg
109,0,17875,128,0,18568:0:0:0:0:soft-hitnormal2.ogg
256,0,17991,128,0,18106:0:0:0:0:soft-hitnormal2.ogg
36,0,18106,128,0,18452:0:0:0:0:soft-hitnormal2.ogg
402,0,18106,128,0,18452:0:0:0:0:soft-hitnormal2.ogg
256,0,18221,128,0,18914:0:0:0:0:soft-hitnormal2.ogg
475,0,18221,128,0,18568:0:0:0:0:soft-hitnormal2.ogg
329,0,18337,128,0,18683:0:0:0:0:soft-hitnormal2.ogg
182,0,18452,128,0,18683:0:0:0:0:soft-hitnormal2.ogg
36,0,18568,128,0,18798:0:0:0:0:soft-hitnormal2.ogg
402,0,18568,128,0,18914:0:0:0:0:soft-hitnormal2.ogg
109,0,18683,128,0,19029:0:0:0:0:soft-hitnormal2.ogg
475,0,18683,128,0,19029:0:0:0:0:soft-hitnormal2.ogg
182,0,18798,128,0,19260:0:0:0:0:soft-hitnormal2.ogg
329,0,18798,128,0,19145:0:0:0:0:soft-hitnormal2.ogg
36,0,18914,128,0,19145:0:0:0:0:soft-hitnormal2.ogg
256,0,19029,128,0,19491:0:0:0:0:soft-hitnormal2.ogg
402,0,19029,128,0,19260:0:0:0:0:soft-hitnormal2.ogg
109,0,19145,128,0,19491:0:0:0:0:soft-hitnormal2.ogg
475,0,19145,128,0,19491:0:0:0:0:soft-hitnormal2.ogg
36,0,19260,128,0,19375:0:0:0:0:soft-hitnormal2.ogg
329,0,19260,128,0,19375:0:0:0:0:soft-hitnormal2.ogg
182,0,19375,128,0,19606:0:0:0:0:soft-hitnormal2.ogg
402,0,19375,128,0,19606:0:0:0:0:soft-hitnormal2.ogg
36,0,19721,128,0,19837:0:0:0:0:soft-hitnormal2.ogg
329,0,19721,128,0,19837:0:0:0:0:soft-hitnormal2.ogg
402,0,19837,128,0,20298:0:0:0:0:soft-hitnormal2.ogg
36,0,19952,128,0,20298:0:0:0:0:soft-hitnormal2.ogg
329,0,19952,128,0,20645:0:0:0:0:soft-hitnormal2.ogg
182,0,20068,128,0,20529:0:0:0:0:soft-hitnormal2.ogg
475,0,20068,128,0,20875:0:0:0:0:soft-hitnormal2.ogg
109,0,20183,128,0,20645:0:0:0:0:soft-hitnormal2.ogg
256,0,20298,128,0,20414:0:0:0:0:soft-hitnormal2.ogg
36,0,20414,128,0,20875:0:0:0:0:soft-hitnormal2.ogg
402,0,20414,128,0,20760:0:0:0:0:soft-hitnormal2.ogg
256,0,20529,128,0,20760:0:0:0:0:soft-hitnormal2.ogg
182,0,20645,128,0,20991:0:0:0:0:soft-hitnormal2.ogg
109,0,20760,128,0,21106:0:0:0:0:soft-hitnormal2.ogg
329,0,20760,128,0,20991:0:0:0:0:soft-hitnormal2.ogg
256,0,20875,128,0,21452:0:0:0:0:soft-hitnormal2.ogg
402,0,20875,128,0,21568:0:0:0:0:soft-hitnormal2.ogg
36,0,20991,128,0,21337:0:0:0:0:soft-hitnormal2.ogg
475,0,20991,128,0,21452:0:0:0:0:soft-hitnormal2.ogg
329,0,21106,128,0,21221:0:0:0:0:soft-hitnormal2.ogg
182,0,21106,128,0,21683:0:0:0:0:soft-hitnormal2.ogg
109,0,21221,128,0,21452:0:0:0:0:soft-hitnormal2.ogg
329,0,21337,128,0,21798:0:0:0:0:soft-hitnormal2.ogg
36,0,21452,128,0,21798:0:0:0:0:soft-hitnormal2.ogg
109,0,21568,128,0,22721:0:0:0:0:soft-hitnormal2.ogg
256,0,21568,128,0,22260:0:0:0:0:soft-hitnormal2.ogg
475,0,21568,128,0,22375:0:0:0:0:soft-hitnormal2.ogg
402,0,21683,128,0,21914:0:0:0:0:soft-hitnormal2.ogg
182,0,21798,128,0,22029:0:0:0:0:soft-hitnormal2.ogg
36,0,21914,128,0,22145:0:0:0:0:soft-hitnormal2.ogg
329,0,21914,128,0,22145:0:0:0:0:soft-hitnormal2.ogg
402,0,22029,128,0,22260:0:0:0:0:soft-hitnormal2.ogg
182,0,22145,128,0,22375:0:0:0:0:soft-hitnormal2.ogg
36,0,22260,128,0,22491:0:0:0:0:soft-hitnormal2.ogg
329,0,22260,128,0,22837:0:0:0:0:soft-hitnormal2.ogg
256,0,22375,128,0,22606:0:0:0:0:soft-hitnormal2.ogg
402,0,22375,128,0,22606:0:0:0:0:soft-hitnormal2.ogg
182,0,22491,128,0,22837:0:0:0:0:soft-hitnormal2.ogg
475,0,22491,128,0,23183:0:0:0:0:soft-hitnormal2.ogg
36,0,22606,128,0,22952:0:0:0:0:soft-hitnormal2.ogg
256,0,22721,128,0,23183:0:0:0:0:soft-hitnormal2.ogg
402,0,22721,128,0,22952:0:0:0:0:soft-hitnormal2.ogg
109,0,22837,128,0,23183:0:0:0:0:soft-hitnormal2.ogg
182,0,22952,128,0,23068:0:0:0:0:soft-hitnormal2.ogg
329,0,22952,128,0,23068:0:0:0:0:soft-hitnormal2.ogg
36,0,23068,128,0,23298:0:0:0:0:soft-hitnormal2.ogg
402,0,23068,128,0,23298:0:0:0:0:soft-hitnormal2.ogg
36,0,23414,128,0,23645:0:0:0:0:soft-hitnormal2.ogg
256,0,23414,128,0,23991:0:0:0:0:soft-hitnormal2.ogg
475,0,23529,128,0,24683:0:0:0:0:soft-hitnormal2.ogg
109,0,23645,128,0,24337:0:0:0:0:soft-hitnormal2.ogg
329,0,23645,128,0,23875:0:0:0:0:soft-hitnormal2.ogg
36,0,23760,128,0,23991:0:0:0:0:soft-hitnormal2.ogg
402,0,23760,128,0,24106:0:0:0:0:soft-hitnormal2.ogg
182,0,23875,128,0,24452:0:0:0:0:soft-hitnormal2.ogg
329,0,23991,128,0,24337:0:0:0:0:soft-hitnormal2.ogg
36,0,24106,128,0,24568:0:0:0:0:soft-hitnormal2.ogg
256,0,24106,128,0,24221:0:0:0:0:soft-hitnormal2.ogg
402,0,24221,128,0,24914:0:0:0:0:soft-hitnormal2.ogg
256,0,24337,128,0,24683:0:0:0:0:soft-hitnormal2.ogg
109,0,24452,128,0,24798:0:0:0:0:soft-hitnormal2.ogg
329,0,24452,128,0,25145:0:0:0:0:soft-hitnormal2.ogg
182,0,24568,128,0,25029:0:0:0:0:soft-hitnormal2.ogg
36,0,24683,128,0,25145:0:0:0:0:soft-hitnormal2.ogg
256,0,24798,128,0,25375:0:0:0:0:soft-hitnormal2.ogg
475,0,24798,128,0,25375:0:0:0:0:soft-hitnormal2.ogg
109,0,24914,128,0,25491:0:0:0:0:soft-hitnormal2.ogg
402,0,25029,128,0,25606:0:0:0:0:soft-hitnormal2.ogg
182,0,25145,128,0,25260:0:0:0:0:soft-hitnormal2.ogg
36,0,25260,128,0,25952:0:0:0:0:soft-hitnormal2.ogg
329,0,25260,128,0,25491:0:0:0:0:soft-hitnormal2.ogg
182,0,25375,128,0,25837:0:0:0:0:soft-hitnormal2.ogg
256,0,25491,128,0,25721:0:0:0:0:soft-hitnormal2.ogg
475,0,25491,128,0,25837:0:0:0:0:soft-hitnormal2.ogg
109,0,25606,128,0,25721:0:0:0:0:soft-hitnormal2.ogg
329,0,25606,128,0,25952:0:0:0:0:soft-hitnormal2.ogg
402,0,25721,128,0,26414:0:0:0:0:soft-hitnormal2.ogg
109,0,25837,128,0,26529:0:0:0:0:soft-hitnormal2.ogg
256,0,25837,128,0,26183:0:0:0:0:soft-hitnormal2.ogg
182,0,25952,128,0,26068:0:0:0:0:soft-hitnormal2.ogg
475,0,25952,128,0,26529:0:0:0:0:soft-hitnormal2.ogg
36,0,26068,128,0,26183:0:0:0:0:soft-hitnormal2.ogg
329,0,26068,128,0,26645:0:0:0:0:soft-hitnormal2.ogg
182,0,26183,128,0,26298:0:0:0:0:soft-hitnormal2.ogg
36,0,26298,128,0,26645:0:0:0:0:soft-hitnormal2.ogg
256,0,26298,128,0,26414:0:0:0:0:soft-hitnormal2.ogg
182,0,26414,128,0,26991:0:0:0:0:soft-hitnormal2.ogg
256,0,26529,128,0,26760:0:0:0:0:soft-hitnormal2.ogg
402,0,26529,128,0,26760:0:0:0:0:soft-hitnormal2.ogg
109,0,26645,128,0,26875:0:0:0:0:soft-hitnormal2.ogg
475,0,26645,128,0,26875:0:0:0:0:soft-hitnormal2.ogg
36,0,26760,128,0,26991:0:0:0:0:soft-hitnormal2.ogg
329,0,26760,128,0,26991:0:0:0:0:soft-hitnormal2.ogg
36,0,27106,128,0,27452:0:0:0:0:soft-hitnormal2.ogg
256,0,27106,128,0,27683:0:0:0:0:soft-hitnormal2.ogg
329,0,27221,128,0,27568:0:0:0:0:soft-hitnormal2.ogg
109,0,27337,128,0,27683:0:0:0:0:soft-hitnormal2.ogg
475,0,27337,128,0,27683:0:0:0:0:soft-hitnormal2.ogg
182,0,27452,128,0,27914:0:0:0:0:soft-hitnormal2.ogg
402,0,27452,128,0,28029:0:0:0:0:soft-hitnormal2.ogg
36,0,27568,128,0,27683:0:0:0:0:soft-hitnormal2.ogg
329,0,27683,128,0,27798:0:0:0:0:soft-hitnormal2.ogg
36,0,27798,128,0,28721:0:0:0:0:soft-hitnormal2.ogg
109,0,27798,128,0,28375:0:0:0:0:soft-hitnormal2.ogg
256,0,27798,128,0,28029:0:0:0:0:soft-hitnormal2.ogg
475,0,27798,128,0,28721:0:0:0:0:soft-hitnormal2.ogg
329,0,27914,128,0,28260:0:0:0:0:soft-hitnormal2.ogg
182,0,28029,128,0,28145:0:0:0:0:soft-hitnormal2.ogg
256,0,28145,128,0,28375:0:0:0:0:soft-hitnormal2.ogg
402,0,28145,128,0,28606:0:0:0:0:soft-hitnormal2.ogg
182,0,28260,128,0,28606:0:0:0:0:soft-hitnormal2.ogg
329,0,28375,128,0,28491:0:0:0:0:soft-hitnormal2.ogg
109,0,28491,128,0,28721:0:0:0:0:soft-hitnormal2.ogg
256,0,28491,128,0,28721:0:0:0:0:soft-hitnormal2.ogg
329,0,28606,128,0,28721:0:0:0:0:soft-hitnormal2.ogg
182,0,28721,128,0,28837:0:0:0:0:soft-hitnormal2.ogg
402,0,28721,128,0,28837:0:0:0:0:soft-hitnormal2.ogg
109,0,28837,128,0,28952:0:0:0:0:soft-hitnormal2.ogg
329,0,28837,128,0,28952:0:0:0:0:soft-hitnormal2.ogg
256,192,29183,1,0,0:0:0:0:soft-hitnormal2.ogg
256,192,29529,1,0,0:0:0:0:soft-hitnormal2.ogg
36,0,29529,128,0,30568:0:0:0:0:soft-hitnormal2.ogg
475,0,29529,128,0,30568:0:0:0:0:soft-hitnormal2.ogg
182,192,30568,1,0,0:0:0:0:soft-hitnormal2.ogg
402,192,30568,1,0,0:0:0:0:soft-hitnormal2.ogg
36,192,30683,1,0,0:0:0:0:soft-hitnormal2.ogg
256,192,30683,1,0,0:0:0:0:soft-hitnormal2.ogg
109,192,30798,1,0,0:0:0:0:soft-hitnormal2.ogg
402,192,30798,1,0,0:0:0:0:soft-hitnormal2.ogg
256,192,30914,1,0,0:0:0:0:soft-hitnormal2.ogg
475,192,30914,1,0,0:0:0:0:soft-hitnormal2.ogg
182,192,31029,1,0,0:0:0:0:soft-hitnormal2.ogg
402,192,31029,1,0,0:0:0:0:soft-hitnormal2.ogg
36,192,31145,1,0,0:0:0:0:soft-hitnormal2.ogg
475,192,31145,1,0,0:0:0:0:soft-hitnormal2.ogg
109,192,31260,1,0,0:0:0:0:soft-hitnormal2.ogg
329,192,31260,1,0,0:0:0:0:soft-hitnormal2.ogg
256,192,31375,1,0,0:0:0:0:soft-hitnormal2.ogg
402,192,31375,1,0,0:0:0:0:soft-hitnormal2.ogg
36,192,31491,1,0,0:0:0:0:soft-hitnormal2.ogg
475,192,31491,1,0,0:0:0:0:soft-hitnormal2.ogg
182,192,31606,1,0,0:0:0:0:soft-hitnormal2.ogg
329,192,31606,1,0,0:0:0:0:soft-hitnormal2.ogg
36,192,31721,1,0,0:0:0:0:soft-hitnormal2.ogg
256,192,31721,1,0,0:0:0:0:soft-hitnormal2.ogg
182,192,31837,1,0,0:0:0:0:soft-hitnormal2.ogg
402,192,31837,1,0,0:0:0:0:soft-hitnormal2.ogg
109,192,31952,1,0,0:0:0:0:soft-hitnormal2.ogg
329,192,31952,1,0,0:0:0:0:soft-hitnormal2.ogg
256,192,32068,1,0,0:0:0:0:soft-hitnormal2.ogg
402,192,32068,1,0,0:0:0:0:soft-hitnormal2.ogg
36,192,32183,1,0,0:0:0:0:soft-hitnormal2.ogg
475,192,32183,1,0,0:0:0:0:soft-hitnormal2.ogg
182,192,32298,1,0,0:0:0:0:soft-hitnormal2.ogg
402,192,32298,1,0,0:0:0:0:soft-hitnormal2.ogg
36,192,32414,1,0,0:0:0:0:soft-hitnormal2.ogg
256,192,32414,1,0,0:0:0:0:soft-hitnormal2.ogg
109,192,32529,1,0,0:0:0:0:soft-hitnormal2.ogg
329,192,32529,1,0,0:0:0:0:soft-hitnormal2.ogg
36,192,32645,1,0,0:0:0:0:soft-hitnormal2.ogg
475,192,32645,1,0,0:0:0:0:soft-hitnormal2.ogg
256,192,32760,1,0,0:0:0:0:soft-hitnormal2.ogg
329,192,32760,1,0,0:0:0:0:soft-hitnormal2.ogg
109,192,32875,1,0,0:0:0:0:soft-hitnormal2.ogg
402,192,32875,1,0,0:0:0:0:soft-hitnormal2.ogg
182,192,32991,1,0,0:0:0:0:soft-hitnormal2.ogg
475,192,32991,1,0,0:0:0:0:soft-hitnormal2.ogg
36,192,33106,1,0,0:0:0:0:soft-hitnormal2.ogg
256,192,33106,1,0,0:0:0:0:soft-hitnormal2.ogg
182,192,33221,1,0,0:0:0:0:soft-hitnormal2.ogg
402,192,33221,1,0,0:0:0:0:soft-hitnormal2.ogg
36,192,33337,1,0,0:0:0:0:soft-hitnormal2.ogg
475,192,33337,1,0,0:0:0:0:soft-hitnormal2.ogg
182,192,33452,1,0,0:0:0:0:soft-hitnormal2.ogg
329,192,33452,1,0,0:0:0:0:soft-hitnormal2.ogg
109,192,33568,1,0,0:0:0:0:soft-hitnormal2.ogg
402,192,33568,1,0,0:0:0:0:soft-hitnormal2.ogg
182,192,33683,1,0,0:0:0:0:soft-hitnormal2.ogg
256,192,33683,1,0,0:0:0:0:soft-hitnormal2.ogg
36,192,33798,1,0,0:0:0:0:soft-hitnormal2.ogg
402,192,33798,1,0,0:0:0:0:soft-hitnormal2.ogg
109,192,33914,1,0,0:0:0:0:soft-hitnormal2.ogg
329,192,33914,1,0,0:0:0:0:soft-hitnormal2.ogg
36,192,34029,1,0,0:0:0:0:soft-hitnormal2.ogg
475,192,34029,1,0,0:0:0:0:soft-hitnormal2.ogg
182,192,34145,1,0,0:0:0:0:soft-hitnormal2.ogg
402,192,34145,1,0,0:0:0:0:soft-hitnormal2.ogg
109,0,34260,128,0,34318:0:0:0:0:soft-hitnormal2.ogg
329,0,34260,128,0,34318:0:0:0:0:soft-hitnormal2.ogg
256,0,34375,128,0,34433:0:0:0:0:soft-hitnormal2.ogg
475,0,34375,128,0,34433:0:0:0:0:soft-hitnormal2.ogg
109,0,34491,128,0,34548:0:0:0:0:soft-hitnormal2.ogg
402,0,34491,128,0,34548:0:0:0:0:soft-hitnormal2.ogg
36,0,34606,128,0,34664:0:0:0:0:soft-hitnormal2.ogg
256,0,34606,128,0,34664:0:0:0:0:soft-hitnormal2.ogg
109,0,34721,128,0,34779:0:0:0:0:soft-hitnormal2.ogg
329,0,34721,128,0,34779:0:0:0:0:soft-hitnormal2.ogg
36,0,34837,128,0,34895:0:0:0:0:soft-hitnormal2.ogg
475,0,34837,128,0,34895:0:0:0:0:soft-hitnormal2.ogg
182,0,34952,128,0,35010:0:0:0:0:soft-hitnormal2.ogg
402,0,34952,128,0,35010:0:0:0:0:soft-hitnormal2.ogg
109,0,35068,128,0,35125:0:0:0:0:soft-hitnormal2.ogg
256,0,35068,128,0,35125:0:0:0:0:soft-hitnormal2.ogg
36,0,35183,128,0,35241:0:0:0:0:soft-hitnormal2.ogg
475,0,35183,128,0,35241:0:0:0:0:soft-hitnormal2.ogg
182,0,35298,128,0,35356:0:0:0:0:soft-hitnormal2.ogg
329,0,35298,128,0,35356:0:0:0:0:soft-hitnormal2.ogg
256,0,35414,128,0,35471:0:0:0:0:soft-hitnormal2.ogg
475,0,35414,128,0,35471:0:0:0:0:soft-hitnormal2.ogg
109,0,35529,128,0,35587:0:0:0:0:soft-hitnormal2.ogg
329,0,35529,128,0,35587:0:0:0:0:soft-hitnormal2.ogg
182,0,35645,128,0,35702:0:0:0:0:soft-hitnormal2.ogg
402,0,35645,128,0,35702:0:0:0:0:soft-hitnormal2.ogg
109,0,35760,128,0,35818:0:0:0:0:soft-hitnormal2.ogg
256,0,35760,128,0,35818:0:0:0:0:soft-hitnormal2.ogg
36,0,35875,128,0,35933:0:0:0:0:soft-hitnormal2.ogg
475,0,35875,128,0,35933:0:0:0:0:soft-hitnormal2.ogg
109,0,35991,128,0,36048:0:0:0:0:soft-hitnormal2.ogg
329,0,35991,128,0,36048:0:0:0:0:soft-hitnormal2.ogg
256,0,36106,128,0,36164:0:0:0:0:soft-hitnormal2.ogg
475,0,36106,128,0,36164:0:0:0:0:soft-hitnormal2.ogg
182,0,36221,128,0,36279:0:0:0:0:soft-hitnormal2.ogg
402,0,36221,128,0,36279:0:0:0:0:soft-hitnormal2.ogg
36,0,36337,128,0,36395:0:0:0:0:soft-hitnormal2.ogg
475,0,36337,128,0,36395:0:0:0:0:soft-hitnormal2.ogg
182,0,36452,128,0,36510:0:0:0:0:soft-hitnormal2.ogg
256,0,36452,128,0,36510:0:0:0:0:soft-hitnormal2.ogg
109,0,36568,128,0,36625:0:0:0:0:soft-hitnormal2.ogg
402,0,36568,128,0,36625:0:0:0:0:soft-hitnormal2.ogg
36,0,36683,128,0,36741:0:0:0:0:soft-hitnormal2.ogg
329,0,36683,128,0,36741:0:0:0:0:soft-hitnormal2.ogg
256,0,36798,128,0,36856:0:0:0:0:soft-hitnormal2.ogg
475,0,36798,128,0,36856:0:0:0:0:soft-hitnormal2.ogg
109,0,36914,128,0,36971:0:0:0:0:soft-hitnormal2.ogg
329,0,36914,128,0,36971:0:0:0:0:soft-hitnormal2.ogg
36,0,37029,128,0,37087:0:0:0:0:soft-hitnormal2.ogg
475,0,37029,128,0,37087:0:0:0:0:soft-hitnormal2.ogg
182,0,37145,128,0,37202:0:0:0:0:soft-hitnormal2.ogg
329,0,37145,128,0,37202:0:0:0:0:soft-hitnormal2.ogg
109,0,37260,128,0,37318:0:0:0:0:soft-hitnormal2.ogg
402,0,37260,128,0,37318:0:0:0:0:soft-hitnormal2.ogg
256,0,37375,128,0,37433:0:0:0:0:soft-hitnormal2.ogg
329,0,37375,128,0,37433:0:0:0:0:soft-hitnormal2.ogg
109,0,37491,128,0,37548:0:0:0:0:soft-hitnormal2.ogg
475,0,37491,128,0,37548:0:0:0:0:soft-hitnormal2.ogg
182,0,37606,128,0,37664:0:0:0:0:soft-hitnormal2.ogg
402,0,37606,128,0,37664:0:0:0:0:soft-hitnormal2.ogg
36,0,37721,128,0,37779:0:0:0:0:soft-hitnormal2.ogg
475,0,37721,128,0,37779:0:0:0:0:soft-hitnormal2.ogg
182,0,37837,128,0,37895:0:0:0:0:soft-hitnormal2.ogg
329,0,37837,128,0,37895:0:0:0:0:soft-hitnormal2.ogg
36,0,37952,128,0,38068:0:0:0:0:soft-hitnormal2.ogg
402,0,37952,128,0,38068:0:0:0:0:soft-hitnormal2.ogg
109,0,38068,128,0,38183:0:0:0:0:soft-hitnormal2.ogg
329,0,38068,128,0,38183:0:0:0:0:soft-hitnormal2.ogg
256,0,38183,128,0,38298:0:0:0:0:soft-hitnormal2.ogg
475,0,38183,128,0,38298:0:0:0:0:soft-hitnormal2.ogg
36,0,38298,128,0,38414:0:0:0:0:soft-hitnormal2.ogg
329,0,38298,128,0,38414:0:0:0:0:soft-hitnormal2.ogg
182,0,38414,128,0,38529:0:0:0:0:soft-hitnormal2.ogg
402,0,38414,128,0,38529:0:0:0:0:soft-hitnormal2.ogg
109,0,38529,128,0,38645:0:0:0:0:soft-hitnormal2.ogg
329,0,38529,128,0,38645:0:0:0:0:soft-hitnormal2.ogg
256,0,38645,128,0,38760:0:0:0:0:soft-hitnormal2.ogg
475,0,38645,128,0,38760:0:0:0:0:soft-hitnormal2.ogg
36,0,38760,128,0,38875:0:0:0:0:soft-hitnormal2.ogg
182,0,38760,128,0,38875:0:0:0:0:soft-hitnormal2.ogg
256,0,38875,128,0,38991:0:0:0:0:soft-hitnormal2.ogg
402,0,38875,128,0,38991:0:0:0:0:soft-hitnormal2.ogg
182,0,38991,128,0,39106:0:0:0:0:soft-hitnormal2.ogg
329,0,38991,128,0,39106:0:0:0:0:soft-hitnormal2.ogg
36,0,39106,128,0,39221:0:0:0:0:soft-hitnormal2.ogg
475,0,39106,128,0,39221:0:0:0:0:soft-hitnormal2.ogg
109,0,39221,128,0,39337:0:0:0:0:soft-hitnormal2.ogg
402,0,39221,128,0,39337:0:0:0:0:soft-hitnormal2.ogg
256,0,39337,128,0,39452:0:0:0:0:soft-hitnormal2.ogg
475,0,39337,128,0,39452:0:0:0:0:soft-hitnormal2.ogg
36,0,39452,128,0,39568:0:0:0:0:soft-hitnormal2.ogg
329,0,39452,128,0,39568:0:0:0:0:soft-hitnormal2.ogg
256,0,39568,128,0,39683:0:0:0:0:soft-hitnormal2.ogg
475,0,39568,128,0,39683:0:0:0:0:soft-hitnormal2.ogg
182,0,39683,128,0,39798:0:0:0:0:soft-hitnormal2.ogg
402,0,39683,128,0,39798:0:0:0:0:soft-hitnormal2.ogg
36,0,39798,128,0,39914:0:0:0:0:soft-hitnormal2.ogg
329,0,39798,128,0,39914:0:0:0:0:soft-hitnormal2.ogg
182,0,39914,128,0,40029:0:0:0:0:soft-hitnormal2.ogg
402,0,39914,128,0,40029:0:0:0:0:soft-hitnormal2.ogg
36,0,40029,128,0,40145:0:0:0:0:soft-hitnormal2.ogg
256,0,40029,128,0,40145:0:0:0:0:soft-hitnormal2.ogg
182,0,40145,128,0,40260:0:0:0:0:soft-hitnormal2.ogg
402,0,40145,128,0,40260:0:0:0:0:soft-hitnormal2.ogg
109,0,40260,128,0,40375:0:0:0:0:soft-hitnormal2.ogg
475,0,40260,128,0,40375:0:0:0:0:soft-hitnormal2.ogg
329,0,40375,128,0,40491:0:0:0:0:soft-hitnormal2.ogg
182,0,40491,128,0,40606:0:0:0:0:soft-hitnormal2.ogg
475,0,40491,128,0,40606:0:0:0:0:soft-hitnormal2.ogg
36,0,40606,128,0,40721:0:0:0:0:soft-hitnormal2.ogg
402,0,40606,128,0,40721:0:0:0:0:soft-hitnormal2.ogg
109,0,40721,128,0,40837:0:0:0:0:soft-hitnormal2.ogg
329,0,40721,128,0,40837:0:0:0:0:soft-hitnormal2.ogg
36,0,40837,128,0,40952:0:0:0:0:soft-hitnormal2.ogg
256,0,40837,128,0,40952:0:0:0:0:soft-hitnormal2.ogg
109,0,40952,128,0,41068:0:0:0:0:soft-hitnormal2.ogg
402,0,40952,128,0,41068:0:0:0:0:soft-hitnormal2.ogg
256,0,41068,128,0,41183:0:0:0:0:soft-hitnormal2.ogg
475,0,41068,128,0,41183:0:0:0:0:soft-hitnormal2.ogg
109,0,41183,128,0,41298:0:0:0:0:soft-hitnormal2.ogg
329,0,41183,128,0,41298:0:0:0:0:soft-hitnormal2.ogg
182,0,41298,128,0,41414:0:0:0:0:soft-hitnormal2.ogg
402,0,41298,128,0,41414:0:0:0:0:soft-hitnormal2.ogg
36,0,41414,128,0,41529:0:0:0:0:soft-hitnormal2.ogg
256,0,41414,128,0,41529:0:0:0:0:soft-hitnormal2.ogg
109,0,41529,128,0,41645:0:0:0:0:soft-hitnormal2.ogg
475,0,41529,128,0,41645:0:0:0:0:soft-hitnormal2.ogg
36,0,41645,128,0,41991:0:0:0:0:soft-hitnormal2.ogg
329,0,41645,128,0,41991:0:0:0:0:soft-hitnormal2.ogg
182,0,41760,128,0,41875:0:0:0:0:soft-hitnormal2.ogg
402,0,41760,128,0,42106:0:0:0:0:soft-hitnormal2.ogg
109,0,41875,128,0,42221:0:0:0:0:soft-hitnormal2.ogg
256,0,41875,128,0,42221:0:0:0:0:soft-hitnormal2.ogg
182,0,41991,128,0,42106:0:0:0:0:soft-hitnormal2.ogg
475,0,41991,128,0,42337:0:0:0:0:soft-hitnormal2.ogg
36,0,42106,128,0,42683:0:0:0:0:soft-hitnormal2.ogg
329,0,42106,128,0,42337:0:0:0:0:soft-hitnormal2.ogg
182,0,42221,128,0,42568:0:0:0:0:soft-hitnormal2.ogg
402,0,42221,128,0,42798:0:0:0:0:soft-hitnormal2.ogg
109,0,42337,128,0,42452:0:0:0:0:soft-hitnormal2.ogg
256,0,42337,128,0,42452:0:0:0:0:soft-hitnormal2.ogg
329,0,42452,128,0,42568:0:0:0:0:soft-hitnormal2.ogg
475,0,42452,128,0,42683:0:0:0:0:soft-hitnormal2.ogg
109,0,42568,128,0,42798:0:0:0:0:soft-hitnormal2.ogg
256,0,42568,128,0,42914:0:0:0:0:soft-hitnormal2.ogg
182,0,42683,128,0,43029:0:0:0:0:soft-hitnormal2.ogg
329,0,42683,128,0,43260:0:0:0:0:soft-hitnormal2.ogg
36,0,42798,128,0,42914:0:0:0:0:soft-hitnormal2.ogg
475,0,42798,128,0,43029:0:0:0:0:soft-hitnormal2.ogg
109,0,42914,128,0,43260:0:0:0:0:soft-hitnormal2.ogg
402,0,42914,128,0,43837:0:0:0:0:soft-hitnormal2.ogg
36,0,43029,128,0,43145:0:0:0:0:soft-hitnormal2.ogg
256,0,43029,128,0,43145:0:0:0:0:soft-hitnormal2.ogg
182,0,43145,128,0,43375:0:0:0:0:soft-hitnormal2.ogg
475,0,43145,128,0,43375:0:0:0:0:soft-hitnormal2.ogg
36,0,43260,128,0,43837:0:0:0:0:soft-hitnormal2.ogg
256,0,43260,128,0,43606:0:0:0:0:soft-hitnormal2.ogg
109,0,43375,128,0,43491:0:0:0:0:soft-hitnormal2.ogg
329,0,43375,128,0,43491:0:0:0:0:soft-hitnormal2.ogg
182,0,43491,128,0,43952:0:0:0:0:soft-hitnormal2.ogg
475,0,43491,128,0,43606:0:0:0:0:soft-hitnormal2.ogg
109,0,43606,128,0,43721:0:0:0:0:soft-hitnormal2.ogg
329,0,43606,128,0,43721:0:0:0:0:soft-hitnormal2.ogg
256,0,43721,128,0,44414:0:0:0:0:soft-hitnormal2.ogg
475,0,43721,128,0,44183:0:0:0:0:soft-hitnormal2.ogg
109,0,43837,128,0,44183:0:0:0:0:soft-hitnormal2.ogg
329,0,43837,128,0,44068:0:0:0:0:soft-hitnormal2.ogg
36,0,43952,128,0,44068:0:0:0:0:soft-hitnormal2.ogg
402,0,43952,128,0,44298:0:0:0:0:soft-hitnormal2.ogg
182,0,44068,128,0,44298:0:0:0:0:soft-hitnormal2.ogg
36,0,44183,128,0,44645:0:0:0:0:soft-hitnormal2.ogg
329,0,44183,128,0,44875:0:0:0:0:soft-hitnormal2.ogg
109,0,44298,128,0,44529:0:0:0:0:soft-hitnormal2.ogg
475,0,44298,128,0,44414:0:0:0:0:soft-hitnormal2.ogg
182,0,44414,128,0,44760:0:0:0:0:soft-hitnormal2.ogg
402,0,44414,128,0,44529:0:0:0:0:soft-hitnormal2.ogg
256,0,44529,128,0,44645:0:0:0:0:soft-hitnormal2.ogg
475,0,44529,128,0,44991:0:0:0:0:soft-hitnormal2.ogg
109,0,44645,128,0,44875:0:0:0:0:soft-hitnormal2.ogg
402,0,44645,128,0,44760:0:0:0:0:soft-hitnormal2.ogg
36,0,44760,128,0,45106:0:0:0:0:soft-hitnormal2.ogg
256,0,44760,128,0,44991:0:0:0:0:soft-hitnormal2.ogg
182,0,44875,128,0,45221:0:0:0:0:soft-hitnormal2.ogg
402,0,44875,128,0,45106:0:0:0:0:soft-hitnormal2.ogg
109,0,44991,128,0,45221:0:0:0:0:soft-hitnormal2.ogg
329,0,44991,128,0,45221:0:0:0:0:soft-hitnormal2.ogg
256,0,45106,128,0,45337:0:0:0:0:soft-hitnormal2.ogg
475,0,45106,128,0,45337:0:0:0:0:soft-hitnormal2.ogg
36,0,45221,128,0,45337:0:0:0:0:soft-hitnormal2.ogg
402,0,45221,128,0,45337:0:0:0:0:soft-hitnormal2.ogg
182,192,45337,1,0,0:0:0:0:soft-hitnormal2.ogg
329,192,45337,1,0,0:0:0:0:soft-hitnormal2.ogg
36,192,45452,1,0,0:0:0:0:soft-hitnormal2.ogg
109,192,45568,1,0,0:0:0:0:soft-hitnormal2.ogg
182,192,45568,1,0,0:0:0:0:soft-hitnormal2.ogg
329,192,45568,1,0,0:0:0:0:soft-hitnormal2.ogg
256,192,45683,1,0,0:0:0:0:soft-hitnormal2.ogg
182,0,45798,128,0,46029:0:0:0:0:soft-hitnormal2.ogg
329,0,45798,128,0,46029:0:0:0:0:soft-hitnormal2.ogg
402,192,45798,1,0,0:0:0:0:soft-hitnormal2.ogg
475,192,45914,1,0,0:0:0:0:soft-hitnormal2.ogg
402,192,46029,1,0,0:0:0:0:soft-hitnormal2.ogg
182,192,46145,1,0,0:0:0:0:soft-hitnormal2.ogg
256,192,46145,1,0,0:0:0:0:soft-hitnormal2.ogg
329,192,46145,1,0,0:0:0:0:soft-hitnormal2.ogg
109,192,46260,1,0,0:0:0:0:soft-hitnormal2.ogg
36,192,46375,1,0,0:0:0:0:soft-hitnormal2.ogg
182,0,46375,128,0,46606:0:0:0:0:soft-hitnormal2.ogg
329,0,46375,128,0,46606:0:0:0:0:soft-hitnormal2.ogg
109,192,46491,1,0,0:0:0:0:soft-hitnormal2.ogg
256,192,46606,1,0,0:0:0:0:soft-hitnormal2.ogg
182,192,46721,1,0,0:0:0:0:soft-hitnormal2.ogg
329,192,46721,1,0,0:0:0:0:soft-hitnormal2.ogg
402,192,46721,1,0,0:0:0:0:soft-hitnormal2.ogg
182,192,46837,1,0,0:0:0:0:soft-hitnormal2.ogg
329,192,46837,1,0,0:0:0:0:soft-hitnormal2.ogg
475,192,46837,1,0,0:0:0:0:soft-hitnormal2.ogg
402,192,46952,1,0,0:0:0:0:soft-hitnormal2.ogg
182,0,46952,128,0,47183:0:0:0:0:soft-hitnormal2.ogg
329,0,46952,128,0,47183:0:0:0:0:soft-hitnormal2.ogg
256,192,47068,1,0,0:0:0:0:soft-hitnormal2.ogg
36,192,47183,1,0,0:0:0:0:soft-hitnormal2.ogg
109,192,47183,1,0,0:0:0:0:soft-hitnormal2.ogg
475,192,47183,1,0,0:0:0:0:soft-hitnormal2.ogg
182,192,47298,1,0,0:0:0:0:soft-hitnormal2.ogg
36,192,47414,1,0,0:0:0:0:soft-hitnormal2.ogg
256,192,47414,1,0,0:0:0:0:soft-hitnormal2.ogg
475,192,47414,1,0,0:0:0:0:soft-hitnormal2.ogg
329,192,47529,1,0,0:0:0:0:soft-hitnormal2.ogg
36,0,47645,128,0,47875:0:0:0:0:soft-hitnormal2.ogg
402,192,47645,1,0,0:0:0:0:soft-hitnormal2.ogg
475,0,47645,128,0,47875:0:0:0:0:soft-hitnormal2.ogg
329,192,47760,1,0,0:0:0:0:soft-hitnormal2.ogg
256,192,47875,1,0,0:0:0:0:soft-hitnormal2.ogg
36,192,47991,1,0,0:0:0:0:soft-hitnormal2.ogg
182,192,47991,1,0,0:0:0:0:soft-hitnormal2.ogg
475,192,47991,1,0,0:0:0:0:soft-hitnormal2.ogg
109,192,48106,1,0,0:0:0:0:soft-hitnormal2.ogg
36,0,48221,128,0,48452:0:0:0:0:soft-hitnormal2.ogg
182,192,48221,1,0,0:0:0:0:soft-hitnormal2.ogg
475,0,48221,128,0,48452:0:0:0:0:soft-hitnormal2.ogg
256,192,48337,1,0,0:0:0:0:soft-hitnormal2.ogg
329,192,48452,1,0,0:0:0:0:soft-hitnormal2.ogg
36,192,48568,1,0,0:0:0:0:soft-hitnormal2.ogg
402,192,48568,1,0,0:0:0:0:soft-hitnormal2.ogg
475,192,48568,1,0,0:0:0:0:soft-hitnormal2.ogg
36,192,48683,1,0,0:0:0:0:soft-hitnormal2.ogg
329,192,48683,1,0,0:0:0:0:soft-hitnormal2.ogg
475,192,48683,1,0,0:0:0:0:soft-hitnormal2.ogg
256,192,48798,1,0,0:0:0:0:soft-hitnormal2.ogg
36,0,48798,128,0,49029:0:0:0:0:soft-hitnormal2.ogg
475,0,48798,128,0,49029:0:0:0:0:soft-hitnormal2.ogg
182,192,48914,1,0,0:0:0:0:soft-hitnormal2.ogg
109,192,49029,1,0,0:0:0:0:soft-hitnormal2.ogg
402,192,49029,1,0,0:0:0:0:soft-hitnormal2.ogg
182,192,49145,1,0,0:0:0:0:soft-hitnormal2.ogg
109,192,49260,1,0,0:0:0:0:soft-hitnormal2.ogg
256,192,49260,1,0,0:0:0:0:soft-hitnormal2.ogg
402,192,49260,1,0,0:0:0:0:soft-hitnormal2.ogg
329,192,49375,1,0,0:0:0:0:soft-hitnormal2.ogg
109,0,49491,128,0,49721:0:0:0:0:soft-hitnormal2.ogg
402,0,49491,128,0,49721:0:0:0:0:soft-hitnormal2.ogg
475,192,49491,1,0,0:0:0:0:soft-hitnormal2.ogg
329,192,49606,1,0,0:0:0:0:soft-hitnormal2.ogg
256,192,49721,1,0,0:0:0:0:soft-hitnormal2.ogg
182,192,49837,1,0,0:0:0:0:soft-hitnormal2.ogg
36,192,49952,1,0,0:0:0:0:soft-hitnormal2.ogg
109,192,49952,1,0,0:0:0:0:soft-hitnormal2.ogg
402,192,49952,1,0,0:0:0:0:soft-hitnormal2.ogg
109,0,50068,128,0,50298:0:0:0:0:soft-hitnormal2.ogg
182,192,50068,1,0,0:0:0:0:soft-hitnormal2.ogg
402,0,50068,128,0,50298:0:0:0:0:soft-hitnormal2.ogg
256,192,50183,1,0,0:0:0:0:soft-hitnormal2.ogg
329,192,50298,1,0,0:0:0:0:soft-hitnormal2.ogg
109,192,50414,1,0,0:0:0:0:soft-hitnormal2.ogg
402,192,50414,1,0,0:0:0:0:soft-hitnormal2.ogg
475,192,50414,1,0,0:0:0:0:soft-hitnormal2.ogg
109,192,50529,1,0,0:0:0:0:soft-hitnormal2.ogg
329,192,50529,1,0,0:0:0:0:soft-hitnormal2.ogg
402,192,50529,1,0,0:0:0:0:soft-hitnormal2.ogg
256,192,50645,1,0,0:0:0:0:soft-hitnormal2.ogg
109,0,50645,128,0,50875:0:0:0:0:soft-hitnormal2.ogg
402,0,50645,128,0,50875:0:0:0:0:soft-hitnormal2.ogg
182,192,50760,1,0,0:0:0:0:soft-hitnormal2.ogg
36,192,50875,1,0,0:0:0:0:soft-hitnormal2.ogg
256,192,50875,1,0,0:0:0:0:soft-hitnormal2.ogg
109,192,50991,1,0,0:0:0:0:soft-hitnormal2.ogg
182,192,51106,1,0,0:0:0:0:soft-hitnormal2.ogg
256,192,51106,1,0,0:0:0:0:soft-hitnormal2.ogg
329,192,51221,1,0,0:0:0:0:soft-hitnormal2.ogg
256,0,51337,128,0,51568:0:0:0:0:soft-hitnormal2.ogg
402,192,51337,1,0,0:0:0:0:soft-hitnormal2.ogg
475,192,51452,1,0,0:0:0:0:soft-hitnormal2.ogg
402,192,51568,1,0,0:0:0:0:soft-hitnormal2.ogg
329,192,51683,1,0,0:0:0:0:soft-hitnormal2.ogg
182,192,51798,1,0,0:0:0:0:soft-hitnormal2.ogg
256,192,51798,1,0,0:0:0:0:soft-hitnormal2.ogg
109,192,51914,1,0,0:0:0:0:soft-hitnormal2.ogg
256,0,51914,128,0,52145:0:0:0:0:soft-hitnormal2.ogg
36,192,52029,1,0,0:0:0:0:soft-hitnormal2.ogg
109,192,52145,1,0,0:0:0:0:soft-hitnormal2.ogg
182,192,52260,1,0,0:0:0:0:soft-hitnormal2.ogg
256,192,52260,1,0,0:0:0:0:soft-hitnormal2.ogg
256,192,52375,1,0,0:0:0:0:soft-hitnormal2.ogg
329,192,52375,1,0,0:0:0:0:soft-hitnormal2.ogg
402,192,52491,1,0,0:0:0:0:soft-hitnormal2.ogg
256,0,52491,128,0,52721:0:0:0:0:soft-hitnormal2.ogg
475,192,52606,1,0,0:0:0:0:soft-hitnormal2.ogg
109,192,52721,1,0,0:0:0:0:soft-hitnormal2.ogg
182,192,52721,1,0,0:0:0:0:soft-hitnormal2.ogg
329,192,52721,1,0,0:0:0:0:soft-hitnormal2.ogg
402,192,52721,1,0,0:0:0:0:soft-hitnormal2.ogg
109,192,52952,1,0,0:0:0:0:soft-hitnormal2.ogg
109,0,53183,128,0,53414:0:0:0:0:soft-hitnormal2.ogg
109,192,53645,1,0,0:0:0:0:soft-hitnormal2.ogg
109,0,53760,128,0,53991:0:0:0:0:soft-hitnormal2.ogg
109,192,54106,1,0,0:0:0:0:soft-hitnormal2.ogg
109,192,54221,1,0,0:0:0:0:soft-hitnormal2.ogg
109,0,54337,128,0,54568:0:0:0:0:soft-hitnormal2.ogg
402,192,54568,1,0,0:0:0:0:soft-hitnormal2.ogg
402,192,54798,1,0,0:0:0:0:soft-hitnormal2.ogg
402,0,55029,128,0,55260:0:0:0:0:soft-hitnormal2.ogg
402,192,55491,1,0,0:0:0:0:soft-hitnormal2.ogg
402,0,55606,128,0,55837:0:0:0:0:soft-hitnormal2.ogg
402,192,55952,1,0,0:0:0:0:soft-hitnormal2.ogg
402,192,56068,1,0,0:0:0:0:soft-hitnormal2.ogg
402,0,56183,128,0,56414:0:0:0:0:soft-hitnormal2.ogg
182,192,56414,1,0,0:0:0:0:soft-hitnormal2.ogg
182,192,56645,1,0,0:0:0:0:soft-hitnormal2.ogg
182,0,56875,128,0,57106:0:0:0:0:soft-hitnormal2.ogg
182,192,57337,1,0,0:0:0:0:soft-hitnormal2.ogg
182,0,57452,128,0,57683:0:0:0:0:soft-hitnormal2.ogg
182,192,57798,1,0,0:0:0:0:soft-hitnormal2.ogg
182,192,57914,1,0,0:0:0:0:soft-hitnormal2.ogg
182,0,58029,128,0,58260:0:0:0:0:soft-hitnormal2.ogg
36,192,58260,1,0,0:0:0:0:soft-hitnormal2.ogg
329,192,58260,1,0,0:0:0:0:soft-hitnormal2.ogg
475,192,58375,1,0,0:0:0:0:soft-hitnormal2.ogg
109,192,58491,1,0,0:0:0:0:soft-hitnormal2.ogg
329,192,58491,1,0,0:0:0:0:soft-hitnormal2.ogg
402,192,58606,1,0,0:0:0:0:soft-hitnormal2.ogg
182,192,58721,1,0,0:0:0:0:soft-hitnormal2.ogg
329,0,58721,128,0,58952:0:0:0:0:soft-hitnormal2.ogg
256,192,58837,1,0,0:0:0:0:soft-hitnormal2.ogg
109,192,58952,1,0,0:0:0:0:soft-hitnormal2.ogg
402,192,59068,1,0,0:0:0:0:soft-hitnormal2.ogg
36,192,59183,1,0,0:0:0:0:soft-hitnormal2.ogg
329,192,59183,1,0,0:0:0:0:soft-hitnormal2.ogg
329,0,59298,128,0,59529:0:0:0:0:soft-hitnormal2.ogg
475,192,59298,1,0,0:0:0:0:soft-hitnormal2.ogg
402,192,59414,1,0,0:0:0:0:soft-hitnormal2.ogg
109,192,59529,1,0,0:0:0:0:soft-hitnormal2.ogg
256,192,59645,1,0,0:0:0:0:soft-hitnormal2.ogg
329,192,59645,1,0,0:0:0:0:soft-hitnormal2.ogg
182,192,59760,1,0,0:0:0:0:soft-hitnormal2.ogg
329,192,59760,1,0,0:0:0:0:soft-hitnormal2.ogg
36,192,59875,1,0,0:0:0:0:soft-hitnormal2.ogg
329,0,59875,128,0,60106:0:0:0:0:soft-hitnormal2.ogg
475,192,59991,1,0,0:0:0:0:soft-hitnormal2.ogg
36,0,60106,128,0,61606:0:0:0:0:soft-hitnormal2.ogg
256,0,60221,128,0,60683:0:0:0:0:soft-hitnormal2.ogg
109,0,60337,128,0,61375:0:0:0:0:soft-hitnormal2.ogg
329,0,60452,128,0,61491:0:0:0:0:soft-hitnormal2.ogg
182,0,60568,128,0,61145:0:0:0:0:soft-hitnormal2.ogg
402,0,60683,128,0,61260:0:0:0:0:soft-hitnormal2.ogg
256,0,60798,128,0,60914:0:0:0:0:soft-hitnormal2.ogg
475,0,60914,128,0,61029:0:0:0:0:soft-hitnormal2.ogg
256,0,61029,128,0,61721:0:0:0:0:soft-hitnormal2.ogg
475,0,61145,128,0,62645:0:0:0:0:soft-hitnormal2.ogg
182,0,61260,128,0,62298:0:0:0:0:soft-hitnormal2.ogg
402,0,61375,128,0,62414:0:0:0:0:soft-hitnormal2.ogg
109,0,61491,128,0,62068:0:0:0:0:soft-hitnormal2.ogg
329,0,61606,128,0,62183:0:0:0:0:soft-hitnormal2.ogg
36,0,61721,128,0,61837:0:0:0:0:soft-hitnormal2.ogg
256,0,61837,128,0,61952:0:0:0:0:soft-hitnormal2.ogg
36,0,61952,128,0,63452:0:0:0:0:soft-hitnormal2.ogg
256,0,62068,128,0,62529:0:0:0:0:soft-hitnormal2.ogg
109,0,62183,128,0,63221:0:0:0:0:soft-hitnormal2.ogg
329,0,62298,128,0,63337:0:0:0:0:soft-hitnormal2.ogg
182,0,62414,128,0,62991:0:0:0:0:soft-hitnormal2.ogg
402,0,62529,128,0,63106:0:0:0:0:soft-hitnormal2.ogg
256,0,62645,128,0,62760:0:0:0:0:soft-hitnormal2.ogg
475,0,62760,128,0,62875:0:0:0:0:soft-hitnormal2.ogg
256,0,62875,128,0,63568:0:0:0:0:soft-hitnormal2.ogg
475,0,62991,128,0,63683:0:0:0:0:soft-hitnormal2.ogg
182,0,63106,128,0,63914:0:0:0:0:soft-hitnormal2.ogg
402,0,63221,128,0,63798:0:0:0:0:soft-hitnormal2.ogg
109,0,63337,128,0,63798:0:0:0:0:soft-hitnormal2.ogg
329,0,63452,128,0,63914:0:0:0:0:soft-hitnormal2.ogg
36,0,63568,128,0,63683:0:0:0:0:soft-hitnormal2.ogg
256,0,63683,128,0,64260:0:0:0:0:soft-hitnormal2.ogg
36,0,63798,128,0,65298:0:0:0:0:soft-hitnormal2.ogg
475,0,63798,128,0,65298:0:0:0:0:soft-hitnormal2.ogg
109,0,63914,128,0,64029:0:0:0:0:soft-hitnormal2.ogg
402,0,63914,128,0,64029:0:0:0:0:soft-hitnormal2.ogg
182,0,64029,128,0,64145:0:0:0:0:soft-hitnormal2.ogg
329,0,64029,128,0,64145:0:0:0:0:soft-hitnormal2.ogg
109,0,64145,128,0,64952:0:0:0:0:soft-hitnormal2.ogg
402,0,64145,128,0,64952:0:0:0:0:soft-hitnormal2.ogg
182,0,64260,128,0,64375:0:0:0:0:soft-hitnormal2.ogg
329,0,64260,128,0,64375:0:0:0:0:soft-hitnormal2.ogg
256,0,64375,128,0,64491:0:0:0:0:soft-hitnormal2.ogg
182,0,64491,128,0,64606:0:0:0:0:soft-hitnormal2.ogg
329,0,64491,128,0,64606:0:0:0:0:soft-hitnormal2.ogg
256,0,64606,128,0,64721:0:0:0:0:soft-hitnormal2.ogg
182,0,64721,128,0,64837:0:0:0:0:soft-hitnormal2.ogg
329,0,64721,128,0,64837:0:0:0:0:soft-hitnormal2.ogg
256,0,64837,128,0,65529:0:0:0:0:soft-hitnormal2.ogg
182,0,64952,128,0,65068:0:0:0:0:soft-hitnormal2.ogg
329,0,64952,128,0,65068:0:0:0:0:soft-hitnormal2.ogg
109,0,65068,128,0,65183:0:0:0:0:soft-hitnormal2.ogg
402,0,65068,128,0,65183:0:0:0:0:soft-hitnormal2.ogg
182,0,65183,128,0,65760:0:0:0:0:soft-hitnormal2.ogg
329,0,65183,128,0,65645:0:0:0:0:soft-hitnormal2.ogg
109,0,65298,128,0,65414:0:0:0:0:soft-hitnormal2.ogg
402,0,65298,128,0,65414:0:0:0:0:soft-hitnormal2.ogg
36,0,65414,128,0,65529:0:0:0:0:soft-hitnormal2.ogg
475,0,65414,128,0,65875:0:0:0:0:soft-hitnormal2.ogg
109,0,65529,128,0,65645:0:0:0:0:soft-hitnormal2.ogg
402,0,65529,128,0,65760:0:0:0:0:soft-hitnormal2.ogg
36,0,65645,128,0,65760:0:0:0:0:soft-hitnormal2.ogg
256,0,65645,128,0,65760:0:0:0:0:soft-hitnormal2.ogg
109,0,65760,128,0,65875:0:0:0:0:soft-hitnormal2.ogg
329,0,65760,128,0,65875:0:0:0:0:soft-hitnormal2.ogg
182,0,65875,128,0,65991:0:0:0:0:soft-hitnormal2.ogg
402,0,65875,128,0,65991:0:0:0:0:soft-hitnormal2.ogg
36,0,65991,128,0,66106:0:0:0:0:soft-hitnormal2.ogg
256,0,65991,128,0,66106:0:0:0:0:soft-hitnormal2.ogg
475,0,65991,128,0,66106:0:0:0:0:soft-hitnormal2.ogg
109,0,66106,128,0,66221:0:0:0:0:soft-hitnormal2.ogg
329,0,66106,128,0,66221:0:0:0:0:soft-hitnormal2.ogg
182,0,66221,128,0,66337:0:0:0:0:soft-hitnormal2.ogg
402,0,66221,128,0,66337:0:0:0:0:soft-hitnormal2.ogg
36,0,66337,128,0,66452:0:0:0:0:soft-hitnormal2.ogg
256,0,66337,128,0,66452:0:0:0:0:soft-hitnormal2.ogg
475,0,66337,128,0,66452:0:0:0:0:soft-hitnormal2.ogg
109,0,66452,128,0,66568:0:0:0:0:soft-hitnormal2.ogg
329,0,66452,128,0,66568:0:0:0:0:soft-hitnormal2.ogg
182,0,66568,128,0,66683:0:0:0:0:soft-hitnormal2.ogg
402,0,66568,128,0,66683:0:0:0:0:soft-hitnormal2.ogg
36,0,66683,128,0,66798:0:0:0:0:soft-hitnormal2.ogg
256,0,66683,128,0,66798:0:0:0:0:soft-hitnormal2.ogg
475,0,66683,128,0,66798:0:0:0:0:soft-hitnormal2.ogg
109,0,66798,128,0,66914:0:0:0:0:soft-hitnormal2.ogg
329,0,66798,128,0,66914:0:0:0:0:soft-hitnormal2.ogg
182,0,66914,128,0,67029:0:0:0:0:soft-hitnormal2.ogg
402,0,66914,128,0,67029:0:0:0:0:soft-hitnormal2.ogg
36,0,67029,128,0,67145:0:0:0:0:soft-hitnormal2.ogg
256,0,67029,128,0,67145:0:0:0:0:soft-hitnormal2.ogg
475,0,67029,128,0,67145:0:0:0:0:soft-hitnormal2.ogg
109,0,67145,128,0,67260:0:0:0:0:soft-hitnormal2.ogg
329,0,67145,128,0,67260:0:0:0:0:soft-hitnormal2.ogg
182,0,67260,128,0,67375:0:0:0:0:soft-hitnormal2.ogg
402,0,67260,128,0,67375:0:0:0:0:soft-hitnormal2.ogg
36,0,67375,128,0,67491:0:0:0:0:soft-hitnormal2.ogg
256,0,67375,128,0,67491:0:0:0:0:soft-hitnormal2.ogg
475,0,67375,128,0,67491:0:0:0:0:soft-hitnormal2.ogg
109,0,67491,128,0,68068:0:0:0:0:soft-hitnormal2.ogg
182,192,67491,1,0,0:0:0:0:soft-hitnormal2.ogg
402,192,67491,1,0,0:0:0:0:soft-hitnormal2.ogg
256,192,67606,1,0,0:0:0:0:soft-hitnormal2.ogg
475,192,67606,1,0,0:0:0:0:soft-hitnormal2.ogg
182,192,67721,1,0,0:0:0:0:soft-hitnormal2.ogg
402,192,67721,1,0,0:0:0:0:soft-hitnormal2.ogg
36,192,67837,1,0,0:0:0:0:soft-hitnormal2.ogg
329,192,67837,1,0,0:0:0:0:soft-hitnormal2.ogg
182,192,67952,1,0,0:0:0:0:soft-hitnormal2.ogg
256,192,67952,1,0,0:0:0:0:soft-hitnormal2.ogg
36,192,68068,1,0,0:0:0:0:soft-hitnormal2.ogg
329,192,68068,1,0,0:0:0:0:soft-hitnormal2.ogg
109,0,68183,128,0,68529:0:0:0:0:soft-hitnormal2.ogg
182,192,68183,1,0,0:0:0:0:soft-hitnormal2.ogg
475,192,68183,1,0,0:0:0:0:soft-hitnormal2.ogg
256,192,68298,1,0,0:0:0:0:soft-hitnormal2.ogg
402,192,68298,1,0,0:0:0:0:soft-hitnormal2.ogg
182,192,68414,1,0,0:0:0:0:soft-hitnormal2.ogg
329,192,68414,1,0,0:0:0:0:soft-hitnormal2.ogg
256,192,68529,1,0,0:0:0:0:soft-hitnormal2.ogg
475,192,68529,1,0,0:0:0:0:soft-hitnormal2.ogg
109,0,68645,128,0,69221:0:0:0:0:soft-hitnormal2.ogg
182,192,68645,1,0,0:0:0:0:soft-hitnormal2.ogg
402,192,68645,1,0,0:0:0:0:soft-hitnormal2.ogg
36,192,68760,1,0,0:0:0:0:soft-hitnormal2.ogg
256,192,68760,1,0,0:0:0:0:soft-hitnormal2.ogg
182,192,68875,1,0,0:0:0:0:soft-hitnormal2.ogg
329,192,68875,1,0,0:0:0:0:soft-hitnormal2.ogg
36,192,68991,1,0,0:0:0:0:soft-hitnormal2.ogg
402,192,68991,1,0,0:0:0:0:soft-hitnormal2.ogg
256,192,69106,1,0,0:0:0:0:soft-hitnormal2.ogg
475,192,69106,1,0,0:0:0:0:soft-hitnormal2.ogg
182,192,69221,1,0,0:0:0:0:soft-hitnormal2.ogg
402,192,69221,1,0,0:0:0:0:soft-hitnormal2.ogg
36,192,69337,1,0,0:0:0:0:soft-hitnormal2.ogg
256,192,69337,1,0,0:0:0:0:soft-hitnormal2.ogg
475,0,69337,128,0,69914:0:0:0:0:soft-hitnormal2.ogg
109,192,69452,1,0,0:0:0:0:soft-hitnormal2.ogg
329,192,69452,1,0,0:0:0:0:soft-hitnormal2.ogg
182,192,69568,1,0,0:0:0:0:soft-hitnormal2.ogg
402,192,69568,1,0,0:0:0:0:soft-hitnormal2.ogg
256,192,69683,1,0,0:0:0:0:soft-hitnormal2.ogg
329,192,69683,1,0,0:0:0:0:soft-hitnormal2.ogg
182,192,69798,1,0,0:0:0:0:soft-hitnormal2.ogg
402,192,69798,1,0,0:0:0:0:soft-hitnormal2.ogg
109,192,69914,1,0,0:0:0:0:soft-hitnormal2.ogg
329,192,69914,1,0,0:0:0:0:soft-hitnormal2.ogg
36,192,70029,1,0,0:0:0:0:soft-hitnormal2.ogg
256,192,70029,1,0,0:0:0:0:soft-hitnormal2.ogg
475,0,70029,128,0,70375:0:0:0:0:soft-hitnormal2.ogg
109,192,70145,1,0,0:0:0:0:soft-hitnormal2.ogg
182,192,70145,1,0,0:0:0:0:soft-hitnormal2.ogg
36,192,70260,1,0,0:0:0:0:soft-hitnormal2.ogg
256,192,70260,1,0,0:0:0:0:soft-hitnormal2.ogg
109,192,70375,1,0,0:0:0:0:soft-hitnormal2.ogg
329,192,70375,1,0,0:0:0:0:soft-hitnormal2.ogg
36,192,70491,1,0,0:0:0:0:soft-hitnormal2.ogg
256,192,70491,1,0,0:0:0:0:soft-hitnormal2.ogg
475,0,70491,128,0,71068:0:0:0:0:soft-hitnormal2.ogg
109,192,70606,1,0,0:0:0:0:soft-hitnormal2.ogg
402,192,70606,1,0,0:0:0:0:soft-hitnormal2.ogg
36,192,70721,1,0,0:0:0:0:soft-hitnormal2.ogg
329,192,70721,1,0,0:0:0:0:soft-hitnormal2.ogg
182,192,70837,1,0,0:0:0:0:soft-hitnormal2.ogg
256,192,70837,1,0,0:0:0:0:soft-hitnormal2.ogg
109,192,70952,1,0,0:0:0:0:soft-hitnormal2.ogg
402,192,70952,1,0,0:0:0:0:soft-hitnormal2.ogg
182,192,71068,1,0,0:0:0:0:soft-hitnormal2.ogg
329,192,71068,1,0,0:0:0:0:soft-hitnormal2.ogg
36,0,71183,128,0,71760:0:0:0:0:soft-hitnormal2.ogg
256,0,71183,128,0,71298:0:0:0:0:soft-hitnormal2.ogg
475,0,71183,128,0,71298:0:0:0:0:soft-hitnormal2.ogg
182,0,71298,128,0,71414:0:0:0:0:soft-hitnormal2.ogg
402,0,71298,128,0,71414:0:0:0:0:soft-hitnormal2.ogg
109,0,71414,128,0,71529:0:0:0:0:soft-hitnormal2.ogg
329,0,71414,128,0,71529:0:0:0:0:soft-hitnormal2.ogg
182,0,71529,128,0,71645:0:0:0:0:soft-hitnormal2.ogg
256,0,71529,128,0,71645:0:0:0:0:soft-hitnormal2.ogg
109,0,71645,128,0,71760:0:0:0:0:soft-hitnormal2.ogg
329,0,71645,128,0,71760:0:0:0:0:soft-hitnormal2.ogg
182,0,71760,128,0,71875:0:0:0:0:soft-hitnormal2.ogg
402,0,71760,128,0,71875:0:0:0:0:soft-hitnormal2.ogg
36,0,71875,128,0,72221:0:0:0:0:soft-hitnormal2.ogg
256,0,71875,128,0,71991:0:0:0:0:soft-hitnormal2.ogg
475,0,71875,128,0,71991:0:0:0:0:soft-hitnormal2.ogg
329,0,71991,128,0,72106:0:0:0:0:soft-hitnormal2.ogg
402,0,71991,128,0,72106:0:0:0:0:soft-hitnormal2.ogg
256,0,72106,128,0,72221:0:0:0:0:soft-hitnormal2.ogg
475,0,72106,128,0,72221:0:0:0:0:soft-hitnormal2.ogg
182,0,72221,128,0,72337:0:0:0:0:soft-hitnormal2.ogg
402,0,72221,128,0,72337:0:0:0:0:soft-hitnormal2.ogg
36,0,72337,128,0,72914:0:0:0:0:soft-hitnormal2.ogg
256,0,72337,128,0,72452:0:0:0:0:soft-hitnormal2.ogg
475,0,72337,128,0,72452:0:0:0:0:soft-hitnormal2.ogg
109,0,72452,128,0,72568:0:0:0:0:soft-hitnormal2.ogg
402,0,72452,128,0,72568:0:0:0:0:soft-hitnormal2.ogg
182,0,72568,128,0,72683:0:0:0:0:soft-hitnormal2.ogg
475,0,72568,128,0,72683:0:0:0:0:soft-hitnormal2.ogg
256,0,72683,128,0,72798:0:0:0:0:soft-hitnormal2.ogg
329,0,72683,128,0,72798:0:0:0:0:soft-hitnormal2.ogg
109,0,72798,128,0,72914:0:0:0:0:soft-hitnormal2.ogg
402,0,72798,128,0,72914:0:0:0:0:soft-hitnormal2.ogg
182,0,72914,128,0,73029:0:0:0:0:soft-hitnormal2.ogg
329,0,72914,128,0,73029:0:0:0:0:soft-hitnormal2.ogg
109,0,73029,128,0,73145:0:0:0:0:soft-hitnormal2.ogg
402,0,73029,128,0,73606:0:0:0:0:soft-hitnormal2.ogg
475,0,73029,128,0,73145:0:0:0:0:soft-hitnormal2.ogg
36,0,73145,128,0,73260:0:0:0:0:soft-hitnormal2.ogg
256,0,73145,128,0,73260:0:0:0:0:soft-hitnormal2.ogg
109,0,73260,128,0,73375:0:0:0:0:soft-hitnormal2.ogg
329,0,73260,128,0,73375:0:0:0:0:soft-hitnormal2.ogg
182,0,73375,128,0,73491:0:0:0:0:soft-hitnormal2.ogg
475,0,73375,128,0,73491:0:0:0:0:soft-hitnormal2.ogg
256,0,73491,128,0,73606:0:0:0:0:soft-hitnormal2.ogg
329,0,73491,128,0,73606:0:0:0:0:soft-hitnormal2.ogg
182,0,73606,128,0,73721:0:0:0:0:soft-hitnormal2.ogg
475,0,73606,128,0,73721:0:0:0:0:soft-hitnormal2.ogg
36,0,73721,128,0,73837:0:0:0:0:soft-hitnormal2.ogg
329,0,73721,128,0,73837:0:0:0:0:soft-hitnormal2.ogg
402,0,73721,128,0,74068:0:0:0:0:soft-hitnormal2.ogg
109,0,73837,128,0,73952:0:0:0:0:soft-hitnormal2.ogg
256,0,73837,128,0,73952:0:0:0:0:soft-hitnormal2.ogg
182,0,73952,128,0,74068:0:0:0:0:soft-hitnormal2.ogg
329,0,73952,128,0,74068:0:0:0:0:soft-hitnormal2.ogg
36,0,74068,128,0,74183:0:0:0:0:soft-hitnormal2.ogg
256,0,74068,128,0,74183:0:0:0:0:soft-hitnormal2.ogg
109,0,74183,128,0,74298:0:0:0:0:soft-hitnormal2.ogg
329,0,74183,128,0,74298:0:0:0:0:soft-hitnormal2.ogg
402,0,74183,128,0,74760:0:0:0:0:soft-hitnormal2.ogg
256,0,74298,128,0,74414:0:0:0:0:soft-hitnormal2.ogg
475,0,74298,128,0,74414:0:0:0:0:soft-hitnormal2.ogg
182,0,74414,128,0,74529:0:0:0:0:soft-hitnormal2.ogg
329,0,74414,128,0,74529:0:0:0:0:soft-hitnormal2.ogg
109,0,74529,128,0,74645:0:0:0:0:soft-hitnormal2.ogg
475,0,74529,128,0,74645:0:0:0:0:soft-hitnormal2.ogg
36,0,74645,128,0,74760:0:0:0:0:soft-hitnormal2.ogg
256,0,74645,128,0,74760:0:0:0:0:soft-hitnormal2.ogg
109,0,74760,128,0,74875:0:0:0:0:soft-hitnormal2.ogg
329,0,74760,128,0,74875:0:0:0:0:soft-hitnormal2.ogg
36,192,74875,1,0,0:0:0:0:soft-hitnormal2.ogg
182,0,74875,128,0,75452:0:0:0:0:soft-hitnormal2.ogg
256,192,74875,1,0,0:0:0:0:soft-hitnormal2.ogg
109,192,74991,1,0,0:0:0:0:soft-hitnormal2.ogg
329,192,74991,1,0,0:0:0:0:soft-hitnormal2.ogg
256,192,75106,1,0,0:0:0:0:soft-hitnormal2.ogg
475,192,75106,1,0,0:0:0:0:soft-hitnormal2.ogg
329,192,75221,1,0,0:0:0:0:soft-hitnormal2.ogg
402,192,75221,1,0,0:0:0:0:soft-hitnormal2.ogg
256,192,75337,1,0,0:0:0:0:soft-hitnormal2.ogg
475,192,75337,1,0,0:0:0:0:soft-hitnormal2.ogg
109,192,75452,1,0,0:0:0:0:soft-hitnormal2.ogg
402,192,75452,1,0,0:0:0:0:soft-hitnormal2.ogg
182,0,75568,128,0,75914:0:0:0:0:soft-hitnormal2.ogg
256,192,75568,1,0,0:0:0:0:soft-hitnormal2.ogg
329,192,75568,1,0,0:0:0:0:soft-hitnormal2.ogg
109,192,75683,1,0,0:0:0:0:soft-hitnormal2.ogg
475,192,75683,1,0,0:0:0:0:soft-hitnormal2.ogg
36,192,75798,1,0,0:0:0:0:soft-hitnormal2.ogg
402,192,75798,1,0,0:0:0:0:soft-hitnormal2.ogg
109,192,75914,1,0,0:0:0:0:soft-hitnormal2.ogg
329,192,75914,1,0,0:0:0:0:soft-hitnormal2.ogg
182,0,76029,128,0,76606:0:0:0:0:soft-hitnormal2.ogg
256,192,76029,1,0,0:0:0:0:soft-hitnormal2.ogg
402,192,76029,1,0,0:0:0:0:soft-hitnormal2.ogg
329,192,76145,1,0,0:0:0:0:soft-hitnormal2.ogg
475,192,76145,1,0,0:0:0:0:soft-hitnormal2.ogg
256,192,76260,1,0,0:0:0:0:soft-hitnormal2.ogg
402,192,76260,1,0,0:0:0:0:soft-hitnormal2.ogg
109,192,76375,1,0,0:0:0:0:soft-hitnormal2.ogg
329,192,76375,1,0,0:0:0:0:soft-hitnormal2.ogg
36,192,76491,1,0,0:0:0:0:soft-hitnormal2.ogg
256,192,76491,1,0,0:0:0:0:soft-hitnormal2.ogg
109,192,76606,1,0,0:0:0:0:soft-hitnormal2.ogg
402,192,76606,1,0,0:0:0:0:soft-hitnormal2.ogg
182,192,76721,1,0,0:0:0:0:soft-hitnormal2.ogg
329,0,76721,128,0,77298:0:0:0:0:soft-hitnormal2.ogg
475,192,76721,1,0,0:0:0:0:soft-hitnormal2.ogg
36,192,76837,1,0,0:0:0:0:soft-hitnormal2.ogg
256,192,76837,1,0,0:0:0:0:soft-hitnormal2.ogg
109,192,76952,1,0,0:0:0:0:soft-hitnormal2.ogg
402,192,76952,1,0,0:0:0:0:soft-hitnormal2.ogg
182,192,77068,1,0,0:0:0:0:soft-hitnormal2.ogg
475,192,77068,1,0,0:0:0:0:soft-hitnormal2.ogg
256,192,77183,1,0,0:0:0:0:soft-hitnormal2.ogg
402,192,77183,1,0,0:0:0:0:soft-hitnormal2.ogg
182,192,77298,1,0,0:0:0:0:soft-hitnormal2.ogg
475,192,77298,1,0,0:0:0:0:soft-hitnormal2.ogg
36,192,77414,1,0,0:0:0:0:soft-hitnormal2.ogg
329,0,77414,128,0,77760:0:0:0:0:soft-hitnormal2.ogg
402,192,77414,1,0,0:0:0:0:soft-hitnormal2.ogg
109,192,77529,1,0,0:0:0:0:soft-hitnormal2.ogg
256,192,77529,1,0,0:0:0:0:soft-hitnormal2.ogg
36,192,77645,1,0,0:0:0:0:soft-hitnormal2.ogg
182,192,77645,1,0,0:0:0:0:soft-hitnormal2.ogg
109,192,77760,1,0,0:0:0:0:soft-hitnormal2.ogg
256,192,77760,1,0,0:0:0:0:soft-hitnormal2.ogg
182,192,77875,1,0,0:0:0:0:soft-hitnormal2.ogg
329,0,77875,128,0,78452:0:0:0:0:soft-hitnormal2.ogg
402,192,77875,1,0,0:0:0:0:soft-hitnormal2.ogg
256,192,77991,1,0,0:0:0:0:soft-hitnormal2.ogg
475,192,77991,1,0,0:0:0:0:soft-hitnormal2.ogg
109,192,78106,1,0,0:0:0:0:soft-hitnormal2.ogg
402,192,78106,1,0,0:0:0:0:soft-hitnormal2.ogg
36,192,78221,1,0,0:0:0:0:soft-hitnormal2.ogg
182,192,78221,1,0,0:0:0:0:soft-hitnormal2.ogg
109,192,78337,1,0,0:0:0:0:soft-hitnormal2.ogg
256,192,78337,1,0,0:0:0:0:soft-hitnormal2.ogg
182,192,78452,1,0,0:0:0:0:soft-hitnormal2.ogg
475,192,78452,1,0,0:0:0:0:soft-hitnormal2.ogg
36,192,78568,1,0,0:0:0:0:soft-hitnormal2.ogg
256,0,78568,128,0,79145:0:0:0:0:soft-hitnormal2.ogg
475,192,78568,1,0,0:0:0:0:soft-hitnormal2.ogg
109,192,78683,1,0,0:0:0:0:soft-hitnormal2.ogg
402,192,78683,1,0,0:0:0:0:soft-hitnormal2.ogg
182,192,78798,1,0,0:0:0:0:soft-hitnormal2.ogg
329,192,78798,1,0,0:0:0:0:soft-hitnormal2.ogg
475,192,78798,1,0,0:0:0:0:soft-hitnormal2.ogg
109,192,78914,1,0,0:0:0:0:soft-hitnormal2.ogg
402,192,78914,1,0,0:0:0:0:soft-hitnormal2.ogg
36,192,79029,1,0,0:0:0:0:soft-hitnormal2.ogg
475,192,79029,1,0,0:0:0:0:soft-hitnormal2.ogg
109,192,79145,1,0,0:0:0:0:soft-hitnormal2.ogg
402,192,79145,1,0,0:0:0:0:soft-hitnormal2.ogg
36,192,79260,1,0,0:0:0:0:soft-hitnormal2.ogg
256,0,79260,128,0,79606:0:0:0:0:soft-hitnormal2.ogg
475,192,79260,1,0,0:0:0:0:soft-hitnormal2.ogg
182,0,79260,128,0,80414:0:0:0:0:soft-hitnormal2.ogg
329,0,79260,128,0,80414:0:0:0:0:soft-hitnormal2.ogg
109,192,79375,1,0,0:0:0:0:soft-hitnormal2.ogg
402,192,79375,1,0,0:0:0:0:soft-hitnormal2.ogg
36,192,79491,1,0,0:0:0:0:soft-hitnormal2.ogg
475,192,79491,1,0,0:0:0:0:soft-hitnormal2.ogg
109,192,79606,1,0,0:0:0:0:soft-hitnormal2.ogg
402,192,79606,1,0,0:0:0:0:soft-hitnormal2.ogg
36,192,79721,1,0,0:0:0:0:soft-hitnormal2.ogg
256,0,79721,128,0,80298:0:0:0:0:soft-hitnormal2.ogg
475,192,79721,1,0,0:0:0:0:soft-hitnormal2.ogg
109,192,79837,1,0,0:0:0:0:soft-hitnormal2.ogg
402,192,79837,1,0,0:0:0:0:soft-hitnormal2.ogg
36,192,79952,1,0,0:0:0:0:soft-hitnormal2.ogg
475,192,79952,1,0,0:0:0:0:soft-hitnormal2.ogg
109,192,80068,1,0,0:0:0:0:soft-hitnormal2.ogg
402,192,80068,1,0,0:0:0:0:soft-hitnormal2.ogg
36,192,80183,1,0,0:0:0:0:soft-hitnormal2.ogg
475,192,80183,1,0,0:0:0:0:soft-hitnormal2.ogg
109,192,80298,1,0,0:0:0:0:soft-hitnormal2.ogg
402,192,80298,1,0,0:0:0:0:soft-hitnormal2.ogg
36,192,80414,1,0,0:0:0:0:soft-hitnormal2.ogg
475,192,80414,1,0,0:0:0:0:soft-hitnormal2.ogg
109,192,82318,128,0,82548:0:0:0:0:
256,192,82318,128,0,82433:0:0:0:0:
402,192,82318,128,0,82548:0:0:0:0:
182,192,82433,128,0,82779:0:0:0:0:
36,0,82548,128,0,82779:0:0:0:0:soft-hitnormal2.ogg
329,0,82548,128,0,82895:0:0:0:0:soft-hitnormal2.ogg
256,0,82664,128,0,82779:0:0:0:0:soft-hitnormal2.ogg
475,0,82664,128,0,83010:0:0:0:0:soft-hitnormal2.ogg
109,0,82779,128,0,82895:0:0:0:0:soft-hitnormal2.ogg
402,0,82779,128,0,83125:0:0:0:0:soft-hitnormal2.ogg
36,0,82895,128,0,83010:0:0:0:0:soft-hitnormal2.ogg
256,0,82895,128,0,83241:0:0:0:0:soft-hitnormal2.ogg
109,0,83010,128,0,83241:0:0:0:0:soft-hitnormal2.ogg
329,0,83010,128,0,83471:0:0:0:0:soft-hitnormal2.ogg
36,0,83125,128,0,83356:0:0:0:0:soft-hitnormal2.ogg
475,0,83125,128,0,83356:0:0:0:0:soft-hitnormal2.ogg
182,0,83241,128,0,83471:0:0:0:0:soft-hitnormal2.ogg
402,0,83241,128,0,83818:0:0:0:0:soft-hitnormal2.ogg
109,0,83356,128,0,83702:0:0:0:0:soft-hitnormal2.ogg
256,0,83356,128,0,83587:0:0:0:0:soft-hitnormal2.ogg
36,0,83471,128,0,84048:0:0:0:0:soft-hitnormal2.ogg
475,0,83471,128,0,83587:0:0:0:0:soft-hitnormal2.ogg
182,0,83587,128,0,83818:0:0:0:0:soft-hitnormal2.ogg
329,0,83587,128,0,83702:0:0:0:0:soft-hitnormal2.ogg
256,0,83702,128,0,83933:0:0:0:0:soft-hitnormal2.ogg
475,0,83702,128,0,84048:0:0:0:0:soft-hitnormal2.ogg
109,0,83818,128,0,83933:0:0:0:0:soft-hitnormal2.ogg
329,0,83818,128,0,84164:0:0:0:0:soft-hitnormal2.ogg
182,0,83933,128,0,84395:0:0:0:0:soft-hitnormal2.ogg
402,0,83933,128,0,84395:0:0:0:0:soft-hitnormal2.ogg
109,0,84048,128,0,84164:0:0:0:0:soft-hitnormal2.ogg
256,0,84048,128,0,84279:0:0:0:0:soft-hitnormal2.ogg
475,0,84164,128,0,84279:0:0:0:0:soft-hitnormal2.ogg
36,0,84164,128,0,84510:0:0:0:0:soft-hitnormal2.ogg
109,0,84279,128,0,84741:0:0:0:0:soft-hitnormal2.ogg
329,0,84279,128,0,84856:0:0:0:0:soft-hitnormal2.ogg
256,0,84395,128,0,84625:0:0:0:0:soft-hitnormal2.ogg
475,0,84395,128,0,84510:0:0:0:0:soft-hitnormal2.ogg
182,0,84510,128,0,84625:0:0:0:0:soft-hitnormal2.ogg
402,0,84510,128,0,84741:0:0:0:0:soft-hitnormal2.ogg
36,0,84625,128,0,84856:0:0:0:0:soft-hitnormal2.ogg
475,0,84625,128,0,84971:0:0:0:0:soft-hitnormal2.ogg
182,0,84741,128,0,85318:0:0:0:0:soft-hitnormal2.ogg
256,0,84741,128,0,84971:0:0:0:0:soft-hitnormal2.ogg
109,0,84856,128,0,85087:0:0:0:0:soft-hitnormal2.ogg
402,0,84856,128,0,85433:0:0:0:0:soft-hitnormal2.ogg
36,0,84971,128,0,85202:0:0:0:0:soft-hitnormal2.ogg
329,0,84971,128,0,85087:0:0:0:0:soft-hitnormal2.ogg
256,0,85087,128,0,85548:0:0:0:0:soft-hitnormal2.ogg
475,0,85087,128,0,85202:0:0:0:0:soft-hitnormal2.ogg
109,0,85202,128,0,85433:0:0:0:0:soft-hitnormal2.ogg
329,0,85202,128,0,85318:0:0:0:0:soft-hitnormal2.ogg
36,0,85318,128,0,85895:0:0:0:0:soft-hitnormal2.ogg
475,0,85318,128,0,85664:0:0:0:0:soft-hitnormal2.ogg
182,0,85433,128,0,85779:0:0:0:0:soft-hitnormal2.ogg
329,0,85433,128,0,85548:0:0:0:0:soft-hitnormal2.ogg
109,0,85548,128,0,85664:0:0:0:0:soft-hitnormal2.ogg
402,0,85548,128,0,85779:0:0:0:0:soft-hitnormal2.ogg
329,0,85664,128,0,86010:0:0:0:0:soft-hitnormal2.ogg
256,0,85664,128,0,86241:0:0:0:0:soft-hitnormal2.ogg
109,0,85779,128,0,86010:0:0:0:0:soft-hitnormal2.ogg
475,0,85779,128,0,85895:0:0:0:0:soft-hitnormal2.ogg
182,0,85895,128,0,86125:0:0:0:0:soft-hitnormal2.ogg
402,0,85895,128,0,86125:0:0:0:0:soft-hitnormal2.ogg
36,0,86010,128,0,86241:0:0:0:0:soft-hitnormal2.ogg
475,0,86010,128,0,86471:0:0:0:0:soft-hitnormal2.ogg
109,0,86125,128,0,86356:0:0:0:0:soft-hitnormal2.ogg
329,0,86125,128,0,86818:0:0:0:0:soft-hitnormal2.ogg
182,0,86241,128,0,86356:0:0:0:0:soft-hitnormal2.ogg
402,0,86241,128,0,86356:0:0:0:0:soft-hitnormal2.ogg
36,0,86356,128,0,86471:0:0:0:0:soft-hitnormal2.ogg
256,0,86356,128,0,86471:0:0:0:0:soft-hitnormal2.ogg
109,0,86471,128,0,86587:0:0:0:0:soft-hitnormal2.ogg
402,0,86471,128,0,86587:0:0:0:0:soft-hitnormal2.ogg
256,0,86587,128,0,86702:0:0:0:0:soft-hitnormal2.ogg
475,0,86587,128,0,86702:0:0:0:0:soft-hitnormal2.ogg
182,0,86702,128,0,86818:0:0:0:0:soft-hitnormal2.ogg
402,0,86702,128,0,86818:0:0:0:0:soft-hitnormal2.ogg
36,0,86818,128,0,86933:0:0:0:0:soft-hitnormal2.ogg
475,0,86818,128,0,86933:0:0:0:0:soft-hitnormal2.ogg
109,0,86933,128,0,87048:0:0:0:0:soft-hitnormal2.ogg
329,0,86933,128,0,87048:0:0:0:0:soft-hitnormal2.ogg
256,0,87048,128,0,87164:0:0:0:0:soft-hitnormal2.ogg
402,0,87048,128,0,87164:0:0:0:0:soft-hitnormal2.ogg
36,0,87164,128,0,87279:0:0:0:0:soft-hitnormal2.ogg
475,0,87164,128,0,87279:0:0:0:0:soft-hitnormal2.ogg
182,0,87279,128,0,87395:0:0:0:0:soft-hitnormal2.ogg
329,0,87279,128,0,87395:0:0:0:0:soft-hitnormal2.ogg
36,0,87395,128,0,87510:0:0:0:0:soft-hitnormal2.ogg
256,0,87395,128,0,87510:0:0:0:0:soft-hitnormal2.ogg
182,0,87510,128,0,87625:0:0:0:0:soft-hitnormal2.ogg
402,0,87510,128,0,87625:0:0:0:0:soft-hitnormal2.ogg
109,0,87625,128,0,87741:0:0:0:0:soft-hitnormal2.ogg
329,0,87625,128,0,87741:0:0:0:0:soft-hitnormal2.ogg
256,0,87741,128,0,87856:0:0:0:0:soft-hitnormal2.ogg
402,0,87741,128,0,87856:0:0:0:0:soft-hitnormal2.ogg
36,0,87856,128,0,87971:0:0:0:0:soft-hitnormal2.ogg
475,0,87856,128,0,87971:0:0:0:0:soft-hitnormal2.ogg
182,0,87971,128,0,88087:0:0:0:0:soft-hitnormal2.ogg
402,0,87971,128,0,88087:0:0:0:0:soft-hitnormal2.ogg
36,0,88087,128,0,88202:0:0:0:0:soft-hitnormal2.ogg
256,0,88087,128,0,88202:0:0:0:0:soft-hitnormal2.ogg
109,0,88202,128,0,88318:0:0:0:0:soft-hitnormal2.ogg
329,0,88202,128,0,88318:0:0:0:0:soft-hitnormal2.ogg
36,0,88318,128,0,88433:0:0:0:0:soft-hitnormal2.ogg
475,0,88318,128,0,88433:0:0:0:0:soft-hitnormal2.ogg
256,0,88433,128,0,88548:0:0:0:0:soft-hitnormal2.ogg
329,0,88433,128,0,88548:0:0:0:0:soft-hitnormal2.ogg
109,0,88548,128,0,88664:0:0:0:0:soft-hitnormal2.ogg
402,0,88548,128,0,88664:0:0:0:0:soft-hitnormal2.ogg
182,0,88664,128,0,88779:0:0:0:0:soft-hitnormal2.ogg
475,0,88664,128,0,88779:0:0:0:0:soft-hitnormal2.ogg
36,0,88779,128,0,88895:0:0:0:0:soft-hitnormal2.ogg
256,0,88779,128,0,88895:0:0:0:0:soft-hitnormal2.ogg
182,0,88895,128,0,89010:0:0:0:0:soft-hitnormal2.ogg
402,0,88895,128,0,89010:0:0:0:0:soft-hitnormal2.ogg
36,0,89010,128,0,89125:0:0:0:0:soft-hitnormal2.ogg
475,0,89010,128,0,89125:0:0:0:0:soft-hitnormal2.ogg
182,0,89125,128,0,89241:0:0:0:0:soft-hitnormal2.ogg
329,0,89125,128,0,89241:0:0:0:0:soft-hitnormal2.ogg
109,0,89241,128,0,89356:0:0:0:0:soft-hitnormal2.ogg
402,0,89241,128,0,89356:0:0:0:0:soft-hitnormal2.ogg
182,0,89356,128,0,89471:0:0:0:0:soft-hitnormal2.ogg
256,0,89356,128,0,89471:0:0:0:0:soft-hitnormal2.ogg
36,0,89471,128,0,89587:0:0:0:0:soft-hitnormal2.ogg
402,0,89471,128,0,89587:0:0:0:0:soft-hitnormal2.ogg
109,0,89587,128,0,89702:0:0:0:0:soft-hitnormal2.ogg
329,0,89587,128,0,89702:0:0:0:0:soft-hitnormal2.ogg
36,0,89702,128,0,89818:0:0:0:0:soft-hitnormal2.ogg
475,0,89702,128,0,89818:0:0:0:0:soft-hitnormal2.ogg
182,0,89818,128,0,89933:0:0:0:0:soft-hitnormal2.ogg
329,0,89818,128,0,89933:0:0:0:0:soft-hitnormal2.ogg
109,0,89933,128,0,89991:0:0:0:0:soft-hitnormal2.ogg
475,0,89933,128,0,89991:0:0:0:0:soft-hitnormal2.ogg
182,0,90048,128,0,90106:0:0:0:0:soft-hitnormal2.ogg
402,0,90048,128,0,90106:0:0:0:0:soft-hitnormal2.ogg
36,0,90164,128,0,90221:0:0:0:0:soft-hitnormal2.ogg
256,0,90164,128,0,90221:0:0:0:0:soft-hitnormal2.ogg
182,0,90279,128,0,90337:0:0:0:0:soft-hitnormal2.ogg
475,0,90279,128,0,90337:0:0:0:0:soft-hitnormal2.ogg
109,0,90395,128,0,90452:0:0:0:0:soft-hitnormal2.ogg
329,0,90395,128,0,90452:0:0:0:0:soft-hitnormal2.ogg
182,0,90510,128,0,90568:0:0:0:0:soft-hitnormal2.ogg
402,0,90510,128,0,90568:0:0:0:0:soft-hitnormal2.ogg
36,0,90625,128,0,90683:0:0:0:0:soft-hitnormal2.ogg
256,0,90625,128,0,90683:0:0:0:0:soft-hitnormal2.ogg
329,0,90741,128,0,90798:0:0:0:0:soft-hitnormal2.ogg
475,0,90741,128,0,90798:0:0:0:0:soft-hitnormal2.ogg
109,0,90856,128,0,90914:0:0:0:0:soft-hitnormal2.ogg
256,0,90856,128,0,90914:0:0:0:0:soft-hitnormal2.ogg
182,0,90971,128,0,91029:0:0:0:0:soft-hitnormal2.ogg
329,0,90971,128,0,91029:0:0:0:0:soft-hitnormal2.ogg
36,0,91087,128,0,91145:0:0:0:0:soft-hitnormal2.ogg
475,0,91087,128,0,91145:0:0:0:0:soft-hitnormal2.ogg
109,0,91202,128,0,91260:0:0:0:0:soft-hitnormal2.ogg
402,0,91202,128,0,91260:0:0:0:0:soft-hitnormal2.ogg
36,0,91318,128,0,91375:0:0:0:0:soft-hitnormal2.ogg
256,0,91318,128,0,91375:0:0:0:0:soft-hitnormal2.ogg
182,0,91433,128,0,91491:0:0:0:0:soft-hitnormal2.ogg
475,0,91433,128,0,91491:0:0:0:0:soft-hitnormal2.ogg
36,0,91548,128,0,91606:0:0:0:0:soft-hitnormal2.ogg
256,0,91548,128,0,91606:0:0:0:0:soft-hitnormal2.ogg
109,0,91664,128,0,91721:0:0:0:0:soft-hitnormal2.ogg
329,0,91664,128,0,91721:0:0:0:0:soft-hitnormal2.ogg
182,0,91779,128,0,91837:0:0:0:0:soft-hitnormal2.ogg
475,0,91779,128,0,91837:0:0:0:0:soft-hitnormal2.ogg
109,0,91895,128,0,91952:0:0:0:0:soft-hitnormal2.ogg
329,0,91895,128,0,91952:0:0:0:0:soft-hitnormal2.ogg
256,0,92010,128,0,92068:0:0:0:0:soft-hitnormal2.ogg
475,0,92010,128,0,92068:0:0:0:0:soft-hitnormal2.ogg
109,0,92125,128,0,92183:0:0:0:0:soft-hitnormal2.ogg
329,0,92125,128,0,92183:0:0:0:0:soft-hitnormal2.ogg
36,0,92241,128,0,92298:0:0:0:0:soft-hitnormal2.ogg
402,0,92241,128,0,92298:0:0:0:0:soft-hitnormal2.ogg
182,0,92356,128,0,92414:0:0:0:0:soft-hitnormal2.ogg
36,0,92471,128,0,92529:0:0:0:0:soft-hitnormal2.ogg
329,0,92471,128,0,92529:0:0:0:0:soft-hitnormal2.ogg
109,0,92587,128,0,92645:0:0:0:0:soft-hitnormal2.ogg
475,0,92587,128,0,92645:0:0:0:0:soft-hitnormal2.ogg
182,0,92702,128,0,92760:0:0:0:0:soft-hitnormal2.ogg
402,0,92702,128,0,92760:0:0:0:0:soft-hitnormal2.ogg
256,0,92818,128,0,92875:0:0:0:0:soft-hitnormal2.ogg
475,0,92818,128,0,92875:0:0:0:0:soft-hitnormal2.ogg
109,0,92933,128,0,92991:0:0:0:0:soft-hitnormal2.ogg
402,0,92933,128,0,92991:0:0:0:0:soft-hitnormal2.ogg
36,0,93048,128,0,93106:0:0:0:0:soft-hitnormal2.ogg
256,0,93048,128,0,93106:0:0:0:0:soft-hitnormal2.ogg
182,0,93164,128,0,93221:0:0:0:0:soft-hitnormal2.ogg
402,0,93164,128,0,93221:0:0:0:0:soft-hitnormal2.ogg
109,0,93279,128,0,93337:0:0:0:0:soft-hitnormal2.ogg
329,0,93279,128,0,93337:0:0:0:0:soft-hitnormal2.ogg
256,0,93395,128,0,93452:0:0:0:0:soft-hitnormal2.ogg
475,0,93395,128,0,93452:0:0:0:0:soft-hitnormal2.ogg
36,0,93510,128,0,93568:0:0:0:0:soft-hitnormal2.ogg
402,0,93510,128,0,93568:0:0:0:0:soft-hitnormal2.ogg
182,192,93625,1,0,0:0:0:0:soft-hitnormal2.ogg
475,192,93625,1,0,0:0:0:0:soft-hitnormal2.ogg
109,192,93741,1,0,0:0:0:0:soft-hitnormal2.ogg
329,192,93741,1,0,0:0:0:0:soft-hitnormal2.ogg
256,192,93856,1,0,0:0:0:0:soft-hitnormal2.ogg
402,192,93856,1,0,0:0:0:0:soft-hitnormal2.ogg
36,192,93971,1,0,0:0:0:0:soft-hitnormal2.ogg
329,192,93971,1,0,0:0:0:0:soft-hitnormal2.ogg
182,192,94087,1,0,0:0:0:0:soft-hitnormal2.ogg
475,192,94087,1,0,0:0:0:0:soft-hitnormal2.ogg
109,192,94202,1,0,0:0:0:0:soft-hitnormal2.ogg
329,192,94202,1,0,0:0:0:0:soft-hitnormal2.ogg
256,192,94318,1,0,0:0:0:0:soft-hitnormal2.ogg
402,192,94318,1,0,0:0:0:0:soft-hitnormal2.ogg
36,192,94433,1,0,0:0:0:0:soft-hitnormal2.ogg
182,192,94433,1,0,0:0:0:0:soft-hitnormal2.ogg
256,192,94548,1,0,0:0:0:0:soft-hitnormal2.ogg
402,192,94548,1,0,0:0:0:0:soft-hitnormal2.ogg
182,192,94664,1,0,0:0:0:0:soft-hitnormal2.ogg
329,192,94664,1,0,0:0:0:0:soft-hitnormal2.ogg
36,192,94779,1,0,0:0:0:0:soft-hitnormal2.ogg
475,192,94779,1,0,0:0:0:0:soft-hitnormal2.ogg
109,192,94895,1,0,0:0:0:0:soft-hitnormal2.ogg
402,192,94895,1,0,0:0:0:0:soft-hitnormal2.ogg
256,192,95010,1,0,0:0:0:0:soft-hitnormal2.ogg
475,192,95010,1,0,0:0:0:0:soft-hitnormal2.ogg
36,192,95125,1,0,0:0:0:0:soft-hitnormal2.ogg
329,192,95125,1,0,0:0:0:0:soft-hitnormal2.ogg
256,192,95241,1,0,0:0:0:0:soft-hitnormal2.ogg
475,192,95241,1,0,0:0:0:0:soft-hitnormal2.ogg
182,192,95356,1,0,0:0:0:0:soft-hitnormal2.ogg
402,192,95356,1,0,0:0:0:0:soft-hitnormal2.ogg
36,192,95471,1,0,0:0:0:0:soft-hitnormal2.ogg
329,192,95471,1,0,0:0:0:0:soft-hitnormal2.ogg
182,192,95587,1,0,0:0:0:0:soft-hitnormal2.ogg
402,192,95587,1,0,0:0:0:0:soft-hitnormal2.ogg
36,192,95702,1,0,0:0:0:0:soft-hitnormal2.ogg
256,192,95702,1,0,0:0:0:0:soft-hitnormal2.ogg
182,192,95818,1,0,0:0:0:0:soft-hitnormal2.ogg
402,192,95818,1,0,0:0:0:0:soft-hitnormal2.ogg
109,192,95933,1,0,0:0:0:0:soft-hitnormal2.ogg
475,192,95933,1,0,0:0:0:0:soft-hitnormal2.ogg
329,192,96048,1,0,0:0:0:0:soft-hitnormal2.ogg
182,192,96164,1,0,0:0:0:0:soft-hitnormal2.ogg
475,192,96164,1,0,0:0:0:0:soft-hitnormal2.ogg
36,192,96279,1,0,0:0:0:0:soft-hitnormal2.ogg
402,192,96279,1,0,0:0:0:0:soft-hitnormal2.ogg
109,192,96395,1,0,0:0:0:0:soft-hitnormal2.ogg
329,192,96395,1,0,0:0:0:0:soft-hitnormal2.ogg
36,192,96596,1,0,0:0:0:0:soft-hitnormal2.ogg
329,192,96596,1,0,0:0:0:0:soft-hitnormal2.ogg
182,192,96770,1,0,0:0:0:0:soft-hitnormal2.ogg
475,192,96770,1,0,0:0:0:0:soft-hitnormal2.ogg
109,192,96943,1,0,0:0:0:0:soft-hitnormal2.ogg
402,192,96943,1,0,0:0:0:0:soft-hitnormal2.ogg
36,0,97116,128,0,98962:0:0:0:0:soft-hitnormal2.ogg
256,0,97116,128,0,98962:0:0:0:0:soft-hitnormal2.ogg
182,0,97808,128,0,99654:0:0:0:0:soft-hitnormal2.ogg
475,0,97808,128,0,99654:0:0:0:0:soft-hitnormal2.ogg
109,0,98962,128,0,100000:0:0:0:0:soft-hitnormal2.ogg
402,0,98962,128,0,100000:0:0:0:0:soft-hitnormal2.ogg
36,0,99654,128,0,100346:0:0:0:0:soft-hitnormal2.ogg
329,0,99654,128,0,100346:0:0:0:0:soft-hitnormal2.ogg
182,0,100000,128,0,100808:0:0:0:0:soft-hitnormal2.ogg
475,0,100000,128,0,100808:0:0:0:0:soft-hitnormal2.ogg
109,0,100346,128,0,101500:0:0:0:0:soft-hitnormal2.ogg
256,0,100346,128,0,101500:0:0:0:0:soft-hitnormal2.ogg
36,0,100808,128,0,102654:0:0:0:0:soft-hitnormal2.ogg
402,0,100808,128,0,102654:0:0:0:0:soft-hitnormal2.ogg
182,0,101500,128,0,103346:0:0:0:0:soft-hitnormal2.ogg
329,0,101500,128,0,103346:0:0:0:0:soft-hitnormal2.ogg
109,0,102654,128,0,103808:0:0:0:0:soft-hitnormal2.ogg
475,0,102654,128,0,103808:0:0:0:0:soft-hitnormal2.ogg
256,0,103346,128,0,104154:0:0:0:0:soft-hitnormal2.ogg
402,0,103346,128,0,104154:0:0:0:0:soft-hitnormal2.ogg
36,0,103808,128,0,104500:0:0:0:0:soft-hitnormal2.ogg
329,0,103808,128,0,104500:0:0:0:0:soft-hitnormal2.ogg
182,0,104154,128,0,105193:0:0:0:0:soft-hitnormal2.ogg
475,0,104154,128,0,105193:0:0:0:0:soft-hitnormal2.ogg
109,0,104500,128,0,106346:0:0:0:0:soft-hitnormal2.ogg
402,0,104500,128,0,106346:0:0:0:0:soft-hitnormal2.ogg
36,0,105193,128,0,107039:0:0:0:0:soft-hitnormal2.ogg
256,0,105193,128,0,107039:0:0:0:0:soft-hitnormal2.ogg
182,0,106346,128,0,107500:0:0:0:0:soft-hitnormal2.ogg
329,0,106346,128,0,107500:0:0:0:0:soft-hitnormal2.ogg
109,0,107039,128,0,107962:0:0:0:0:soft-hitnormal2.ogg
475,0,107039,128,0,107962:0:0:0:0:soft-hitnormal2.ogg
36,0,107500,128,0,108193:0:0:0:0:soft-hitnormal2.ogg
402,0,107500,128,0,108193:0:0:0:0:soft-hitnormal2.ogg
182,0,107962,128,0,108885:0:0:0:0:soft-hitnormal2.ogg
256,0,107962,128,0,108885:0:0:0:0:soft-hitnormal2.ogg
109,0,108193,128,0,110039:0:0:0:0:soft-hitnormal2.ogg
329,0,108193,128,0,110039:0:0:0:0:soft-hitnormal2.ogg
36,0,108885,128,0,110731:0:0:0:0:soft-hitnormal2.ogg
475,0,108885,128,0,110731:0:0:0:0:soft-hitnormal2.ogg
182,0,110039,128,0,111654:0:0:0:0:soft-hitnormal2.ogg
402,0,110039,128,0,111654:0:0:0:0:soft-hitnormal2.ogg
109,0,110731,128,0,111885:0:0:0:0:soft-hitnormal2.ogg
256,0,110731,128,0,111885:0:0:0:0:soft-hitnormal2.ogg
182,0,111885,128,0,113731:0:0:0:0:soft-hitnormal2.ogg
402,0,111885,128,0,113731:0:0:0:0:soft-hitnormal2.ogg
109,0,113731,128,0,114654:0:0:0:0:soft-hitnormal2.ogg
329,0,113731,128,0,114654:0:0:0:0:soft-hitnormal2.ogg
182,0,114654,128,0,115577:0:0:0:0:soft-hitnormal2.ogg
402,0,114654,128,0,115577:0:0:0:0:soft-hitnormal2.ogg
109,0,115577,128,0,117423:0:0:0:0:soft-hitnormal2.ogg
475,0,115577,128,0,117423:0:0:0:0:soft-hitnormal2.ogg
182,0,117423,128,0,117885:0:0:0:0:soft-hitnormal2.ogg
402,0,117423,128,0,117885:0:0:0:0:soft-hitnormal2.ogg
109,0,117885,128,0,118346:0:0:0:0:soft-hitnormal2.ogg
329,0,117885,128,0,118346:0:0:0:0:soft-hitnormal2.ogg
256,0,118346,128,0,119270:0:0:0:0:soft-hitnormal2.ogg
36,192,119270,1,0,0:0:0:0:soft-hitnormal2.ogg
256,192,119500,1,0,0:0:0:0:soft-hitnormal2.ogg
36,192,119731,1,0,0:0:0:0:soft-hitnormal2.ogg
402,192,119731,1,0,0:0:0:0:soft-hitnormal2.ogg
109,192,119962,1,0,0:0:0:0:soft-hitnormal2.ogg
475,192,120077,1,0,0:0:0:0:soft-hitnormal2.ogg
182,192,120193,1,0,0:0:0:0:soft-hitnormal2.ogg
329,192,120308,1,0,0:0:0:0:soft-hitnormal2.ogg
36,192,120423,1,0,0:0:0:0:soft-hitnormal2.ogg
109,192,120654,1,0,0:0:0:0:soft-hitnormal2.ogg
475,192,120654,1,0,0:0:0:0:soft-hitnormal2.ogg
256,192,120885,1,0,0:0:0:0:soft-hitnormal2.ogg
402,192,121000,1,0,0:0:0:0:soft-hitnormal2.ogg
109,192,121116,1,0,0:0:0:0:soft-hitnormal2.ogg
402,192,121346,1,0,0:0:0:0:soft-hitnormal2.ogg
36,192,121577,1,0,0:0:0:0:soft-hitnormal2.ogg
256,192,121577,1,0,0:0:0:0:soft-hitnormal2.ogg
109,192,121808,1,0,0:0:0:0:soft-hitnormal2.ogg
256,192,121923,1,0,0:0:0:0:soft-hitnormal2.ogg
475,192,122039,1,0,0:0:0:0:soft-hitnormal2.ogg
109,192,122154,1,0,0:0:0:0:soft-hitnormal2.ogg
329,192,122270,1,0,0:0:0:0:soft-hitnormal2.ogg
109,192,122500,1,0,0:0:0:0:soft-hitnormal2.ogg
402,192,122500,1,0,0:0:0:0:soft-hitnormal2.ogg
475,192,122731,1,0,0:0:0:0:soft-hitnormal2.ogg
256,192,122846,1,0,0:0:0:0:soft-hitnormal2.ogg
329,192,122962,1,0,0:0:0:0:soft-hitnormal2.ogg
109,192,123193,1,0,0:0:0:0:soft-hitnormal2.ogg
36,192,123423,1,0,0:0:0:0:soft-hitnormal2.ogg
402,192,123423,1,0,0:0:0:0:soft-hitnormal2.ogg
256,192,123654,1,0,0:0:0:0:soft-hitnormal2.ogg
475,192,123770,1,0,0:0:0:0:soft-hitnormal2.ogg
36,192,123885,1,0,0:0:0:0:soft-hitnormal2.ogg
329,192,124000,1,0,0:0:0:0:soft-hitnormal2.ogg
182,192,124116,1,0,0:0:0:0:soft-hitnormal2.ogg
109,192,124346,1,0,0:0:0:0:soft-hitnormal2.ogg
402,192,124346,1,0,0:0:0:0:soft-hitnormal2.ogg
182,192,124577,1,0,0:0:0:0:soft-hitnormal2.ogg
329,192,124693,1,0,0:0:0:0:soft-hitnormal2.ogg
36,0,124808,128,0,126654:0:0:0:0:soft-hitnormal2.ogg
109,0,124808,128,0,126654:0:0:0:0:soft-hitnormal2.ogg
402,0,124808,128,0,126654:0:0:0:0:soft-hitnormal2.ogg
475,0,124808,128,0,126654:0:0:0:0:soft-hitnormal2.ogg
182,0,126654,128,0,126885:0:0:0:0:soft-hitnormal2.ogg
329,0,126654,128,0,126770:0:0:0:0:soft-hitnormal2.ogg
36,0,126770,128,0,127346:0:0:0:0:soft-hitnormal2.ogg
256,0,126770,128,0,127000:0:0:0:0:soft-hitnormal2.ogg
109,0,126885,128,0,127231:0:0:0:0:soft-hitnormal2.ogg
329,0,126885,128,0,127231:0:0:0:0:soft-hitnormal2.ogg
182,0,127000,128,0,127116:0:0:0:0:soft-hitnormal2.ogg
402,0,127000,128,0,127116:0:0:0:0:soft-hitnormal2.ogg
256,0,127116,128,0,127346:0:0:0:0:soft-hitnormal2.ogg
475,0,127116,128,0,127693:0:0:0:0:soft-hitnormal2.ogg
182,0,127231,128,0,127577:0:0:0:0:soft-hitnormal2.ogg
402,0,127231,128,0,127577:0:0:0:0:soft-hitnormal2.ogg
109,0,127346,128,0,127462:0:0:0:0:soft-hitnormal2.ogg
329,0,127346,128,0,127462:0:0:0:0:soft-hitnormal2.ogg
36,0,127462,128,0,128039:0:0:0:0:soft-hitnormal2.ogg
256,0,127462,128,0,127693:0:0:0:0:soft-hitnormal2.ogg
109,0,127577,128,0,127923:0:0:0:0:soft-hitnormal2.ogg
329,0,127577,128,0,127923:0:0:0:0:soft-hitnormal2.ogg
182,0,127693,128,0,127808:0:0:0:0:soft-hitnormal2.ogg
402,0,127693,128,0,127808:0:0:0:0:soft-hitnormal2.ogg
256,0,127808,128,0,128039:0:0:0:0:soft-hitnormal2.ogg
475,0,127808,128,0,128385:0:0:0:0:soft-hitnormal2.ogg
182,0,127923,128,0,128270:0:0:0:0:soft-hitnormal2.ogg
402,0,127923,128,0,128270:0:0:0:0:soft-hitnormal2.ogg
109,0,128039,128,0,128154:0:0:0:0:soft-hitnormal2.ogg
329,0,128039,128,0,128154:0:0:0:0:soft-hitnormal2.ogg
36,0,128154,128,0,128846:0:0:0:0:soft-hitnormal2.ogg
256,0,128154,128,0,128500:0:0:0:0:soft-hitnormal2.ogg
329,0,128270,128,0,128385:0:0:0:0:soft-hitnormal2.ogg
109,0,128270,128,0,128731:0:0:0:0:soft-hitnormal2.ogg
182,0,128385,128,0,128616:0:0:0:0:soft-hitnormal2.ogg
402,0,128385,128,0,128500:0:0:0:0:soft-hitnormal2.ogg
329,0,128500,128,0,128616:0:0:0:0:soft-hitnormal2.ogg
475,0,128500,128,0,129308:0:0:0:0:soft-hitnormal2.ogg
256,0,128616,128,0,128731:0:0:0:0:soft-hitnormal2.ogg
402,0,128616,128,0,129193:0:0:0:0:soft-hitnormal2.ogg
182,0,128731,128,0,128846:0:0:0:0:soft-hitnormal2.ogg
329,0,128731,128,0,129077:0:0:0:0:soft-hitnormal2.ogg
109,0,128846,128,0,128962:0:0:0:0:soft-hitnormal2.ogg
256,0,128846,128,0,128962:0:0:0:0:soft-hitnormal2.ogg
36,0,128962,128,0,129770:0:0:0:0:soft-hitnormal2.ogg
182,0,128962,128,0,129077:0:0:0:0:soft-hitnormal2.ogg
109,0,129077,128,0,129654:0:0:0:0:soft-hitnormal2.ogg
256,0,129077,128,0,129193:0:0:0:0:soft-hitnormal2.ogg
182,0,129193,128,0,129539:0:0:0:0:soft-hitnormal2.ogg
329,0,129193,128,0,129308:0:0:0:0:soft-hitnormal2.ogg
256,0,129308,128,0,129423:0:0:0:0:soft-hitnormal2.ogg
402,0,129308,128,0,129423:0:0:0:0:soft-hitnormal2.ogg
329,0,129423,128,0,129539:0:0:0:0:soft-hitnormal2.ogg
475,0,129423,128,0,130346:0:0:0:0:soft-hitnormal2.ogg
256,0,129539,128,0,129654:0:0:0:0:soft-hitnormal2.ogg
402,0,129539,128,0,130116:0:0:0:0:soft-hitnormal2.ogg
182,0,129654,128,0,129770:0:0:0:0:soft-hitnormal2.ogg
329,0,129654,128,0,130000:0:0:0:0:soft-hitnormal2.ogg
109,0,129770,128,0,129885:0:0:0:0:soft-hitnormal2.ogg
256,0,129770,128,0,129885:0:0:0:0:soft-hitnormal2.ogg
182,0,129885,128,0,130000:0:0:0:0:soft-hitnormal2.ogg
36,0,129885,128,0,130346:0:0:0:0:soft-hitnormal2.ogg
109,0,130000,128,0,130231:0:0:0:0:soft-hitnormal2.ogg
256,0,130000,128,0,130116:0:0:0:0:soft-hitnormal2.ogg
329,0,130116,128,0,130231:0:0:0:0:soft-hitnormal2.ogg
182,0,130116,128,0,130462:0:0:0:0:soft-hitnormal2.ogg
256,0,130231,128,0,130346:0:0:0:0:soft-hitnormal2.ogg
402,0,130231,128,0,130462:0:0:0:0:soft-hitnormal2.ogg
109,0,130346,128,0,130577:0:0:0:0:soft-hitnormal2.ogg
329,0,130346,128,0,130577:0:0:0:0:soft-hitnormal2.ogg
36,0,130462,128,0,130693:0:0:0:0:soft-hitnormal2.ogg
256,0,130462,128,0,130693:0:0:0:0:soft-hitnormal2.ogg
475,0,130462,128,0,130693:0:0:0:0:soft-hitnormal2.ogg
182,0,130577,128,0,130808:0:0:0:0:soft-hitnormal2.ogg
402,0,130577,128,0,130808:0:0:0:0:soft-hitnormal2.ogg
109,0,130693,128,0,130923:0:0:0:0:soft-hitnormal2.ogg
329,0,130693,128,0,130923:0:0:0:0:soft-hitnormal2.ogg
36,0,130808,128,0,131039:0:0:0:0:soft-hitnormal2.ogg
256,0,130808,128,0,131039:0:0:0:0:soft-hitnormal2.ogg
475,0,130808,128,0,131039:0:0:0:0:soft-hitnormal2.ogg
182,0,130923,128,0,131154:0:0:0:0:soft-hitnormal2.ogg
402,0,130923,128,0,131154:0:0:0:0:soft-hitnormal2.ogg
109,0,131039,128,0,131270:0:0:0:0:soft-hitnormal2.ogg
329,0,131039,128,0,131270:0:0:0:0:soft-hitnormal2.ogg
36,0,131154,128,0,131385:0:0:0:0:soft-hitnormal2.ogg
256,0,131154,128,0,131385:0:0:0:0:soft-hitnormal2.ogg
475,0,131154,128,0,131385:0:0:0:0:soft-hitnormal2.ogg
182,0,131270,128,0,131500:0:0:0:0:soft-hitnormal2.ogg
402,0,131270,128,0,131500:0:0:0:0:soft-hitnormal2.ogg
109,0,131385,128,0,131616:0:0:0:0:soft-hitnormal2.ogg
329,0,131385,128,0,131616:0:0:0:0:soft-hitnormal2.ogg
36,0,131500,128,0,131731:0:0:0:0:soft-hitnormal2.ogg
256,0,131500,128,0,131731:0:0:0:0:soft-hitnormal2.ogg
475,0,131500,128,0,131731:0:0:0:0:soft-hitnormal2.ogg
182,0,131616,128,0,131846:0:0:0:0:soft-hitnormal2.ogg
402,0,131616,128,0,131846:0:0:0:0:soft-hitnormal2.ogg
109,0,131731,128,0,131962:0:0:0:0:soft-hitnormal2.ogg
329,0,131731,128,0,131962:0:0:0:0:soft-hitnormal2.ogg
36,0,131846,128,0,132077:0:0:0:0:soft-hitnormal2.ogg
256,0,131846,128,0,132193:0:0:0:0:soft-hitnormal2.ogg
475,0,131846,128,0,133000:0:0:0:0:soft-hitnormal2.ogg
182,0,131962,128,0,132077:0:0:0:0:soft-hitnormal2.ogg
402,0,131962,128,0,132654:0:0:0:0:soft-hitnormal2.ogg
109,0,132077,128,0,132193:0:0:0:0:soft-hitnormal2.ogg
329,0,132077,128,0,132308:0:0:0:0:soft-hitnormal2.ogg
36,0,132193,128,0,133923:0:0:0:0:soft-hitnormal2.ogg
182,0,132193,128,0,132308:0:0:0:0:soft-hitnormal2.ogg
109,0,132308,128,0,132423:0:0:0:0:soft-hitnormal2.ogg
256,0,132308,128,0,132423:0:0:0:0:soft-hitnormal2.ogg
182,0,132423,128,0,132539:0:0:0:0:soft-hitnormal2.ogg
329,0,132423,128,0,132539:0:0:0:0:soft-hitnormal2.ogg
109,0,132539,128,0,133808:0:0:0:0:soft-hitnormal2.ogg
256,0,132539,128,0,132654:0:0:0:0:soft-hitnormal2.ogg
182,0,132654,128,0,132770:0:0:0:0:soft-hitnormal2.ogg
329,0,132654,128,0,132770:0:0:0:0:soft-hitnormal2.ogg
256,0,132770,128,0,132885:0:0:0:0:soft-hitnormal2.ogg
402,0,132770,128,0,132885:0:0:0:0:soft-hitnormal2.ogg
182,0,132885,128,0,133462:0:0:0:0:soft-hitnormal2.ogg
329,0,132885,128,0,133000:0:0:0:0:soft-hitnormal2.ogg
256,0,133000,128,0,133116:0:0:0:0:soft-hitnormal2.ogg
402,0,133000,128,0,133116:0:0:0:0:soft-hitnormal2.ogg
329,0,133116,128,0,133231:0:0:0:0:soft-hitnormal2.ogg
475,0,133116,128,0,133231:0:0:0:0:soft-hitnormal2.ogg
256,0,133231,128,0,133346:0:0:0:0:soft-hitnormal2.ogg
402,0,133231,128,0,133346:0:0:0:0:soft-hitnormal2.ogg
329,0,133346,128,0,133462:0:0:0:0:soft-hitnormal2.ogg
475,0,133346,128,0,133923:0:0:0:0:soft-hitnormal2.ogg
256,0,133462,128,0,133577:0:0:0:0:soft-hitnormal2.ogg
402,0,133462,128,0,133577:0:0:0:0:soft-hitnormal2.ogg
182,0,133577,128,0,133693:0:0:0:0:soft-hitnormal2.ogg
329,0,133577,128,0,133693:0:0:0:0:soft-hitnormal2.ogg
256,0,133693,128,0,133808:0:0:0:0:soft-hitnormal2.ogg
402,0,133693,128,0,134039:0:0:0:0:soft-hitnormal2.ogg
182,0,133808,128,0,134154:0:0:0:0:soft-hitnormal2.ogg
329,0,133808,128,0,134154:0:0:0:0:soft-hitnormal2.ogg
109,0,133923,128,0,134039:0:0:0:0:soft-hitnormal2.ogg
256,0,133923,128,0,134270:0:0:0:0:soft-hitnormal2.ogg
36,0,134039,128,0,134154:0:0:0:0:soft-hitnormal2.ogg
475,0,134039,128,0,134154:0:0:0:0:soft-hitnormal2.ogg
109,0,134154,128,0,134270:0:0:0:0:soft-hitnormal2.ogg
402,0,134154,128,0,134270:0:0:0:0:soft-hitnormal2.ogg
182,0,134270,128,0,134385:0:0:0:0:soft-hitnormal2.ogg
329,0,134270,128,0,134385:0:0:0:0:soft-hitnormal2.ogg
256,0,134385,128,0,134500:0:0:0:0:soft-hitnormal2.ogg
182,0,134500,128,0,134616:0:0:0:0:soft-hitnormal2.ogg
329,0,134500,128,0,134616:0:0:0:0:soft-hitnormal2.ogg
109,0,134616,128,0,134731:0:0:0:0:soft-hitnormal2.ogg
402,0,134616,128,0,134731:0:0:0:0:soft-hitnormal2.ogg
36,0,134731,128,0,134846:0:0:0:0:soft-hitnormal2.ogg
475,0,134731,128,0,134846:0:0:0:0:soft-hitnormal2.ogg
109,0,134846,128,0,134962:0:0:0:0:soft-hitnormal2.ogg
402,0,134846,128,0,134962:0:0:0:0:soft-hitnormal2.ogg
182,0,134962,128,0,135077:0:0:0:0:soft-hitnormal2.ogg
329,0,134962,128,0,135077:0:0:0:0:soft-hitnormal2.ogg
256,0,135077,128,0,135193:0:0:0:0:soft-hitnormal2.ogg
182,0,135193,128,0,135308:0:0:0:0:soft-hitnormal2.ogg
329,0,135193,128,0,135308:0:0:0:0:soft-hitnormal2.ogg
109,0,135308,128,0,135423:0:0:0:0:soft-hitnormal2.ogg
402,0,135308,128,0,135423:0:0:0:0:soft-hitnormal2.ogg
36,0,135423,128,0,135539:0:0:0:0:soft-hitnormal2.ogg
475,0,135423,128,0,135539:0:0:0:0:soft-hitnormal2.ogg
109,0,135539,128,0,135654:0:0:0:0:soft-hitnormal2.ogg
402,0,135539,128,0,135654:0:0:0:0:soft-hitnormal2.ogg
182,0,135654,128,0,135770:0:0:0:0:soft-hitnormal2.ogg
329,0,135654,128,0,135770:0:0:0:0:soft-hitnormal2.ogg
256,0,135770,128,0,135885:0:0:0:0:soft-hitnormal2.ogg
182,0,135885,128,0,136000:0:0:0:0:soft-hitnormal2.ogg
402,0,135885,128,0,136000:0:0:0:0:soft-hitnormal2.ogg
256,0,136000,128,0,136116:0:0:0:0:soft-hitnormal2.ogg
475,0,136000,128,0,136116:0:0:0:0:soft-hitnormal2.ogg
182,0,136116,128,0,136231:0:0:0:0:soft-hitnormal2.ogg
402,0,136116,128,0,136231:0:0:0:0:soft-hitnormal2.ogg
109,0,136231,128,0,136346:0:0:0:0:soft-hitnormal2.ogg
329,0,136231,128,0,136346:0:0:0:0:soft-hitnormal2.ogg
182,0,136346,128,0,136462:0:0:0:0:soft-hitnormal2.ogg
402,0,136346,128,0,136462:0:0:0:0:soft-hitnormal2.ogg
109,0,136462,128,0,136577:0:0:0:0:soft-hitnormal2.ogg
329,0,136462,128,0,136577:0:0:0:0:soft-hitnormal2.ogg
36,0,136577,128,0,136693:0:0:0:0:soft-hitnormal2.ogg
256,0,136577,128,0,136693:0:0:0:0:soft-hitnormal2.ogg
109,0,136693,128,0,136808:0:0:0:0:soft-hitnormal2.ogg
329,0,136693,128,0,136808:0:0:0:0:soft-hitnormal2.ogg
36,0,136808,128,0,136923:0:0:0:0:soft-hitnormal2.ogg
256,0,136808,128,0,136923:0:0:0:0:soft-hitnormal2.ogg
109,0,136923,128,0,137039:0:0:0:0:soft-hitnormal2.ogg
329,0,136923,128,0,137039:0:0:0:0:soft-hitnormal2.ogg
182,0,137039,128,0,137154:0:0:0:0:soft-hitnormal2.ogg
402,0,137039,128,0,137154:0:0:0:0:soft-hitnormal2.ogg
109,0,137154,128,0,137270:0:0:0:0:soft-hitnormal2.ogg
329,0,137154,128,0,137270:0:0:0:0:soft-hitnormal2.ogg
182,0,137270,128,0,137385:0:0:0:0:soft-hitnormal2.ogg
402,0,137270,128,0,137385:0:0:0:0:soft-hitnormal2.ogg
256,0,137385,128,0,137500:0:0:0:0:soft-hitnormal2.ogg
475,0,137385,128,0,137500:0:0:0:0:soft-hitnormal2.ogg
182,0,137500,128,0,137616:0:0:0:0:soft-hitnormal2.ogg
402,0,137500,128,0,137616:0:0:0:0:soft-hitnormal2.ogg
256,0,137616,128,0,137731:0:0:0:0:soft-hitnormal2.ogg
475,0,137616,128,0,137731:0:0:0:0:soft-hitnormal2.ogg
109,0,137731,128,0,137846:0:0:0:0:soft-hitnormal2.ogg
402,0,137731,128,0,137846:0:0:0:0:soft-hitnormal2.ogg
36,0,137846,128,0,137962:0:0:0:0:soft-hitnormal2.ogg
329,0,137846,128,0,137962:0:0:0:0:soft-hitnormal2.ogg
109,0,137962,128,0,138077:0:0:0:0:soft-hitnormal2.ogg
402,0,137962,128,0,138077:0:0:0:0:soft-hitnormal2.ogg
182,0,138077,128,0,138193:0:0:0:0:soft-hitnormal2.ogg
475,0,138077,128,0,138193:0:0:0:0:soft-hitnormal2.ogg
109,0,138193,128,0,138308:0:0:0:0:soft-hitnormal2.ogg
402,0,138193,128,0,138308:0:0:0:0:soft-hitnormal2.ogg
256,0,138193,128,0,141423:0:0:0:0:soft-hitnormal2.ogg
36,0,138308,128,0,138423:0:0:0:0:soft-hitnormal2.ogg
329,0,138308,128,0,138423:0:0:0:0:soft-hitnormal2.ogg
109,0,138423,128,0,138539:0:0:0:0:soft-hitnormal2.ogg
402,0,138423,128,0,138539:0:0:0:0:soft-hitnormal2.ogg
182,0,138539,128,0,138654:0:0:0:0:soft-hitnormal2.ogg
475,0,138539,128,0,138654:0:0:0:0:soft-hitnormal2.ogg
109,0,138654,128,0,138770:0:0:0:0:soft-hitnormal2.ogg
402,0,138654,128,0,138770:0:0:0:0:soft-hitnormal2.ogg
36,0,138770,128,0,138885:0:0:0:0:soft-hitnormal2.ogg
329,0,138770,128,0,138885:0:0:0:0:soft-hitnormal2.ogg
109,0,138885,128,0,139000:0:0:0:0:soft-hitnormal2.ogg
402,0,138885,128,0,139000:0:0:0:0:soft-hitnormal2.ogg
182,0,139000,128,0,139116:0:0:0:0:soft-hitnormal2.ogg
329,0,139000,128,0,139116:0:0:0:0:soft-hitnormal2.ogg
109,0,139116,128,0,139231:0:0:0:0:soft-hitnormal2.ogg
402,0,139116,128,0,139231:0:0:0:0:soft-hitnormal2.ogg
36,0,139231,128,0,139346:0:0:0:0:soft-hitnormal2.ogg
475,0,139231,128,0,139346:0:0:0:0:soft-hitnormal2.ogg
109,0,139346,128,0,139462:0:0:0:0:soft-hitnormal2.ogg
402,0,139346,128,0,139462:0:0:0:0:soft-hitnormal2.ogg
182,0,139462,128,0,139577:0:0:0:0:soft-hitnormal2.ogg
329,0,139462,128,0,139577:0:0:0:0:soft-hitnormal2.ogg
329,192,140385,1,0,0:0:0:0:soft-hitnormal2.ogg
182,192,140500,1,0,0:0:0:0:soft-hitnormal2.ogg
329,192,140616,1,0,0:0:0:0:soft-hitnormal2.ogg
182,192,140731,1,0,0:0:0:0:soft-hitnormal2.ogg
329,192,140846,1,0,0:0:0:0:soft-hitnormal2.ogg
182,192,140962,1,0,0:0:0:0:soft-hitnormal2.ogg
329,192,141077,1,0,0:0:0:0:soft-hitnormal2.ogg
182,192,141193,1,0,0:0:0:0:soft-hitnormal2.ogg
329,192,141308,1,0,0:0:0:0:soft-hitnormal2.ogg
36,0,141423,128,0,142000:0:0:0:0:soft-hitnormal2.ogg
182,0,141423,128,0,141654:0:0:0:0:soft-hitnormal2.ogg
475,0,141423,128,0,142000:0:0:0:0:soft-hitnormal2.ogg
256,0,141539,128,0,141654:0:0:0:0:soft-hitnormal2.ogg
402,0,141539,128,0,141885:0:0:0:0:soft-hitnormal2.ogg
109,0,141654,128,0,141770:0:0:0:0:soft-hitnormal2.ogg
329,0,141654,128,0,141770:0:0:0:0:soft-hitnormal2.ogg
182,0,141770,128,0,141885:0:0:0:0:soft-hitnormal2.ogg
256,0,141770,128,0,142000:0:0:0:0:soft-hitnormal2.ogg
109,0,141885,128,0,142577:0:0:0:0:soft-hitnormal2.ogg
329,0,141885,128,0,142116:0:0:0:0:soft-hitnormal2.ogg
182,0,142000,128,0,142346:0:0:0:0:soft-hitnormal2.ogg
402,0,142000,128,0,142116:0:0:0:0:soft-hitnormal2.ogg
36,0,142116,128,0,142462:0:0:0:0:soft-hitnormal2.ogg
256,0,142116,128,0,142231:0:0:0:0:soft-hitnormal2.ogg
475,0,142116,128,0,142231:0:0:0:0:soft-hitnormal2.ogg
329,0,142231,128,0,142808:0:0:0:0:soft-hitnormal2.ogg
402,0,142231,128,0,142346:0:0:0:0:soft-hitnormal2.ogg
256,0,142346,128,0,142462:0:0:0:0:soft-hitnormal2.ogg
475,0,142346,128,0,142462:0:0:0:0:soft-hitnormal2.ogg
182,0,142462,128,0,142693:0:0:0:0:soft-hitnormal2.ogg
402,0,142462,128,0,142577:0:0:0:0:soft-hitnormal2.ogg
36,0,142577,128,0,143154:0:0:0:0:soft-hitnormal2.ogg
256,0,142577,128,0,142808:0:0:0:0:soft-hitnormal2.ogg
475,0,142577,128,0,142693:0:0:0:0:soft-hitnormal2.ogg
109,0,142693,128,0,142923:0:0:0:0:soft-hitnormal2.ogg
402,0,142693,128,0,142923:0:0:0:0:soft-hitnormal2.ogg
182,0,142808,128,0,143039:0:0:0:0:soft-hitnormal2.ogg
475,0,142808,128,0,143154:0:0:0:0:soft-hitnormal2.ogg
256,0,142923,128,0,143154:0:0:0:0:soft-hitnormal2.ogg
329,0,142923,128,0,143039:0:0:0:0:soft-hitnormal2.ogg
109,0,143039,128,0,143270:0:0:0:0:soft-hitnormal2.ogg
402,0,143039,128,0,143385:0:0:0:0:soft-hitnormal2.ogg
182,0,143154,128,0,143385:0:0:0:0:soft-hitnormal2.ogg
329,0,143154,128,0,143270:0:0:0:0:soft-hitnormal2.ogg
36,0,143270,128,0,143846:0:0:0:0:soft-hitnormal2.ogg
256,0,143270,128,0,143500:0:0:0:0:soft-hitnormal2.ogg
475,0,143270,128,0,143846:0:0:0:0:soft-hitnormal2.ogg
109,0,143385,128,0,143731:0:0:0:0:soft-hitnormal2.ogg
329,0,143385,128,0,143500:0:0:0:0:soft-hitnormal2.ogg
182,0,143500,128,0,143616:0:0:0:0:soft-hitnormal2.ogg
402,0,143500,128,0,143616:0:0:0:0:soft-hitnormal2.ogg
256,0,143616,128,0,143846:0:0:0:0:soft-hitnormal2.ogg
329,0,143616,128,0,143731:0:0:0:0:soft-hitnormal2.ogg
182,0,143731,128,0,143962:0:0:0:0:soft-hitnormal2.ogg
402,0,143731,128,0,144423:0:0:0:0:soft-hitnormal2.ogg
109,0,143846,128,0,143962:0:0:0:0:soft-hitnormal2.ogg
329,0,143846,128,0,144193:0:0:0:0:soft-hitnormal2.ogg
36,0,143962,128,0,144077:0:0:0:0:soft-hitnormal2.ogg
256,0,143962,128,0,144077:0:0:0:0:soft-hitnormal2.ogg
475,0,143962,128,0,144308:0:0:0:0:soft-hitnormal2.ogg
109,0,144077,128,0,144193:0:0:0:0:soft-hitnormal2.ogg
182,0,144077,128,0,144654:0:0:0:0:soft-hitnormal2.ogg
36,0,144193,128,0,144308:0:0:0:0:soft-hitnormal2.ogg
256,0,144193,128,0,144308:0:0:0:0:soft-hitnormal2.ogg
109,0,144308,128,0,144423:0:0:0:0:soft-hitnormal2.ogg
329,0,144308,128,0,144539:0:0:0:0:soft-hitnormal2.ogg
36,0,144423,128,0,144539:0:0:0:0:soft-hitnormal2.ogg
256,0,144423,128,0,144654:0:0:0:0:soft-hitnormal2.ogg
475,0,144423,128,0,145000:0:0:0:0:soft-hitnormal2.ogg
109,0,144539,128,0,144770:0:0:0:0:soft-hitnormal2.ogg
402,0,144539,128,0,144770:0:0:0:0:soft-hitnormal2.ogg
329,0,144654,128,0,144885:0:0:0:0:soft-hitnormal2.ogg
36,0,144654,128,0,145116:0:0:0:0:soft-hitnormal2.ogg
182,0,144770,128,0,144885:0:0:0:0:soft-hitnormal2.ogg
256,0,144770,128,0,145116:0:0:0:0:soft-hitnormal2.ogg
109,0,144885,128,0,145000:0:0:0:0:soft-hitnormal2.ogg
402,0,144885,128,0,145000:0:0:0:0:soft-hitnormal2.ogg
182,0,145000,128,0,145346:0:0:0:0:soft-hitnormal2.ogg
329,0,145000,128,0,145231:0:0:0:0:soft-hitnormal2.ogg
109,0,145116,128,0,145231:0:0:0:0:soft-hitnormal2.ogg
402,0,145116,128,0,145693:0:0:0:0:soft-hitnormal2.ogg
475,0,145116,128,0,145346:0:0:0:0:soft-hitnormal2.ogg
36,0,145231,128,0,145693:0:0:0:0:soft-hitnormal2.ogg
256,0,145231,128,0,145462:0:0:0:0:soft-hitnormal2.ogg
109,0,145346,128,0,145808:0:0:0:0:soft-hitnormal2.ogg
329,0,145346,128,0,145462:0:0:0:0:soft-hitnormal2.ogg
182,0,145462,128,0,145577:0:0:0:0:soft-hitnormal2.ogg
475,0,145462,128,0,145577:0:0:0:0:soft-hitnormal2.ogg
256,0,145577,128,0,145808:0:0:0:0:soft-hitnormal2.ogg
329,0,145577,128,0,145693:0:0:0:0:soft-hitnormal2.ogg
182,0,145693,128,0,145923:0:0:0:0:soft-hitnormal2.ogg
475,0,145693,128,0,146270:0:0:0:0:soft-hitnormal2.ogg
36,0,145808,128,0,146039:0:0:0:0:soft-hitnormal2.ogg
329,0,145808,128,0,145923:0:0:0:0:soft-hitnormal2.ogg
402,0,145808,128,0,146154:0:0:0:0:soft-hitnormal2.ogg
109,0,145923,128,0,146154:0:0:0:0:soft-hitnormal2.ogg
256,0,145923,128,0,146039:0:0:0:0:soft-hitnormal2.ogg
182,0,146039,128,0,146385:0:0:0:0:soft-hitnormal2.ogg
329,0,146039,128,0,146154:0:0:0:0:soft-hitnormal2.ogg
36,0,146154,128,0,146616:0:0:0:0:soft-hitnormal2.ogg
256,0,146154,128,0,146270:0:0:0:0:soft-hitnormal2.ogg
109,0,146270,128,0,146500:0:0:0:0:soft-hitnormal2.ogg
329,0,146270,128,0,146385:0:0:0:0:soft-hitnormal2.ogg
402,0,146270,128,0,146846:0:0:0:0:soft-hitnormal2.ogg
256,0,146385,128,0,146616:0:0:0:0:soft-hitnormal2.ogg
475,0,146385,128,0,146500:0:0:0:0:soft-hitnormal2.ogg
182,0,146500,128,0,146731:0:0:0:0:soft-hitnormal2.ogg
329,0,146500,128,0,146731:0:0:0:0:soft-hitnormal2.ogg
109,0,146616,128,0,146846:0:0:0:0:soft-hitnormal2.ogg
475,0,146616,128,0,146962:0:0:0:0:soft-hitnormal2.ogg
36,0,146731,128,0,146846:0:0:0:0:soft-hitnormal2.ogg
256,0,146731,128,0,146962:0:0:0:0:soft-hitnormal2.ogg
182,0,146846,128,0,147077:0:0:0:0:soft-hitnormal2.ogg
329,0,146846,128,0,147193:0:0:0:0:soft-hitnormal2.ogg
36,0,146962,128,0,147193:0:0:0:0:soft-hitnormal2.ogg
109,0,146962,128,0,147539:0:0:0:0:soft-hitnormal2.ogg
402,0,146962,128,0,147077:0:0:0:0:soft-hitnormal2.ogg
256,0,147077,128,0,147308:0:0:0:0:soft-hitnormal2.ogg
475,0,147077,128,0,147539:0:0:0:0:soft-hitnormal2.ogg
182,0,147193,128,0,147308:0:0:0:0:soft-hitnormal2.ogg
402,0,147193,128,0,147654:0:0:0:0:soft-hitnormal2.ogg
36,0,147308,128,0,147423:0:0:0:0:soft-hitnormal2.ogg
329,0,147308,128,0,147423:0:0:0:0:soft-hitnormal2.ogg
182,0,147423,128,0,147539:0:0:0:0:soft-hitnormal2.ogg
256,0,147423,128,0,147654:0:0:0:0:soft-hitnormal2.ogg
36,0,147539,128,0,148116:0:0:0:0:soft-hitnormal2.ogg
329,0,147539,128,0,147770:0:0:0:0:soft-hitnormal2.ogg
109,0,147654,128,0,148000:0:0:0:0:soft-hitnormal2.ogg
182,0,147654,128,0,147770:0:0:0:0:soft-hitnormal2.ogg
475,0,147654,128,0,147885:0:0:0:0:soft-hitnormal2.ogg
256,0,147770,128,0,147885:0:0:0:0:soft-hitnormal2.ogg
402,0,147770,128,0,148000:0:0:0:0:soft-hitnormal2.ogg
182,0,147885,128,0,148000:0:0:0:0:soft-hitnormal2.ogg
329,0,147885,128,0,148231:0:0:0:0:soft-hitnormal2.ogg
256,0,148000,128,0,148116:0:0:0:0:soft-hitnormal2.ogg
475,0,148000,128,0,148462:0:0:0:0:soft-hitnormal2.ogg
109,0,148116,128,0,148693:0:0:0:0:soft-hitnormal2.ogg
182,0,148116,128,0,148231:0:0:0:0:soft-hitnormal2.ogg
402,0,148116,128,0,148346:0:0:0:0:soft-hitnormal2.ogg
36,0,148231,128,0,148346:0:0:0:0:soft-hitnormal2.ogg
256,0,148231,128,0,148462:0:0:0:0:soft-hitnormal2.ogg
182,0,148346,128,0,148577:0:0:0:0:soft-hitnormal2.ogg
329,0,148346,128,0,148462:0:0:0:0:soft-hitnormal2.ogg
36,0,148462,128,0,148577:0:0:0:0:soft-hitnormal2.ogg
402,0,148462,128,0,148577:0:0:0:0:soft-hitnormal2.ogg
256,0,148577,128,0,148693:0:0:0:0:soft-hitnormal2.ogg
475,0,148577,128,0,148693:0:0:0:0:soft-hitnormal2.ogg
182,0,148693,128,0,148808:0:0:0:0:soft-hitnormal2.ogg
402,0,148693,128,0,148808:0:0:0:0:soft-hitnormal2.ogg
36,0,148808,128,0,148923:0:0:0:0:soft-hitnormal2.ogg
329,0,148808,128,0,148923:0:0:0:0:soft-hitnormal2.ogg
475,0,148808,128,0,149385:0:0:0:0:soft-hitnormal2.ogg
109,0,148923,128,0,149039:0:0:0:0:soft-hitnormal2.ogg
256,0,148923,128,0,149039:0:0:0:0:soft-hitnormal2.ogg
182,0,149039,128,0,149154:0:0:0:0:soft-hitnormal2.ogg
402,0,149039,128,0,149154:0:0:0:0:soft-hitnormal2.ogg
256,0,149154,128,0,149270:0:0:0:0:soft-hitnormal2.ogg
329,0,149154,128,0,149270:0:0:0:0:soft-hitnormal2.ogg
182,0,149270,128,0,149385:0:0:0:0:soft-hitnormal2.ogg
402,0,149270,128,0,149385:0:0:0:0:soft-hitnormal2.ogg
109,0,149385,128,0,149500:0:0:0:0:soft-hitnormal2.ogg
329,0,149385,128,0,149500:0:0:0:0:soft-hitnormal2.ogg
36,0,149500,128,0,149616:0:0:0:0:soft-hitnormal2.ogg
256,0,149500,128,0,149616:0:0:0:0:soft-hitnormal2.ogg
475,0,149500,128,0,149846:0:0:0:0:soft-hitnormal2.ogg
109,0,149616,128,0,149731:0:0:0:0:soft-hitnormal2.ogg
182,0,149616,128,0,149731:0:0:0:0:soft-hitnormal2.ogg
36,0,149731,128,0,149846:0:0:0:0:soft-hitnormal2.ogg
256,0,149731,128,0,149846:0:0:0:0:soft-hitnormal2.ogg
109,0,149846,128,0,149962:0:0:0:0:soft-hitnormal2.ogg
329,0,149846,128,0,149962:0:0:0:0:soft-hitnormal2.ogg
36,0,149962,128,0,150077:0:0:0:0:soft-hitnormal2.ogg
256,0,149962,128,0,150077:0:0:0:0:soft-hitnormal2.ogg
475,0,149962,128,0,150539:0:0:0:0:soft-hitnormal2.ogg
109,0,150077,128,0,150193:0:0:0:0:soft-hitnormal2.ogg
402,0,150077,128,0,150193:0:0:0:0:soft-hitnormal2.ogg
36,0,150193,128,0,150308:0:0:0:0:soft-hitnormal2.ogg
329,0,150193,128,0,150308:0:0:0:0:soft-hitnormal2.ogg
182,0,150308,128,0,150423:0:0:0:0:soft-hitnormal2.ogg
256,0,150308,128,0,150423:0:0:0:0:soft-hitnormal2.ogg
109,0,150423,128,0,150539:0:0:0:0:soft-hitnormal2.ogg
402,0,150423,128,0,150539:0:0:0:0:soft-hitnormal2.ogg
182,0,150539,128,0,150654:0:0:0:0:soft-hitnormal2.ogg
329,0,150539,128,0,150654:0:0:0:0:soft-hitnormal2.ogg
36,0,150654,128,0,151231:0:0:0:0:soft-hitnormal2.ogg
256,0,150654,128,0,150770:0:0:0:0:soft-hitnormal2.ogg
402,0,150654,128,0,150770:0:0:0:0:soft-hitnormal2.ogg
182,0,150770,128,0,150885:0:0:0:0:soft-hitnormal2.ogg
329,0,150770,128,0,150885:0:0:0:0:soft-hitnormal2.ogg
109,0,150885,128,0,151000:0:0:0:0:soft-hitnormal2.ogg
402,0,150885,128,0,151000:0:0:0:0:soft-hitnormal2.ogg
182,0,151000,128,0,151116:0:0:0:0:soft-hitnormal2.ogg
475,0,151000,128,0,151116:0:0:0:0:soft-hitnormal2.ogg
256,0,151116,128,0,151231:0:0:0:0:soft-hitnormal2.ogg
402,0,151116,128,0,151231:0:0:0:0:soft-hitnormal2.ogg
182,0,151231,128,0,151346:0:0:0:0:soft-hitnormal2.ogg
329,0,151231,128,0,151346:0:0:0:0:soft-hitnormal2.ogg
36,0,151346,128,0,151693:0:0:0:0:soft-hitnormal2.ogg
109,0,151346,128,0,151462:0:0:0:0:soft-hitnormal2.ogg
256,0,151346,128,0,151462:0:0:0:0:soft-hitnormal2.ogg
182,0,151462,128,0,151577:0:0:0:0:soft-hitnormal2.ogg
329,0,151462,128,0,151577:0:0:0:0:soft-hitnormal2.ogg
256,0,151577,128,0,151693:0:0:0:0:soft-hitnormal2.ogg
402,0,151577,128,0,151693:0:0:0:0:soft-hitnormal2.ogg
182,0,151693,128,0,151808:0:0:0:0:soft-hitnormal2.ogg
475,0,151693,128,0,151808:0:0:0:0:soft-hitnormal2.ogg
36,0,151808,128,0,152385:0:0:0:0:soft-hitnormal2.ogg
109,0,151808,128,0,151923:0:0:0:0:soft-hitnormal2.ogg
402,0,151808,128,0,151923:0:0:0:0:soft-hitnormal2.ogg
182,0,151923,128,0,152039:0:0:0:0:soft-hitnormal2.ogg
329,0,151923,128,0,152039:0:0:0:0:soft-hitnormal2.ogg
256,0,152039,128,0,152154:0:0:0:0:soft-hitnormal2.ogg
402,0,152039,128,0,152154:0:0:0:0:soft-hitnormal2.ogg
182,0,152154,128,0,152270:0:0:0:0:soft-hitnormal2.ogg
475,0,152154,128,0,152270:0:0:0:0:soft-hitnormal2.ogg
109,0,152270,128,0,152385:0:0:0:0:soft-hitnormal2.ogg
402,0,152270,128,0,152385:0:0:0:0:soft-hitnormal2.ogg
182,0,152385,128,0,152500:0:0:0:0:soft-hitnormal2.ogg
329,0,152385,128,0,152500:0:0:0:0:soft-hitnormal2.ogg
109,0,152500,128,0,153077:0:0:0:0:soft-hitnormal2.ogg
256,192,152500,1,0,0:0:0:0:soft-hitnormal2.ogg
402,192,152500,1,0,0:0:0:0:soft-hitnormal2.ogg
182,192,152616,1,0,0:0:0:0:soft-hitnormal2.ogg
329,192,152616,1,0,0:0:0:0:soft-hitnormal2.ogg
36,192,152731,1,0,0:0:0:0:soft-hitnormal2.ogg
475,192,152731,1,0,0:0:0:0:soft-hitnormal2.ogg
182,192,152846,1,0,0:0:0:0:soft-hitnormal2.ogg
402,192,152846,1,0,0:0:0:0:soft-hitnormal2.ogg
256,192,152962,1,0,0:0:0:0:soft-hitnormal2.ogg
475,192,152962,1,0,0:0:0:0:soft-hitnormal2.ogg
36,192,153077,1,0,0:0:0:0:soft-hitnormal2.ogg
329,192,153077,1,0,0:0:0:0:soft-hitnormal2.ogg
109,0,153193,128,0,153539:0:0:0:0:soft-hitnormal2.ogg
182,192,153193,1,0,0:0:0:0:soft-hitnormal2.ogg
475,192,153193,1,0,0:0:0:0:soft-hitnormal2.ogg
256,192,153308,1,0,0:0:0:0:soft-hitnormal2.ogg
402,192,153308,1,0,0:0:0:0:soft-hitnormal2.ogg
182,192,153423,1,0,0:0:0:0:soft-hitnormal2.ogg
329,192,153423,1,0,0:0:0:0:soft-hitnormal2.ogg
256,192,153539,1,0,0:0:0:0:soft-hitnormal2.ogg
475,192,153539,1,0,0:0:0:0:soft-hitnormal2.ogg
109,0,153654,128,0,154231:0:0:0:0:soft-hitnormal2.ogg
182,192,153654,1,0,0:0:0:0:soft-hitnormal2.ogg
402,192,153654,1,0,0:0:0:0:soft-hitnormal2.ogg
36,192,153770,1,0,0:0:0:0:soft-hitnormal2.ogg
256,192,153770,1,0,0:0:0:0:soft-hitnormal2.ogg
182,192,153885,1,0,0:0:0:0:soft-hitnormal2.ogg
329,192,153885,1,0,0:0:0:0:soft-hitnormal2.ogg
36,192,154000,1,0,0:0:0:0:soft-hitnormal2.ogg
402,192,154000,1,0,0:0:0:0:soft-hitnormal2.ogg
256,192,154116,1,0,0:0:0:0:soft-hitnormal2.ogg
475,192,154116,1,0,0:0:0:0:soft-hitnormal2.ogg
182,192,154231,1,0,0:0:0:0:soft-hitnormal2.ogg
329,192,154231,1,0,0:0:0:0:soft-hitnormal2.ogg
109,192,154346,1,0,0:0:0:0:soft-hitnormal2.ogg
402,0,154346,128,0,154923:0:0:0:0:soft-hitnormal2.ogg
475,192,154346,1,0,0:0:0:0:soft-hitnormal2.ogg
36,192,154462,1,0,0:0:0:0:soft-hitnormal2.ogg
256,192,154462,1,0,0:0:0:0:soft-hitnormal2.ogg
182,192,154577,1,0,0:0:0:0:soft-hitnormal2.ogg
329,192,154577,1,0,0:0:0:0:soft-hitnormal2.ogg
36,192,154693,1,0,0:0:0:0:soft-hitnormal2.ogg
475,192,154693,1,0,0:0:0:0:soft-hitnormal2.ogg
109,192,154808,1,0,0:0:0:0:soft-hitnormal2.ogg
329,192,154808,1,0,0:0:0:0:soft-hitnormal2.ogg
256,192,154923,1,0,0:0:0:0:soft-hitnormal2.ogg
475,192,154923,1,0,0:0:0:0:soft-hitnormal2.ogg
36,192,155039,1,0,0:0:0:0:soft-hitnormal2.ogg
182,192,155039,1,0,0:0:0:0:soft-hitnormal2.ogg
402,0,155039,128,0,155385:0:0:0:0:soft-hitnormal2.ogg
109,192,155154,1,0,0:0:0:0:soft-hitnormal2.ogg
329,192,155154,1,0,0:0:0:0:soft-hitnormal2.ogg
36,192,155270,1,0,0:0:0:0:soft-hitnormal2.ogg
475,192,155270,1,0,0:0:0:0:soft-hitnormal2.ogg
109,192,155385,1,0,0:0:0:0:soft-hitnormal2.ogg
256,192,155385,1,0,0:0:0:0:soft-hitnormal2.ogg
182,192,155500,1,0,0:0:0:0:soft-hitnormal2.ogg
402,0,155500,128,0,156077:0:0:0:0:soft-hitnormal2.ogg
475,192,155500,1,0,0:0:0:0:soft-hitnormal2.ogg
36,192,155616,1,0,0:0:0:0:soft-hitnormal2.ogg
329,192,155616,1,0,0:0:0:0:soft-hitnormal2.ogg
182,192,155731,1,0,0:0:0:0:soft-hitnormal2.ogg
475,192,155731,1,0,0:0:0:0:soft-hitnormal2.ogg
109,192,155846,1,0,0:0:0:0:soft-hitnormal2.ogg
329,192,155846,1,0,0:0:0:0:soft-hitnormal2.ogg
36,192,155962,1,0,0:0:0:0:soft-hitnormal2.ogg
256,192,155962,1,0,0:0:0:0:soft-hitnormal2.ogg
109,192,156077,1,0,0:0:0:0:soft-hitnormal2.ogg
329,192,156077,1,0,0:0:0:0:soft-hitnormal2.ogg
182,0,156193,128,0,156539:0:0:0:0:soft-hitnormal2.ogg
402,0,156193,128,0,156308:0:0:0:0:soft-hitnormal2.ogg
36,0,156308,128,0,156654:0:0:0:0:soft-hitnormal2.ogg
256,0,156308,128,0,156423:0:0:0:0:soft-hitnormal2.ogg
109,0,156423,128,0,156770:0:0:0:0:soft-hitnormal2.ogg
402,0,156423,128,0,156539:0:0:0:0:soft-hitnormal2.ogg
256,0,156539,128,0,156885:0:0:0:0:soft-hitnormal2.ogg
475,0,156539,128,0,156654:0:0:0:0:soft-hitnormal2.ogg
182,0,156654,128,0,157116:0:0:0:0:soft-hitnormal2.ogg
402,0,156654,128,0,156885:0:0:0:0:soft-hitnormal2.ogg
36,0,156770,128,0,157000:0:0:0:0:soft-hitnormal2.ogg
475,0,156770,128,0,157000:0:0:0:0:soft-hitnormal2.ogg
109,0,156885,128,0,157462:0:0:0:0:soft-hitnormal2.ogg
329,0,156885,128,0,157116:0:0:0:0:soft-hitnormal2.ogg
256,0,157000,128,0,157231:0:0:0:0:soft-hitnormal2.ogg
402,0,157000,128,0,157346:0:0:0:0:soft-hitnormal2.ogg
36,0,157116,128,0,157231:0:0:0:0:soft-hitnormal2.ogg
475,0,157116,128,0,157693:0:0:0:0:soft-hitnormal2.ogg
182,0,157231,128,0,157346:0:0:0:0:soft-hitnormal2.ogg
329,0,157231,128,0,157462:0:0:0:0:soft-hitnormal2.ogg
36,0,157346,128,0,157693:0:0:0:0:soft-hitnormal2.ogg
256,0,157346,128,0,157577:0:0:0:0:soft-hitnormal2.ogg
182,0,157462,128,0,157808:0:0:0:0:soft-hitnormal2.ogg
402,0,157462,128,0,157577:0:0:0:0:soft-hitnormal2.ogg
109,0,157577,128,0,158039:0:0:0:0:soft-hitnormal2.ogg
329,0,157577,128,0,158039:0:0:0:0:soft-hitnormal2.ogg
256,0,157693,128,0,157923:0:0:0:0:soft-hitnormal2.ogg
402,0,157693,128,0,157808:0:0:0:0:soft-hitnormal2.ogg
36,0,157808,128,0,157923:0:0:0:0:soft-hitnormal2.ogg
475,0,157808,128,0,158154:0:0:0:0:soft-hitnormal2.ogg
182,0,157923,128,0,158500:0:0:0:0:soft-hitnormal2.ogg
402,0,157923,128,0,158385:0:0:0:0:soft-hitnormal2.ogg
36,0,158039,128,0,158154:0:0:0:0:soft-hitnormal2.ogg
256,0,158039,128,0,158270:0:0:0:0:soft-hitnormal2.ogg
109,0,158154,128,0,158385:0:0:0:0:soft-hitnormal2.ogg
329,0,158154,128,0,158270:0:0:0:0:soft-hitnormal2.ogg
36,0,158270,128,0,158616:0:0:0:0:soft-hitnormal2.ogg
475,0,158270,128,0,158500:0:0:0:0:soft-hitnormal2.ogg
256,0,158385,128,0,158616:0:0:0:0:soft-hitnormal2.ogg
329,0,158385,128,0,158962:0:0:0:0:soft-hitnormal2.ogg
109,0,158500,128,0,158962:0:0:0:0:soft-hitnormal2.ogg
402,0,158500,128,0,158731:0:0:0:0:soft-hitnormal2.ogg
182,0,158616,128,0,158731:0:0:0:0:soft-hitnormal2.ogg
475,0,158616,128,0,158846:0:0:0:0:soft-hitnormal2.ogg
36,0,158731,128,0,158846:0:0:0:0:soft-hitnormal2.ogg
256,0,158731,128,0,159193:0:0:0:0:soft-hitnormal2.ogg
182,0,158846,128,0,158962:0:0:0:0:soft-hitnormal2.ogg
402,0,158846,128,0,159077:0:0:0:0:soft-hitnormal2.ogg
36,0,158962,128,0,159308:0:0:0:0:soft-hitnormal2.ogg
475,0,158962,128,0,159539:0:0:0:0:soft-hitnormal2.ogg
182,0,159077,128,0,159193:0:0:0:0:soft-hitnormal2.ogg
329,0,159077,128,0,159423:0:0:0:0:soft-hitnormal2.ogg
109,0,159193,128,0,159423:0:0:0:0:soft-hitnormal2.ogg
402,0,159193,128,0,159308:0:0:0:0:soft-hitnormal2.ogg
182,0,159308,128,0,159654:0:0:0:0:soft-hitnormal2.ogg
256,0,159308,128,0,159885:0:0:0:0:soft-hitnormal2.ogg
36,0,159423,128,0,159539:0:0:0:0:soft-hitnormal2.ogg
402,0,159423,128,0,159654:0:0:0:0:soft-hitnormal2.ogg
109,0,159539,128,0,159770:0:0:0:0:soft-hitnormal2.ogg
329,0,159539,128,0,159770:0:0:0:0:soft-hitnormal2.ogg
36,0,159654,128,0,159885:0:0:0:0:soft-hitnormal2.ogg
475,0,159654,128,0,159885:0:0:0:0:soft-hitnormal2.ogg
182,0,159770,128,0,159885:0:0:0:0:soft-hitnormal2.ogg
402,0,159770,128,0,159885:0:0:0:0:soft-hitnormal2.ogg
109,0,159885,128,0,160000:0:0:0:0:soft-hitnormal2.ogg
329,0,159885,128,0,160000:0:0:0:0:soft-hitnormal2.ogg
36,0,160000,128,0,160116:0:0:0:0:soft-hitnormal2.ogg
256,0,160000,128,0,160116:0:0:0:0:soft-hitnormal2.ogg
109,0,160116,128,0,160231:0:0:0:0:soft-hitnormal2.ogg
402,0,160116,128,0,160231:0:0:0:0:soft-hitnormal2.ogg
256,0,160231,128,0,160346:0:0:0:0:soft-hitnormal2.ogg
475,0,160231,128,0,160346:0:0:0:0:soft-hitnormal2.ogg
109,0,160346,128,0,160462:0:0:0:0:soft-hitnormal2.ogg
329,0,160346,128,0,160462:0:0:0:0:soft-hitnormal2.ogg
36,0,160462,128,0,160577:0:0:0:0:soft-hitnormal2.ogg
402,0,160462,128,0,160577:0:0:0:0:soft-hitnormal2.ogg
182,0,160577,128,0,160693:0:0:0:0:soft-hitnormal2.ogg
329,0,160577,128,0,160693:0:0:0:0:soft-hitnormal2.ogg
109,0,160693,128,0,160808:0:0:0:0:soft-hitnormal2.ogg
475,0,160693,128,0,160808:0:0:0:0:soft-hitnormal2.ogg
36,0,160808,128,0,160923:0:0:0:0:soft-hitnormal2.ogg
402,0,160808,128,0,160923:0:0:0:0:soft-hitnormal2.ogg
182,0,160923,128,0,161039:0:0:0:0:soft-hitnormal2.ogg
329,0,160923,128,0,161039:0:0:0:0:soft-hitnormal2.ogg
256,0,161039,128,0,161154:0:0:0:0:soft-hitnormal2.ogg
475,0,161039,128,0,161154:0:0:0:0:soft-hitnormal2.ogg
109,0,161154,128,0,161270:0:0:0:0:soft-hitnormal2.ogg
329,0,161154,128,0,161270:0:0:0:0:soft-hitnormal2.ogg
36,0,161270,128,0,161385:0:0:0:0:soft-hitnormal2.ogg
402,0,161270,128,0,161385:0:0:0:0:soft-hitnormal2.ogg
182,0,161385,128,0,161500:0:0:0:0:soft-hitnormal2.ogg
329,0,161385,128,0,161500:0:0:0:0:soft-hitnormal2.ogg
36,0,161500,128,0,161616:0:0:0:0:soft-hitnormal2.ogg
475,0,161500,128,0,161616:0:0:0:0:soft-hitnormal2.ogg
182,0,161616,128,0,161731:0:0:0:0:soft-hitnormal2.ogg
329,0,161616,128,0,161731:0:0:0:0:soft-hitnormal2.ogg
109,0,161731,128,0,161846:0:0:0:0:soft-hitnormal2.ogg
402,0,161731,128,0,161846:0:0:0:0:soft-hitnormal2.ogg
182,0,161846,128,0,161962:0:0:0:0:soft-hitnormal2.ogg
329,0,161846,128,0,161962:0:0:0:0:soft-hitnormal2.ogg
36,0,161962,128,0,162077:0:0:0:0:soft-hitnormal2.ogg
475,0,161962,128,0,162077:0:0:0:0:soft-hitnormal2.ogg
182,0,162077,128,0,162193:0:0:0:0:soft-hitnormal2.ogg
329,0,162077,128,0,162193:0:0:0:0:soft-hitnormal2.ogg
109,0,162193,128,0,162308:0:0:0:0:soft-hitnormal2.ogg
402,0,162193,128,0,162308:0:0:0:0:soft-hitnormal2.ogg
36,0,162308,128,0,162423:0:0:0:0:soft-hitnormal2.ogg
329,0,162308,128,0,162423:0:0:0:0:soft-hitnormal2.ogg
256,0,162423,128,0,162539:0:0:0:0:soft-hitnormal2.ogg
475,0,162423,128,0,162539:0:0:0:0:soft-hitnormal2.ogg
109,0,162539,128,0,162654:0:0:0:0:soft-hitnormal2.ogg
329,0,162539,128,0,162654:0:0:0:0:soft-hitnormal2.ogg
36,0,162654,128,0,162770:0:0:0:0:soft-hitnormal2.ogg
475,0,162654,128,0,162770:0:0:0:0:soft-hitnormal2.ogg
182,0,162770,128,0,162885:0:0:0:0:soft-hitnormal2.ogg
329,0,162770,128,0,162885:0:0:0:0:soft-hitnormal2.ogg
109,0,162885,128,0,163000:0:0:0:0:soft-hitnormal2.ogg
402,0,162885,128,0,163000:0:0:0:0:soft-hitnormal2.ogg
36,0,163000,128,0,163116:0:0:0:0:soft-hitnormal2.ogg
329,0,163000,128,0,163116:0:0:0:0:soft-hitnormal2.ogg
109,0,163116,128,0,163231:0:0:0:0:soft-hitnormal2.ogg
475,0,163116,128,0,163231:0:0:0:0:soft-hitnormal2.ogg
182,0,163231,128,0,163346:0:0:0:0:soft-hitnormal2.ogg
402,0,163231,128,0,163346:0:0:0:0:soft-hitnormal2.ogg
36,0,163346,128,0,163462:0:0:0:0:soft-hitnormal2.ogg
475,0,163346,128,0,163462:0:0:0:0:soft-hitnormal2.ogg
182,0,163462,128,0,163577:0:0:0:0:soft-hitnormal2.ogg
329,0,163462,128,0,163577:0:0:0:0:soft-hitnormal2.ogg
36,0,163577,128,0,163635:0:0:0:0:soft-hitnormal2.ogg
402,0,163577,128,0,163635:0:0:0:0:soft-hitnormal2.ogg
109,0,163693,128,0,163750:0:0:0:0:soft-hitnormal2.ogg
329,0,163693,128,0,163750:0:0:0:0:soft-hitnormal2.ogg
256,0,163808,128,0,163866:0:0:0:0:soft-hitnormal2.ogg
475,0,163808,128,0,163866:0:0:0:0:soft-hitnormal2.ogg
36,0,163923,128,0,163981:0:0:0:0:soft-hitnormal2.ogg
329,0,163923,128,0,163981:0:0:0:0:soft-hitnormal2.ogg
182,0,164039,128,0,164096:0:0:0:0:soft-hitnormal2.ogg
402,0,164039,128,0,164096:0:0:0:0:soft-hitnormal2.ogg
109,0,164154,128,0,164212:0:0:0:0:soft-hitnormal2.ogg
329,0,164154,128,0,164212:0:0:0:0:soft-hitnormal2.ogg
256,0,164270,128,0,164327:0:0:0:0:soft-hitnormal2.ogg
475,0,164270,128,0,164327:0:0:0:0:soft-hitnormal2.ogg
36,0,164385,128,0,164443:0:0:0:0:soft-hitnormal2.ogg
182,0,164385,128,0,164443:0:0:0:0:soft-hitnormal2.ogg
256,0,164500,128,0,164558:0:0:0:0:soft-hitnormal2.ogg
402,0,164500,128,0,164558:0:0:0:0:soft-hitnormal2.ogg
182,0,164616,128,0,164673:0:0:0:0:soft-hitnormal2.ogg
329,0,164616,128,0,164673:0:0:0:0:soft-hitnormal2.ogg
36,0,164731,128,0,164789:0:0:0:0:soft-hitnormal2.ogg
475,0,164731,128,0,164789:0:0:0:0:soft-hitnormal2.ogg
109,0,164846,128,0,164904:0:0:0:0:soft-hitnormal2.ogg
402,0,164846,128,0,164904:0:0:0:0:soft-hitnormal2.ogg
256,0,164962,128,0,165020:0:0:0:0:soft-hitnormal2.ogg
475,0,164962,128,0,165020:0:0:0:0:soft-hitnormal2.ogg
36,0,165077,128,0,165135:0:0:0:0:soft-hitnormal2.ogg
329,0,165077,128,0,165135:0:0:0:0:soft-hitnormal2.ogg
256,0,165193,128,0,165250:0:0:0:0:soft-hitnormal2.ogg
475,0,165193,128,0,165250:0:0:0:0:soft-hitnormal2.ogg
182,0,165308,128,0,165366:0:0:0:0:soft-hitnormal2.ogg
402,0,165308,128,0,165366:0:0:0:0:soft-hitnormal2.ogg
36,0,165423,128,0,165481:0:0:0:0:soft-hitnormal2.ogg
329,0,165423,128,0,165481:0:0:0:0:soft-hitnormal2.ogg
182,0,165539,128,0,165596:0:0:0:0:soft-hitnormal2.ogg
402,0,165539,128,0,165596:0:0:0:0:soft-hitnormal2.ogg
36,0,165654,128,0,165712:0:0:0:0:soft-hitnormal2.ogg
256,0,165654,128,0,165712:0:0:0:0:soft-hitnormal2.ogg
182,0,165770,128,0,165827:0:0:0:0:soft-hitnormal2.ogg
402,0,165770,128,0,165827:0:0:0:0:soft-hitnormal2.ogg
109,0,165885,128,0,165943:0:0:0:0:soft-hitnormal2.ogg
475,0,165885,128,0,165943:0:0:0:0:soft-hitnormal2.ogg
329,0,166000,128,0,166058:0:0:0:0:soft-hitnormal2.ogg
182,0,166116,128,0,166173:0:0:0:0:soft-hitnormal2.ogg
475,0,166116,128,0,166173:0:0:0:0:soft-hitnormal2.ogg
36,0,166231,128,0,166289:0:0:0:0:soft-hitnormal2.ogg
402,0,166231,128,0,166289:0:0:0:0:soft-hitnormal2.ogg
109,0,166346,128,0,166404:0:0:0:0:soft-hitnormal2.ogg
329,0,166346,128,0,166404:0:0:0:0:soft-hitnormal2.ogg
36,0,166462,128,0,166520:0:0:0:0:soft-hitnormal2.ogg
256,0,166462,128,0,166520:0:0:0:0:soft-hitnormal2.ogg
109,0,166577,128,0,166635:0:0:0:0:soft-hitnormal2.ogg
402,0,166577,128,0,166635:0:0:0:0:soft-hitnormal2.ogg
256,0,166693,128,0,166750:0:0:0:0:soft-hitnormal2.ogg
475,0,166693,128,0,166750:0:0:0:0:soft-hitnormal2.ogg
109,0,166808,128,0,166866:0:0:0:0:soft-hitnormal2.ogg
329,0,166808,128,0,166866:0:0:0:0:soft-hitnormal2.ogg
182,0,166923,128,0,166981:0:0:0:0:soft-hitnormal2.ogg
402,0,166923,128,0,166981:0:0:0:0:soft-hitnormal2.ogg
36,0,167039,128,0,167096:0:0:0:0:soft-hitnormal2.ogg
256,0,167039,128,0,167096:0:0:0:0:soft-hitnormal2.ogg
109,0,167154,128,0,167212:0:0:0:0:soft-hitnormal2.ogg
475,0,167154,128,0,167212:0:0:0:0:soft-hitnormal2.ogg
36,192,167270,1,0,0:0:0:0:soft-hitnormal2.ogg
329,192,167270,1,0,0:0:0:0:soft-hitnormal2.ogg
182,192,167385,1,0,0:0:0:0:soft-hitnormal2.ogg
402,192,167385,1,0,0:0:0:0:soft-hitnormal2.ogg
109,192,167500,1,0,0:0:0:0:soft-hitnormal2.ogg
256,192,167500,1,0,0:0:0:0:soft-hitnormal2.ogg
182,192,167616,1,0,0:0:0:0:soft-hitnormal2.ogg
475,192,167616,1,0,0:0:0:0:soft-hitnormal2.ogg
36,192,167731,1,0,0:0:0:0:soft-hitnormal2.ogg
329,192,167731,1,0,0:0:0:0:soft-hitnormal2.ogg
182,192,167846,1,0,0:0:0:0:soft-hitnormal2.ogg
402,192,167846,1,0,0:0:0:0:soft-hitnormal2.ogg
109,192,167962,1,0,0:0:0:0:soft-hitnormal2.ogg
256,192,167962,1,0,0:0:0:0:soft-hitnormal2.ogg
329,192,168077,1,0,0:0:0:0:soft-hitnormal2.ogg
475,192,168077,1,0,0:0:0:0:soft-hitnormal2.ogg
109,192,168193,1,0,0:0:0:0:soft-hitnormal2.ogg
256,192,168193,1,0,0:0:0:0:soft-hitnormal2.ogg
182,192,168308,1,0,0:0:0:0:soft-hitnormal2.ogg
329,192,168308,1,0,0:0:0:0:soft-hitnormal2.ogg
36,192,168423,1,0,0:0:0:0:soft-hitnormal2.ogg
475,192,168423,1,0,0:0:0:0:soft-hitnormal2.ogg
109,192,168539,1,0,0:0:0:0:soft-hitnormal2.ogg
402,192,168539,1,0,0:0:0:0:soft-hitnormal2.ogg
36,192,168654,1,0,0:0:0:0:soft-hitnormal2.ogg
256,192,168654,1,0,0:0:0:0:soft-hitnormal2.ogg
182,192,168770,1,0,0:0:0:0:soft-hitnormal2.ogg
475,192,168770,1,0,0:0:0:0:soft-hitnormal2.ogg
36,192,168885,1,0,0:0:0:0:soft-hitnormal2.ogg
256,192,168885,1,0,0:0:0:0:soft-hitnormal2.ogg
109,192,169000,1,0,0:0:0:0:soft-hitnormal2.ogg
329,192,169000,1,0,0:0:0:0:soft-hitnormal2.ogg
36,192,169116,1,0,0:0:0:0:soft-hitnormal2.ogg
182,192,169116,1,0,0:0:0:0:soft-hitnormal2.ogg
256,192,169116,1,0,0:0:0:0:soft-hitnormal2.ogg
402,192,169116,1,0,0:0:0:0:soft-hitnormal2.ogg
475,192,169116,1,0,0:0:0:0:soft-hitnormal2.ogg
109,0,169808,128,0,170846:0:0:0:0:soft-hitnormal2.ogg
402,0,169808,128,0,170846:0:0:0:0:soft-hitnormal2.ogg
475,0,169808,128,0,170846:0:0:0:0:soft-hitnormal2.ogg
36,0,169808,128,0,170962:0:0:0:0:soft-hitnormal2.ogg
182,0,169808,128,0,170962:0:0:0:0:soft-hitnormal2.ogg
256,0,169808,128,0,170962:0:0:0:0:soft-hitnormal2.ogg
329,0,169808,128,0,170962:0:0:0:0:soft-hitnormal2.ogg
109,0,170962,128,0,171193:0:0:0:0:soft-hitnormal2.ogg
475,0,170962,128,0,171308:0:0:0:0:soft-hitnormal2.ogg
182,0,171077,128,0,171423:0:0:0:0:soft-hitnormal2.ogg
329,0,171077,128,0,171193:0:0:0:0:soft-hitnormal2.ogg
36,0,171193,128,0,171539:0:0:0:0:soft-hitnormal2.ogg
402,0,171193,128,0,171539:0:0:0:0:soft-hitnormal2.ogg
109,0,171308,128,0,171885:0:0:0:0:soft-hitnormal2.ogg
256,0,171308,128,0,171539:0:0:0:0:soft-hitnormal2.ogg
329,0,171308,128,0,171770:0:0:0:0:soft-hitnormal2.ogg
475,0,171423,128,0,171539:0:0:0:0:soft-hitnormal2.ogg
182,0,171539,128,0,171654:0:0:0:0:soft-hitnormal2.ogg
256,0,171654,128,0,171885:0:0:0:0:soft-hitnormal2.ogg
402,0,171654,128,0,172231:0:0:0:0:soft-hitnormal2.ogg
475,0,171654,128,0,172693:0:0:0:0:soft-hitnormal2.ogg
36,0,171654,128,0,172923:0:0:0:0:soft-hitnormal2.ogg
182,0,171770,128,0,172116:0:0:0:0:soft-hitnormal2.ogg
329,0,171885,128,0,172000:0:0:0:0:soft-hitnormal2.ogg
109,0,172000,128,0,172462:0:0:0:0:soft-hitnormal2.ogg
256,0,172000,128,0,172231:0:0:0:0:soft-hitnormal2.ogg
329,0,172116,128,0,172462:0:0:0:0:soft-hitnormal2.ogg
182,0,172231,128,0,172346:0:0:0:0:soft-hitnormal2.ogg
402,0,172346,128,0,172577:0:0:0:0:soft-hitnormal2.ogg
256,0,172346,128,0,172923:0:0:0:0:soft-hitnormal2.ogg
182,0,172462,128,0,172577:0:0:0:0:soft-hitnormal2.ogg
109,0,172577,128,0,172808:0:0:0:0:soft-hitnormal2.ogg
329,0,172577,128,0,172808:0:0:0:0:soft-hitnormal2.ogg
182,0,172693,128,0,173385:0:0:0:0:soft-hitnormal2.ogg
402,0,172693,128,0,173039:0:0:0:0:soft-hitnormal2.ogg
475,0,172808,128,0,173270:0:0:0:0:soft-hitnormal2.ogg
109,0,172923,128,0,173039:0:0:0:0:soft-hitnormal2.ogg
329,0,172923,128,0,173731:0:0:0:0:soft-hitnormal2.ogg
36,0,173039,128,0,173500:0:0:0:0:soft-hitnormal2.ogg
256,0,173039,128,0,173154:0:0:0:0:soft-hitnormal2.ogg
402,0,173154,128,0,173385:0:0:0:0:soft-hitnormal2.ogg
109,0,173154,128,0,174770:0:0:0:0:soft-hitnormal2.ogg
256,0,173270,128,0,173616:0:0:0:0:soft-hitnormal2.ogg
475,0,173385,128,0,173731:0:0:0:0:soft-hitnormal2.ogg
182,0,173500,128,0,173846:0:0:0:0:soft-hitnormal2.ogg
402,0,173500,128,0,173962:0:0:0:0:soft-hitnormal2.ogg
36,0,173616,128,0,174077:0:0:0:0:soft-hitnormal2.ogg
256,0,173731,128,0,174077:0:0:0:0:soft-hitnormal2.ogg
329,0,173846,128,0,175116:0:0:0:0:soft-hitnormal2.ogg
475,0,173846,128,0,174770:0:0:0:0:soft-hitnormal2.ogg
182,0,173962,128,0,174193:0:0:0:0:soft-hitnormal2.ogg
402,0,174077,128,0,174308:0:0:0:0:soft-hitnormal2.ogg
36,0,174193,128,0,174423:0:0:0:0:soft-hitnormal2.ogg
256,0,174193,128,0,174654:0:0:0:0:soft-hitnormal2.ogg
182,0,174308,128,0,175000:0:0:0:0:soft-hitnormal2.ogg
402,0,174423,128,0,174539:0:0:0:0:soft-hitnormal2.ogg
36,0,174539,128,0,174885:0:0:0:0:soft-hitnormal2.ogg
402,0,174654,128,0,175346:0:0:0:0:soft-hitnormal2.ogg
256,0,174770,128,0,174885:0:0:0:0:soft-hitnormal2.ogg
109,0,174885,128,0,175231:0:0:0:0:soft-hitnormal2.ogg
475,0,174885,128,0,175231:0:0:0:0:soft-hitnormal2.ogg
36,0,175000,128,0,175346:0:0:0:0:soft-hitnormal2.ogg
256,0,175000,128,0,175693:0:0:0:0:soft-hitnormal2.ogg
182,0,175116,128,0,175462:0:0:0:0:soft-hitnormal2.ogg
329,0,175231,128,0,175462:0:0:0:0:soft-hitnormal2.ogg
109,0,175346,128,0,175693:0:0:0:0:soft-hitnormal2.ogg
475,0,175346,128,0,175577:0:0:0:0:soft-hitnormal2.ogg
36,0,175462,128,0,175808:0:0:0:0:soft-hitnormal2.ogg
402,0,175462,128,0,175808:0:0:0:0:soft-hitnormal2.ogg
182,0,175577,128,0,175923:0:0:0:0:soft-hitnormal2.ogg
329,0,175577,128,0,176039:0:0:0:0:soft-hitnormal2.ogg
475,0,175693,128,0,175923:0:0:0:0:soft-hitnormal2.ogg
109,0,175808,128,0,176039:0:0:0:0:soft-hitnormal2.ogg
256,0,175808,128,0,176962:0:0:0:0:soft-hitnormal2.ogg
36,0,175923,128,0,176731:0:0:0:0:soft-hitnormal2.ogg
402,0,175923,128,0,176846:0:0:0:0:soft-hitnormal2.ogg
182,0,176039,128,0,176385:0:0:0:0:soft-hitnormal2.ogg
475,0,176039,128,0,176385:0:0:0:0:soft-hitnormal2.ogg
109,0,176154,128,0,176500:0:0:0:0:soft-hitnormal2.ogg
329,0,176154,128,0,176731:0:0:0:0:soft-hitnormal2.ogg
182,0,176500,128,0,176616:0:0:0:0:soft-hitnormal2.ogg
475,0,176500,128,0,176616:0:0:0:0:soft-hitnormal2.ogg
109,0,176616,128,0,177077:0:0:0:0:soft-hitnormal2.ogg
182,0,176731,128,0,177423:0:0:0:0:soft-hitnormal2.ogg
475,0,176731,128,0,177077:0:0:0:0:soft-hitnormal2.ogg
36,0,176846,128,0,177654:0:0:0:0:soft-hitnormal2.ogg
329,0,176846,128,0,177308:0:0:0:0:soft-hitnormal2.ogg
402,0,176962,128,0,177423:0:0:0:0:soft-hitnormal2.ogg
256,0,177077,128,0,177193:0:0:0:0:soft-hitnormal2.ogg
109,0,177193,128,0,177539:0:0:0:0:soft-hitnormal2.ogg
475,0,177193,128,0,177654:0:0:0:0:soft-hitnormal2.ogg
256,0,177308,128,0,177539:0:0:0:0:soft-hitnormal2.ogg
329,0,177423,128,0,177770:0:0:0:0:soft-hitnormal2.ogg
182,0,177539,128,0,177770:0:0:0:0:soft-hitnormal2.ogg
402,0,177539,128,0,177885:0:0:0:0:soft-hitnormal2.ogg
256,0,177654,128,0,178231:0:0:0:0:soft-hitnormal2.ogg
109,0,177654,128,0,178346:0:0:0:0:soft-hitnormal2.ogg
36,0,177770,128,0,178231:0:0:0:0:soft-hitnormal2.ogg
475,0,177770,128,0,178116:0:0:0:0:soft-hitnormal2.ogg
182,0,177885,128,0,178000:0:0:0:0:soft-hitnormal2.ogg
329,0,177885,128,0,178462:0:0:0:0:soft-hitnormal2.ogg
402,0,178000,128,0,178231:0:0:0:0:soft-hitnormal2.ogg
182,0,178116,128,0,178577:0:0:0:0:soft-hitnormal2.ogg
475,0,178231,128,0,178577:0:0:0:0:soft-hitnormal2.ogg
36,0,178346,128,0,179154:0:0:0:0:soft-hitnormal2.ogg
256,0,178346,128,0,179039:0:0:0:0:soft-hitnormal2.ogg
402,0,178346,128,0,179500:0:0:0:0:soft-hitnormal2.ogg
109,0,178462,128,0,178693:0:0:0:0:soft-hitnormal2.ogg
329,0,178577,128,0,178808:0:0:0:0:soft-hitnormal2.ogg
182,0,178693,128,0,178923:0:0:0:0:soft-hitnormal2.ogg
475,0,178693,128,0,178923:0:0:0:0:soft-hitnormal2.ogg
109,0,178808,128,0,179039:0:0:0:0:soft-hitnormal2.ogg
329,0,178923,128,0,179154:0:0:0:0:soft-hitnormal2.ogg
182,0,179039,128,0,179616:0:0:0:0:soft-hitnormal2.ogg
475,0,179039,128,0,179270:0:0:0:0:soft-hitnormal2.ogg
109,0,179154,128,0,179385:0:0:0:0:soft-hitnormal2.ogg
256,0,179154,128,0,179385:0:0:0:0:soft-hitnormal2.ogg
36,0,179270,128,0,180077:0:0:0:0:soft-hitnormal2.ogg
329,0,179270,128,0,179616:0:0:0:0:soft-hitnormal2.ogg
475,0,179385,128,0,179731:0:0:0:0:soft-hitnormal2.ogg
109,0,179500,128,0,179731:0:0:0:0:soft-hitnormal2.ogg
256,0,179500,128,0,180308:0:0:0:0:soft-hitnormal2.ogg
402,0,179616,128,0,180423:0:0:0:0:soft-hitnormal2.ogg
329,0,179731,128,0,180077:0:0:0:0:soft-hitnormal2.ogg
182,0,179731,128,0,180193:0:0:0:0:soft-hitnormal2.ogg
109,0,179846,128,0,180423:0:0:0:0:soft-hitnormal2.ogg
475,0,179846,128,0,180308:0:0:0:0:soft-hitnormal2.ogg
36,0,180193,128,0,180308:0:0:0:0:soft-hitnormal2.ogg
329,0,180193,128,0,180308:0:0:0:0:soft-hitnormal2.ogg
182,0,180308,128,0,180423:0:0:0:0:soft-hitnormal2.ogg
256,0,180423,128,0,180539:0:0:0:0:soft-hitnormal2.ogg
475,0,180423,128,0,180539:0:0:0:0:soft-hitnormal2.ogg
109,0,180539,128,0,180654:0:0:0:0:soft-hitnormal2.ogg
402,0,180539,128,0,180654:0:0:0:0:soft-hitnormal2.ogg
256,0,180654,128,0,180770:0:0:0:0:soft-hitnormal2.ogg
36,0,180770,128,0,180885:0:0:0:0:soft-hitnormal2.ogg
109,0,180885,128,0,181000:0:0:0:0:soft-hitnormal2.ogg
329,0,180885,128,0,181000:0:0:0:0:soft-hitnormal2.ogg
182,0,181000,128,0,181116:0:0:0:0:soft-hitnormal2.ogg
475,0,181000,128,0,181116:0:0:0:0:soft-hitnormal2.ogg
256,0,181116,128,0,181231:0:0:0:0:soft-hitnormal2.ogg
36,0,181231,128,0,181346:0:0:0:0:soft-hitnormal2.ogg
402,0,181231,128,0,181346:0:0:0:0:soft-hitnormal2.ogg
182,0,181346,128,0,181462:0:0:0:0:soft-hitnormal2.ogg
329,0,181346,128,0,181462:0:0:0:0:soft-hitnormal2.ogg
109,0,181462,128,0,181577:0:0:0:0:soft-hitnormal2.ogg
475,0,181462,128,0,181577:0:0:0:0:soft-hitnormal2.ogg
182,0,181577,128,0,181693:0:0:0:0:soft-hitnormal2.ogg
402,0,181577,128,0,181693:0:0:0:0:soft-hitnormal2.ogg
36,0,181693,128,0,181808:0:0:0:0:soft-hitnormal2.ogg
329,0,181693,128,0,181808:0:0:0:0:soft-hitnormal2.ogg
109,0,181808,128,0,181923:0:0:0:0:soft-hitnormal2.ogg
256,0,181808,128,0,181923:0:0:0:0:soft-hitnormal2.ogg
182,0,181923,128,0,182039:0:0:0:0:soft-hitnormal2.ogg
475,0,181923,128,0,182039:0:0:0:0:soft-hitnormal2.ogg
109,0,182039,128,0,182154:0:0:0:0:soft-hitnormal2.ogg
329,0,182039,128,0,182154:0:0:0:0:soft-hitnormal2.ogg
182,0,182154,128,0,182270:0:0:0:0:soft-hitnormal2.ogg
256,0,182154,128,0,182270:0:0:0:0:soft-hitnormal2.ogg
36,0,182270,128,0,182385:0:0:0:0:soft-hitnormal2.ogg
402,0,182270,128,0,182385:0:0:0:0:soft-hitnormal2.ogg
256,0,182385,128,0,182500:0:0:0:0:soft-hitnormal2.ogg
475,0,182385,128,0,182500:0:0:0:0:soft-hitnormal2.ogg
109,0,182500,128,0,182616:0:0:0:0:soft-hitnormal2.ogg
329,0,182500,128,0,182616:0:0:0:0:soft-hitnormal2.ogg
182,0,182616,128,0,182731:0:0:0:0:soft-hitnormal2.ogg
475,0,182616,128,0,182731:0:0:0:0:soft-hitnormal2.ogg
36,0,182731,128,0,182846:0:0:0:0:soft-hitnormal2.ogg
402,0,182731,128,0,182846:0:0:0:0:soft-hitnormal2.ogg
109,0,182846,128,0,182962:0:0:0:0:soft-hitnormal2.ogg
475,0,182846,128,0,182962:0:0:0:0:soft-hitnormal2.ogg
182,0,182962,128,0,183077:0:0:0:0:soft-hitnormal2.ogg
329,0,182962,128,0,183077:0:0:0:0:soft-hitnormal2.ogg
36,0,183077,128,0,183193:0:0:0:0:soft-hitnormal2.ogg
475,0,183077,128,0,183193:0:0:0:0:soft-hitnormal2.ogg
256,0,183193,128,0,183308:0:0:0:0:soft-hitnormal2.ogg
402,0,183193,128,0,183308:0:0:0:0:soft-hitnormal2.ogg
109,0,183308,128,0,183423:0:0:0:0:soft-hitnormal2.ogg
475,0,183308,128,0,183423:0:0:0:0:soft-hitnormal2.ogg
36,0,183423,128,0,183539:0:0:0:0:soft-hitnormal2.ogg
329,0,183423,128,0,183539:0:0:0:0:soft-hitnormal2.ogg
182,0,183539,128,0,183654:0:0:0:0:soft-hitnormal2.ogg
402,0,183539,128,0,183654:0:0:0:0:soft-hitnormal2.ogg
109,0,183654,128,0,183770:0:0:0:0:soft-hitnormal2.ogg
329,0,183654,128,0,183770:0:0:0:0:soft-hitnormal2.ogg
182,0,183770,128,0,183885:0:0:0:0:soft-hitnormal2.ogg
475,0,183770,128,0,183885:0:0:0:0:soft-hitnormal2.ogg
36,0,183885,128,0,184000:0:0:0:0:soft-hitnormal2.ogg
329,0,183885,128,0,184000:0:0:0:0:soft-hitnormal2.ogg
109,0,184000,128,0,184116:0:0:0:0:soft-hitnormal2.ogg
402,0,184000,128,0,184116:0:0:0:0:soft-hitnormal2.ogg
36,0,184116,128,0,184231:0:0:0:0:soft-hitnormal2.ogg
329,0,184116,128,0,184231:0:0:0:0:soft-hitnormal2.ogg
182,0,184231,128,0,184346:0:0:0:0:soft-hitnormal2.ogg
475,0,184231,128,0,184346:0:0:0:0:soft-hitnormal2.ogg
109,0,184346,128,0,184462:0:0:0:0:soft-hitnormal2.ogg
329,0,184346,128,0,184462:0:0:0:0:soft-hitnormal2.ogg
256,0,184462,128,0,184577:0:0:0:0:soft-hitnormal2.ogg
36,0,184577,128,0,184693:0:0:0:0:soft-hitnormal2.ogg
402,0,184577,128,0,184693:0:0:0:0:soft-hitnormal2.ogg
256,0,184693,128,0,184808:0:0:0:0:soft-hitnormal2.ogg
475,0,184693,128,0,184808:0:0:0:0:soft-hitnormal2.ogg
182,0,184808,128,0,184923:0:0:0:0:soft-hitnormal2.ogg
109,0,184923,128,0,185039:0:0:0:0:soft-hitnormal2.ogg
329,0,184923,128,0,185039:0:0:0:0:soft-hitnormal2.ogg
256,0,185039,128,0,185154:0:0:0:0:soft-hitnormal2.ogg
402,0,185039,128,0,185154:0:0:0:0:soft-hitnormal2.ogg
36,0,185154,128,0,185270:0:0:0:0:soft-hitnormal2.ogg
475,0,185154,128,0,185270:0:0:0:0:soft-hitnormal2.ogg
182,0,185270,128,0,185385:0:0:0:0:soft-hitnormal2.ogg
329,0,185270,128,0,185385:0:0:0:0:soft-hitnormal2.ogg
109,0,185385,128,0,185500:0:0:0:0:soft-hitnormal2.ogg
182,0,185500,128,0,185616:0:0:0:0:soft-hitnormal2.ogg
329,0,185500,128,0,185616:0:0:0:0:soft-hitnormal2.ogg
36,0,185616,128,0,185731:0:0:0:0:soft-hitnormal2.ogg
402,0,185616,128,0,185731:0:0:0:0:soft-hitnormal2.ogg
109,192,185731,1,0,0:0:0:0:soft-hitnormal2.ogg
256,192,185731,1,0,0:0:0:0:soft-hitnormal2.ogg
36,192,185846,1,0,0:0:0:0:soft-hitnormal2.ogg
402,192,185846,1,0,0:0:0:0:soft-hitnormal2.ogg
182,192,185962,1,0,0:0:0:0:soft-hitnormal2.ogg
475,192,185962,1,0,0:0:0:0:soft-hitnormal2.ogg
36,192,186077,1,0,0:0:0:0:soft-hitnormal2.ogg
329,192,186077,1,0,0:0:0:0:soft-hitnormal2.ogg
109,192,186193,1,0,0:0:0:0:soft-hitnormal2.ogg
402,192,186193,1,0,0:0:0:0:soft-hitnormal2.ogg
182,192,186308,1,0,0:0:0:0:soft-hitnormal2.ogg
475,192,186308,1,0,0:0:0:0:soft-hitnormal2.ogg
36,192,186423,1,0,0:0:0:0:soft-hitnormal2.ogg
329,192,186423,1,0,0:0:0:0:soft-hitnormal2.ogg
256,192,186539,1,0,0:0:0:0:soft-hitnormal2.ogg
402,192,186539,1,0,0:0:0:0:soft-hitnormal2.ogg
182,192,186654,1,0,0:0:0:0:soft-hitnormal2.ogg
475,192,186654,1,0,0:0:0:0:soft-hitnormal2.ogg
36,192,186770,1,0,0:0:0:0:soft-hitnormal2.ogg
256,192,186885,1,0,0:0:0:0:soft-hitnormal2.ogg
402,192,186885,1,0,0:0:0:0:soft-hitnormal2.ogg
109,192,187000,1,0,0:0:0:0:soft-hitnormal2.ogg
475,192,187000,1,0,0:0:0:0:soft-hitnormal2.ogg
182,192,187116,1,0,0:0:0:0:soft-hitnormal2.ogg
329,192,187116,1,0,0:0:0:0:soft-hitnormal2.ogg
36,192,187231,1,0,0:0:0:0:soft-hitnormal2.ogg
402,192,187231,1,0,0:0:0:0:soft-hitnormal2.ogg
182,192,187346,1,0,0:0:0:0:soft-hitnormal2.ogg
475,192,187346,1,0,0:0:0:0:soft-hitnormal2.ogg
36,192,187462,1,0,0:0:0:0:soft-hitnormal2.ogg
256,192,187462,1,0,0:0:0:0:soft-hitnormal2.ogg
109,192,187577,1,0,0:0:0:0:soft-hitnormal2.ogg
402,192,187577,1,0,0:0:0:0:soft-hitnormal2.ogg
36,192,187693,1,0,0:0:0:0:soft-hitnormal2.ogg
256,192,187693,1,0,0:0:0:0:soft-hitnormal2.ogg
182,192,187808,1,0,0:0:0:0:soft-hitnormal2.ogg
475,192,187808,1,0,0:0:0:0:soft-hitnormal2.ogg
36,192,187923,1,0,0:0:0:0:soft-hitnormal2.ogg
329,192,187923,1,0,0:0:0:0:soft-hitnormal2.ogg
182,192,188039,1,0,0:0:0:0:soft-hitnormal2.ogg
402,192,188039,1,0,0:0:0:0:soft-hitnormal2.ogg
36,192,188154,1,0,0:0:0:0:soft-hitnormal2.ogg
182,192,188270,1,0,0:0:0:0:soft-hitnormal2.ogg
329,192,188270,1,0,0:0:0:0:soft-hitnormal2.ogg
109,192,188385,1,0,0:0:0:0:soft-hitnormal2.ogg
475,192,188385,1,0,0:0:0:0:soft-hitnormal2.ogg
329,192,188500,1,0,0:0:0:0:soft-hitnormal2.ogg
36,192,188616,1,0,0:0:0:0:soft-hitnormal2.ogg
256,192,188616,1,0,0:0:0:0:soft-hitnormal2.ogg
109,192,188731,1,0,0:0:0:0:soft-hitnormal2.ogg
402,192,188731,1,0,0:0:0:0:soft-hitnormal2.ogg
256,192,188846,1,0,0:0:0:0:soft-hitnormal2.ogg
36,192,188962,1,0,0:0:0:0:soft-hitnormal2.ogg
329,192,188962,1,0,0:0:0:0:soft-hitnormal2.ogg
182,192,189077,1,0,0:0:0:0:soft-hitnormal2.ogg
475,192,189077,1,0,0:0:0:0:soft-hitnormal2.ogg
109,192,189193,1,0,0:0:0:0:soft-hitnormal2.ogg
329,192,189193,1,0,0:0:0:0:soft-hitnormal2.ogg
256,192,189308,1,0,0:0:0:0:soft-hitnormal2.ogg
402,192,189308,1,0,0:0:0:0:soft-hitnormal2.ogg
36,192,189423,1,0,0:0:0:0:soft-hitnormal2.ogg
182,0,189423,128,0,190116:0:0:0:0:soft-hitnormal2.ogg
475,0,189423,128,0,190116:0:0:0:0:soft-hitnormal2.ogg
109,192,189539,1,0,0:0:0:0:soft-hitnormal2.ogg
256,192,189654,1,0,0:0:0:0:soft-hitnormal2.ogg
329,192,189770,1,0,0:0:0:0:soft-hitnormal2.ogg
402,192,189885,1,0,0:0:0:0:soft-hitnormal2.ogg
256,192,190000,1,0,0:0:0:0:soft-hitnormal2.ogg
109,192,190116,1,0,0:0:0:0:soft-hitnormal2.ogg
36,0,190116,128,0,191270:0:0:0:0:soft-hitnormal2.ogg
329,0,190116,128,0,191270:0:0:0:0:soft-hitnormal2.ogg
182,192,190231,1,0,0:0:0:0:soft-hitnormal2.ogg
256,192,190346,1,0,0:0:0:0:soft-hitnormal2.ogg
402,192,190462,1,0,0:0:0:0:soft-hitnormal2.ogg
475,192,190577,1,0,0:0:0:0:soft-hitnormal2.ogg
402,192,190693,1,0,0:0:0:0:soft-hitnormal2.ogg
256,192,190808,1,0,0:0:0:0:soft-hitnormal2.ogg
182,192,190923,1,0,0:0:0:0:soft-hitnormal2.ogg
109,192,191039,1,0,0:0:0:0:soft-hitnormal2.ogg
182,192,191154,1,0,0:0:0:0:soft-hitnormal2.ogg
109,0,191270,128,0,191962:0:0:0:0:soft-hitnormal2.ogg
256,192,191270,1,0,0:0:0:0:soft-hitnormal2.ogg
402,0,191270,128,0,191962:0:0:0:0:soft-hitnormal2.ogg
329,192,191385,1,0,0:0:0:0:soft-hitnormal2.ogg
475,192,191500,1,0,0:0:0:0:soft-hitnormal2.ogg
329,192,191616,1,0,0:0:0:0:soft-hitnormal2.ogg
256,192,191731,1,0,0:0:0:0:soft-hitnormal2.ogg
329,192,191846,1,0,0:0:0:0:soft-hitnormal2.ogg
182,0,191962,128,0,192308:0:0:0:0:soft-hitnormal2.ogg
256,192,191962,1,0,0:0:0:0:soft-hitnormal2.ogg
475,0,191962,128,0,192308:0:0:0:0:soft-hitnormal2.ogg
329,192,192077,1,0,0:0:0:0:soft-hitnormal2.ogg
402,192,192193,1,0,0:0:0:0:soft-hitnormal2.ogg
36,0,192308,128,0,192654:0:0:0:0:soft-hitnormal2.ogg
256,192,192308,1,0,0:0:0:0:soft-hitnormal2.ogg
329,0,192308,128,0,192654:0:0:0:0:soft-hitnormal2.ogg
182,192,192423,1,0,0:0:0:0:soft-hitnormal2.ogg
109,192,192539,1,0,0:0:0:0:soft-hitnormal2.ogg
182,192,192654,1,0,0:0:0:0:soft-hitnormal2.ogg
256,0,192654,128,0,193116:0:0:0:0:soft-hitnormal2.ogg
402,0,192654,128,0,193116:0:0:0:0:soft-hitnormal2.ogg
329,192,192770,1,0,0:0:0:0:soft-hitnormal2.ogg
475,192,192885,1,0,0:0:0:0:soft-hitnormal2.ogg
329,192,193000,1,0,0:0:0:0:soft-hitnormal2.ogg
109,0,193116,128,0,193808:0:0:0:0:soft-hitnormal2.ogg
182,192,193116,1,0,0:0:0:0:soft-hitnormal2.ogg
475,0,193116,128,0,193808:0:0:0:0:soft-hitnormal2.ogg
36,192,193231,1,0,0:0:0:0:soft-hitnormal2.ogg
182,192,193346,1,0,0:0:0:0:soft-hitnormal2.ogg
256,192,193462,1,0,0:0:0:0:soft-hitnormal2.ogg
329,192,193577,1,0,0:0:0:0:soft-hitnormal2.ogg
402,192,193693,1,0,0:0:0:0:soft-hitnormal2.ogg
256,192,193808,1,0,0:0:0:0:soft-hitnormal2.ogg
182,0,193808,128,0,194962:0:0:0:0:soft-hitnormal2.ogg
329,0,193808,128,0,194962:0:0:0:0:soft-hitnormal2.ogg
109,192,193923,1,0,0:0:0:0:soft-hitnormal2.ogg
36,192,194039,1,0,0:0:0:0:soft-hitnormal2.ogg
109,192,194154,1,0,0:0:0:0:soft-hitnormal2.ogg
256,192,194270,1,0,0:0:0:0:soft-hitnormal2.ogg
402,192,194385,1,0,0:0:0:0:soft-hitnormal2.ogg
475,192,194500,1,0,0:0:0:0:soft-hitnormal2.ogg
402,192,194616,1,0,0:0:0:0:soft-hitnormal2.ogg
256,192,194731,1,0,0:0:0:0:soft-hitnormal2.ogg
109,192,194846,1,0,0:0:0:0:soft-hitnormal2.ogg
36,0,194962,128,0,195654:0:0:0:0:soft-hitnormal2.ogg
256,192,194962,1,0,0:0:0:0:soft-hitnormal2.ogg
402,0,194962,128,0,195654:0:0:0:0:soft-hitnormal2.ogg
329,192,195077,1,0,0:0:0:0:soft-hitnormal2.ogg
475,192,195193,1,0,0:0:0:0:soft-hitnormal2.ogg
329,192,195308,1,0,0:0:0:0:soft-hitnormal2.ogg
256,192,195423,1,0,0:0:0:0:soft-hitnormal2.ogg
182,192,195539,1,0,0:0:0:0:soft-hitnormal2.ogg
109,0,195654,128,0,196116:0:0:0:0:soft-hitnormal2.ogg
256,0,195654,128,0,196116:0:0:0:0:soft-hitnormal2.ogg
329,192,195654,1,0,0:0:0:0:soft-hitnormal2.ogg
402,192,195770,1,0,0:0:0:0:soft-hitnormal2.ogg
475,192,195885,1,0,0:0:0:0:soft-hitnormal2.ogg
402,192,196000,1,0,0:0:0:0:soft-hitnormal2.ogg
182,0,196116,128,0,196462:0:0:0:0:soft-hitnormal2.ogg
329,192,196116,1,0,0:0:0:0:soft-hitnormal2.ogg
475,0,196116,128,0,196462:0:0:0:0:soft-hitnormal2.ogg
256,192,196231,1,0,0:0:0:0:soft-hitnormal2.ogg
109,192,196346,1,0,0:0:0:0:soft-hitnormal2.ogg
256,192,196462,1,0,0:0:0:0:soft-hitnormal2.ogg
36,0,196462,128,0,196808:0:0:0:0:soft-hitnormal2.ogg
329,0,196462,128,0,196808:0:0:0:0:soft-hitnormal2.ogg
402,192,196577,1,0,0:0:0:0:soft-hitnormal2.ogg
475,192,196693,1,0,0:0:0:0:soft-hitnormal2.ogg
109,0,196808,128,0,197731:0:0:0:0:soft-hitnormal2.ogg
256,0,196808,128,0,197616:0:0:0:0:soft-hitnormal2.ogg
402,0,196808,128,0,197385:0:0:0:0:soft-hitnormal2.ogg
329,0,196923,128,0,197270:0:0:0:0:soft-hitnormal2.ogg
182,0,197039,128,0,197154:0:0:0:0:soft-hitnormal2.ogg
36,0,197154,128,0,197846:0:0:0:0:soft-hitnormal2.ogg
182,0,197270,128,0,197385:0:0:0:0:soft-hitnormal2.ogg
329,0,197385,128,0,197500:0:0:0:0:soft-hitnormal2.ogg
402,0,197500,128,0,198308:0:0:0:0:soft-hitnormal2.ogg
182,0,197500,128,0,198654:0:0:0:0:soft-hitnormal2.ogg
475,0,197500,128,0,199231:0:0:0:0:soft-hitnormal2.ogg
329,0,197616,128,0,198193:0:0:0:0:soft-hitnormal2.ogg
256,0,197731,128,0,198077:0:0:0:0:soft-hitnormal2.ogg
109,0,197846,128,0,197962:0:0:0:0:soft-hitnormal2.ogg
36,0,197962,128,0,198770:0:0:0:0:soft-hitnormal2.ogg
109,0,198077,128,0,198539:0:0:0:0:soft-hitnormal2.ogg
256,0,198193,128,0,198539:0:0:0:0:soft-hitnormal2.ogg
329,0,198308,128,0,198423:0:0:0:0:soft-hitnormal2.ogg
402,0,198423,128,0,198539:0:0:0:0:soft-hitnormal2.ogg
329,0,198539,128,0,199116:0:0:0:0:soft-hitnormal2.ogg
109,0,198654,128,0,199346:0:0:0:0:soft-hitnormal2.ogg
256,0,198654,128,0,199000:0:0:0:0:soft-hitnormal2.ogg
402,0,198654,128,0,199577:0:0:0:0:soft-hitnormal2.ogg
182,0,198770,128,0,198885:0:0:0:0:soft-hitnormal2.ogg
36,0,198885,128,0,199577:0:0:0:0:soft-hitnormal2.ogg
182,0,199000,128,0,199231:0:0:0:0:soft-hitnormal2.ogg
256,0,199116,128,0,199231:0:0:0:0:soft-hitnormal2.ogg
329,0,199231,128,0,199577:0:0:0:0:soft-hitnormal2.ogg
182,0,199346,128,0,200270:0:0:0:0:soft-hitnormal2.ogg
256,0,199346,128,0,199462:0:0:0:0:soft-hitnormal2.ogg
475,0,199346,128,0,199693:0:0:0:0:soft-hitnormal2.ogg
109,0,199462,128,0,199923:0:0:0:0:soft-hitnormal2.ogg
256,0,199577,128,0,199923:0:0:0:0:soft-hitnormal2.ogg
36,0,199693,128,0,200270:0:0:0:0:soft-hitnormal2.ogg
329,0,199693,128,0,200154:0:0:0:0:soft-hitnormal2.ogg
402,0,199693,128,0,199808:0:0:0:0:soft-hitnormal2.ogg
475,0,199808,128,0,199923:0:0:0:0:soft-hitnormal2.ogg
402,0,199923,128,0,200039:0:0:0:0:soft-hitnormal2.ogg
109,0,200039,128,0,200385:0:0:0:0:soft-hitnormal2.ogg
256,0,200039,128,0,200385:0:0:0:0:soft-hitnormal2.ogg
475,0,200039,128,0,200270:0:0:0:0:soft-hitnormal2.ogg
402,0,200154,128,0,200270:0:0:0:0:soft-hitnormal2.ogg
329,0,200270,128,0,200385:0:0:0:0:soft-hitnormal2.ogg
36,0,200500,128,0,207885:0:0:0:0:soft-hitnormal2.ogg
109,0,200500,128,0,207885:0:0:0:0:soft-hitnormal2.ogg
182,0,200500,128,0,207885:0:0:0:0:soft-hitnormal2.ogg
256,0,200500,128,0,207885:0:0:0:0:soft-hitnormal2.ogg
329,0,200500,128,0,207885:0:0:0:0:soft-hitnormal2.ogg
402,0,200500,128,0,207885:0:0:0:0:soft-hitnormal2.ogg
475,0,200500,128,0,207885:0:0:0:0:soft-hitnormal2.ogg
