osu file format v6

[General]
AudioFilename: BgmBa4Darkon.mp3
AudioLeadIn: 0
PreviewTime: -1
Countdown: 1
SampleSet: Normal
StackLeniency: 0.6
Mode: 0
LetterboxInBreaks: 1
SkinPreference:oewy

[Editor]
DistanceSpacing: 0.800000011920929
BeatDivisor: 4
GridSize: 16

[Metadata]
Title:Darkon Battle Music
Artist:Fly For Fun RPG
Creator:unduper
Version:Normal
Source:
Tags:

[Difficulty]
HPDrainRate:5
CircleSize:5
OverallDifficulty:5
SliderMultiplier:1.4
SliderTickRate:1

[Events]
//Background and Video events
//Break Periods
//Storyboard Layer 0 (Background)
//Storyboard Layer 1 (Fail)
//Storyboard Layer 2 (Pass)
//Storyboard Layer 3 (Foreground)
//Storyboard Sound Samples
//Background Colour Transformations
3,100,163,162,255

[TimingPoints]
1575.83551306813,909.090909090909,4,1,0,100,1,0

[HitObjects]
140,121,11575,1,0
388,124,12484,1,0
379,296,13394,1,0
126,295,14303,1,0
248,192,15212,1,0
243,324,16121,1,0
250,96,16803,1,0
244,206,17712,1,0
256,208,17939,1,0
124,198,18848,1,0
250,320,19530,1,0
252,200,20666,1,0
249,83,21348,1,0
384,180,22030,1,0
156,204,22484,1,0
259,309,23166,1,0
252,196,24303,1,0
250,80,25212,1,0
388,174,25666,1,0
128,177,26121,1,2
261,308,26803,1,2
372,257,27257,1,2
352,142,27712,1,2
239,97,28166,1,2
118,198,28621,1,2
182,287,28848,1,2
309,286,29075,1,2
409,196,29303,1,4
252,152,29757,5,0
392,97,30212,1,0
391,248,30666,1,0
152,274,31121,1,0
160,144,31803,1,0
160,144,32030,1,0
160,144,32257,1,0
400,192,32939,1,0
400,192,33166,1,0
168,270,33621,1,0
168,270,33848,1,0
204,172,34303,1,0
296,233,34757,1,0
320,101,35439,1,0
410,228,35894,1,0
352,314,36121,1,0
173,216,36348,1,8
262,150,36803,1,0
256,206,37257,1,0
256,206,37484,1,0
164,256,37939,1,0
333,284,38394,1,0
351,155,38848,1,0
215,139,39303,1,0
198,170,39530,1,0
162,260,39984,1,0
291,262,40439,1,0
296,203,40894,1,0
296,203,41121,1,0
378,127,41803,5,0
231,91,42257,1,0
114,209,42712,1,0
286,206,43166,1,0
272,274,43394,1,0
375,320,43848,1,8
393,216,44303,1,0
393,216,44530,1,0
393,216,44984,1,0
273,149,45439,1,0
213,232,45894,1,0
139,137,46348,1,0
298,55,46575,1,0
377,103,46803,1,0
344,234,47257,1,0
203,254,47939,1,0
227,160,48394,1,0
355,162,49075,1,0
303,68,49530,1,0
172,166,49757,1,0
272,224,50439,1,0
272,224,50666,1,8
272,224,50894,1,2
236,107,51348,1,0
174,222,51803,1,0
174,222,52030,1,0
289,252,52712,1,0
287,116,53166,1,0
140,122,53621,1,0
265,188,54075,1,0
265,188,54303,1,0
406,157,54757,1,0
316,275,55212,1,2
205,253,55666,1,2
206,145,56348,1,2
284,106,56803,1,0
383,123,57030,1,0
321,229,57712,1,0
321,229,58166,1,0
196,228,58848,1,2
171,160,59530,1,8
268,169,60439,1,2
364,169,61348,1,2
360,283,62030,1,8
228,285,63394,1,8
133,275,64303,1,0
152,163,65212,1,0
299,186,65666,1,0
405,188,66121,1,0
368,261,67030,1,0
211,230,67939,1,0
218,116,68621,1,0
339,130,69303,1,8
308,223,69757,1,0
184,195,70212,1,0
286,96,70666,1,0
350,232,71575,5,2
203,218,72030,1,2
248,188,72484,1,2
284,99,72939,1,2
211,154,73848,1,8
304,247,74757,1,8
283,73,75666,1,2
256,192,76803,12,8,78621
256,192,78848,12,8,80212
256,192,80439,12,2,82257
256,192,82484,12,2,83848
240,160,84303,6,10,C|425:317|398:47|87:159|191:235,1,945
256,192,90894,12,2,91575
256,192,92030,5,8
256,192,92712,12,2,93394
256,192,93621,5,8
256,192,94075,12,2,94303
256,192,94530,12,2,94757
256,192,95212,12,8,95894
256,192,96803,12,10,97939
256,192,98394,12,2,98848
256,192,99303,12,10,100212
256,192,100894,12,14,102484
