osu file format v9

[General]
AudioFilename: Floxytek - Paranormal.mp3
AudioLeadIn: 0
PreviewTime: 59615
Countdown: 1
SampleSet: Normal
StackLeniency: 0.7
Mode: 0
LetterboxInBreaks: 0
EpilepsyWarning: 1

[Editor]
DistanceSpacing: 1
BeatDivisor: 4
GridSize: 4

[Metadata]
Title:Paranormal
Artist:Floxytek
Creator:Katty Pie
Version:Paranormal
Source:
Tags:Akemi_Homura FoxShift terrible horror raimoncortese raimon

[Difficulty]
HPDrainRate:6
CircleSize:4
OverallDifficulty:6
ApproachRate:8
SliderMultiplier:2
SliderTickRate:1

[Events]
//Background and Video events
0,0,"SS.jpg"
//Break Periods
2,121709,130865
//Storyboard Layer 0 (Background)
//Storyboard Layer 1 (Fail)
//Storyboard Layer 2 (Pass)
//Storyboard Layer 3 (Foreground)
Sprite,Foreground,Centre,"SB\b.png",320,240 S,0,76036,,0.8 F,0,76036,76273,1,0 F,0,76273,76352,0,1 F,0,76352,76588,1,0 F,0,76588,76667,0,1 F,0,76667,76904,1,0 F,0,76904,76983,0,1 F,0,76983,77220,1,0 F,0,77220,77299,0,1 F,0,77299,77536,1,0 F,0,77536,77615,0,1 F,0,77615,77852,1,0 F,0,77852,77930,0,1 F,0,77930,78167,1,0 F,0,78167,78246,0,1 F,0,78246,78483,1,0 F,0,78483,78562,0,1 F,0,78562,78799,1,0 F,0,78799,78878,0,1 F,0,78878,79115,1,0 F,0,79115,79194,0,1 F,0,79194,79430,1,0 F,0,79430,79509,0,1 F,0,79509,79746,1,0 F,0,79746,79825,0,1 F,0,79825,80062,1,0 F,0,80062,80141,0,1 F,0,80141,80378,1,0 F,0,80378,80457,0,1 F,0,80457,80694,1,0 F,0,80694,80773,0,1 F,0,80773,81009,1,0 F,0,81009,81088,0,1 F,0,81088,81325,1,0 F,0,81325,81404,0,1 F,0,81404,81641,1,0 F,0,81641,81720,0,1 F,0,81720,81957,1,0 F,0,81957,82036,0,1 F,0,82036,82273,1,0 F,0,82273,82352,0,1 F,0,82352,82588,1,0 F,0,82588,82667,0,1 F,0,82667,82904,1,0 F,0,82904,82983,0,1 F,0,82983,83220,1,0 F,0,83220,83299,0,1 F,0,83299,83536,1,0 F,0,83536,83615,0,1 F,0,83615,83852,1,0 F,0,83852,83930,0,1 F,0,83930,84167,1,0 F,0,84167,84246,0,1 F,0,84246,84483,1,0 F,0,84483,84562,0,1 F,0,84562,84799,1,0 F,0,84799,84878,0,1 F,0,84878,85115,1,0 F,0,85115,85194,0,1 F,0,85194,85430,1,0 F,0,85430,85509,0,1 F,0,85509,85746,1,0 F,0,85746,85825,0,1 F,0,85825,85904,1,0 F,0,85904,85983,0,1 F,0,85983,86062,1,0 F,0,86062,86141,0,1 F,0,86141,86378,1,0 S,0,86141,86378,0.8054402,0.9692804 F,0,86378,86457,0,1 S,0,86378,86457,0.9692804,0.8054404 F,0,86457,86694,1,0 S,0,86457,86694,0.8054404,0.9692804 F,0,86694,86773,0,1 S,0,86694,86773,0.9692804,0.8054404 F,0,86773,87009,1,0 S,0,86773,87009,0.8054404,0.9692804 F,0,87009,87088,0,1 S,0,87009,87088,0.9692804,0.8054404 F,0,87088,87325,1,0 S,0,87088,87325,0.8054404,0.9692804 F,0,87325,87404,0,1 S,0,87325,87404,0.9692804,0.8054403 F,0,87404,87641,1,0 S,0,87404,87641,0.8054403,0.9692804 F,0,87641,87720,0,1 S,0,87641,87720,0.9692804,0.8156804 F,0,87720,87957,1,0 S,0,87720,87957,0.8156804,0.9692804 F,0,87957,88036,0,1 S,0,87957,88036,0.9692804,0.8054404 F,0,88036,88273,1,0 S,0,88036,88273,0.8054404,0.9692804 F,0,88273,88352,0,1 S,0,88273,88352,0.9692804,0.7952005 F,0,88352,88588,1,0 S,0,88352,88588,0.7952005,0.9692804 F,0,88588,88667,0,1 S,0,88588,88667,0.9692804,0.7952005 F,0,88667,88904,1,0 S,0,88667,88904,0.7952005,0.9692804 F,0,88904,88983,0,1 S,0,88904,88983,0.9692804,0.8054405 F,0,88983,89220,1,0 S,0,88983,89220,0.8054405,0.9692804 F,0,89220,89299,0,1 S,0,89220,89299,0.9692804,0.8054402 F,0,89299,89536,1,0 S,0,89299,89536,0.8054402,0.9692804 F,0,89536,89615,0,1 S,0,89536,89615,0.9692804,0.8054405 F,0,89615,89852,1,0 S,0,89615,89852,0.8054405,0.9692804 F,0,89852,89930,0,1 S,0,89852,89930,0.9692804,0.7952003 F,0,89930,90167,1,0 S,0,89930,90167,0.7952003,0.9692804 F,0,90167,90246,0,1 S,0,90167,90246,0.9692804,0.8054404 F,0,90246,90483,1,0 S,0,90246,90483,0.8054404,0.9692804 F,0,90483,90562,0,1 S,0,90483,90562,0.9692804,0.8054404 F,0,90562,90799,1,0 S,0,90562,90799,0.8054404,0.9692804 F,0,90799,90878,0,1 S,0,90799,90878,0.9692804,0.8054404 F,0,90878,91115,1,0 S,0,90878,91115,0.8054404,0.9692804 F,0,91115,91194,0,1 S,0,91115,91194,0.9692804,0.8054404 F,0,91194,91430,1,0 S,0,91194,91430,0.8054404,0.9692804 F,0,91430,91509,0,1 S,0,91430,91509,0.9692804,0.8054404 F,0,91509,91746,1,0 S,0,91509,91746,0.8054404,0.9692804 F,0,91746,91825,0,1 S,0,91746,91825,0.9692804,0.8054405 F,0,91825,92062,1,0 S,0,91825,92062,0.8054405,0.9692804 F,0,92062,92141,0,1 S,0,92062,92141,0.9692804,0.8054402 F,0,92141,92378,1,0 S,0,92141,92378,0.8054402,0.9692804 F,0,92378,92457,0,1 S,0,92378,92457,0.9692804,0.7952003 F,0,92457,92694,1,0 S,0,92457,92694,0.7952003,0.9692804 F,0,92694,92773,0,1 S,0,92694,92773,0.9692804,0.8054404 F,0,92773,93009,1,0 S,0,92773,93009,0.8054404,0.9692804 F,0,93009,93088,0,1 S,0,93009,93088,0.9692804,0.8054404 F,0,93088,93325,1,0 S,0,93088,93325,0.8054404,0.9692804 F,0,93325,93404,0,1 S,0,93325,93404,0.9692804,0.8054404 F,0,93404,93641,1,0 S,0,93404,93641,0.8054404,0.9692804 F,0,93641,93720,0,1 S,0,93641,93720,0.9692804,0.8054404 F,0,93720,93957,1,0 S,0,93720,93957,0.8054404,0.9692804 F,0,93957,94036,0,1 S,0,93957,94036,0.9692804,0.8054404 F,0,94036,94273,1,0 S,0,94036,94273,0.8054404,0.9692804 F,0,94273,94352,0,1 S,0,94273,94352,0.9692804,0.8054405 F,0,94352,94588,1,0 S,0,94352,94588,0.8054405,0.9692804 F,0,94588,94667,0,1 S,0,94588,94667,0.9692804,0.8054405 F,0,94667,94904,1,0 S,0,94667,94904,0.8054405,0.9692804 F,0,94904,94983,0,1 S,0,94904,94983,0.9692804,0.8054404 F,0,94983,95220,1,0 S,0,94983,95220,0.8054404,0.9692804 F,0,95220,95299,0,1 S,0,95220,95299,0.9692804,0.8054404 F,0,95299,95536,1,0 S,0,95299,95536,0.8054404,0.9692804 F,0,95536,95615,0,1 S,0,95536,95615,0.9692804,0.8054405 F,0,95615,95694,1,0 S,0,95615,95694,0.8054405,0.9692804 F,0,95694,95773,0,1 S,0,95694,95773,0.9692804,0.7952002 F,0,95773,95852,1,0 S,0,95773,95852,0.7952002,0.9692804 F,0,95852,95930,0,1 S,0,95852,95930,0.9692804,0.8054404 F,0,95930,96009,1,0 S,0,95930,96009,0.8054404,0.9692804 F,0,96009,96088,0,1 S,0,96009,96088,0.9692804,0.7952002 F,0,96088,96167,1,0 S,0,96088,96167,0.7952002,0.9692804 F,0,96167,96246,0 S,0,96167,96246,1 S,0,96246,,0.8 F,0,111325,111404,0,1 F,0,111404,111641,1,0 F,0,111641,111720,0,1 F,0,111720,111957,1,0 F,0,111957,112036,0,1 F,0,112036,112273,1,0 F,0,112273,112352,0,1 F,0,112352,112588,1,0 F,0,112588,112667,0,1 F,0,112667,112904,1,0 F,0,112904,112983,0,1 F,0,112983,113220,1,0 F,0,113220,113299,0,1 F,0,113299,113536,1,0 F,0,113536,113615,0,1 F,0,113615,113852,1,0 F,0,113852,113930,0,1 F,0,113930,114167,1,0 F,0,114167,114246,0,1 F,0,114246,114483,1,0 F,0,114483,114562,0,1 F,0,114562,114799,1,0 F,0,114799,114878,0,1 F,0,114878,115115,1,0 F,0,115115,115194,0,1 F,0,115194,115430,1,0 F,0,115430,115509,0,1 F,0,115509,115746,1,0 F,0,115746,115825,0,1 F,0,115825,116062,1,0 F,0,116062,116141,0,1 F,0,116141,116378,1,0 F,0,116378,116457,0,1 F,0,116457,116694,1,0 F,0,116694,116773,0,1 F,0,116773,117009,1,0 F,0,117009,117088,0,1 F,0,117088,117325,1,0 F,0,117325,117404,0,1 F,0,117404,117641,1,0 F,0,117641,117720,0,1 F,0,117720,117957,1,0 F,0,117957,118036,0,1 F,0,118036,118273,1,0 F,0,118273,118352,0,1 F,0,118352,118588,1,0 F,0,118588,118667,0,1 F,0,118667,118904,1,0 F,0,118904,118983,0,1 F,0,118983,119220,1,0 F,0,119220,119299,0,1 F,0,119299,119536,1,0 F,0,119536,119615,0,1 F,0,119615,119852,1,0 F,0,119852,119930,0,1 F,0,119930,120009,1 F,0,120009,120167,1,0 F,0,120167,120246,0,1 F,0,120246,120483,1,0 F,0,120483,120562,0,1 F,0,120562,120799,1,0 F,0,120799,120878,0,1 F,0,120878,120957,1,0 F,0,120957,121036,0,1 F,0,121036,121115,1,0 F,0,121115,121194,0,1 F,0,121194,121273,1,0 F,0,121273,121352,0,1 F,0,121352,121430,1,0 F,0,121430,121509,0
Sprite,Foreground,Centre,"SB\d.png",320,240 F,0,30878,31430,1,0 S,0,30878,39404,0.8 F,0,31430,31509,0,1 F,0,31509,32062,1,0 F,0,32062,32141,0,1 F,0,32141,32694,1,0 F,0,32694,32773,0,1 F,0,32773,33325,1,0 F,0,33325,33404,0,0.9620253 F,0,33404,33957,0.9620253,0 F,0,33957,34036,0,0.9620253 F,0,34036,34588,0.9620253,0 F,0,34588,34667,0,0.9620253 F,0,34667,35220,0.9620253,0 F,0,35220,35299,0,0.9620253 F,0,35299,35852,0.9620253,0 F,0,35852,35930,0,0.9620253 F,0,35930,36483,0.9620253,0 F,0,36483,36562,0,0.9620253 F,0,36562,37115,0.9620253,0 F,0,37115,37194,0,0.9620253 F,0,37194,37746,0.9620253,0 F,0,37746,37825,0,0.9620253 F,0,37825,38062,0.9620253,0 F,0,38062,38141,0,0.9620253 F,0,38141,38378,0.9620253,0 F,0,38378,38457,0,0.9620253 F,0,38457,38694,0.9620253,0 F,0,38694,38773,0,0.9498478 F,0,38773,39009,0.9498478,0 F,0,39009,39088,0,0.9498478 F,0,39088,39325,0.9498478,0 F,0,39325,39404,0 F,0,39404,,0 F,0,39404,39720,0,1 S,0,39404,39720,0.8054401,0.91808 F,0,39720,40036,1,0 S,0,39720,40036,0.91808,2.47456 F,0,40036,40352,0,1 S,0,40036,40352,2.47456,0.90784 F,0,40352,40588,1,0.2507936 S,0,40352,40588,0.90784,2.538731 F,0,40588,40667,0.2507936,0 S,0,40588,40667,2.538731,0.7952002 S,0,40667,,0.8 F,0,40667,40904,0 F,0,40904,40983,0,1 F,0,40983,41536,1,0 F,0,41536,41615,0,1 F,0,41615,,1 F,0,41615,42167,1,0 F,0,42167,42246,0,1 F,0,42246,42799,1,0 F,0,42799,42878,0,1 F,0,42878,43430,1,0 F,0,43430,43509,0,1 F,0,43509,44062,1,0 F,0,44062,44141,0,1 F,0,44141,44694,1,0 F,0,44694,44773,0,1 F,0,44773,45325,1,0 F,0,45325,45404,0,1 F,0,45404,45957,1,0 F,0,45957,46036,0,1 F,0,46036,46588,1,0 F,0,46588,46667,0,1 F,0,46667,47220,1,0 F,0,47220,47299,0,1 F,0,47299,47852,1,0 F,0,47852,47930,0,1 F,0,47930,48167,1,0 F,0,48167,48246,0,1 F,0,48246,48483,1,0 F,0,48483,48562,0,1 F,0,48562,48799,1,0 F,0,48799,48878,0,1 F,0,48878,49115,1,0 F,0,49115,49194,0,1 F,0,49194,49430,1,0 F,0,157115,157194,0,1 F,0,157194,157509,1,0 S,0,157194,157509,0.8054401,0.9078401 F,0,157509,157746,0 S,0,157509,157825,0.9078401,0.8054402 F,0,157746,157825,0,1 F,0,157825,158141,1,0 S,0,157825,158141,0.8054402,0.9078401 F,0,158141,158378,0 S,0,158141,158457,0.9078401,0.7952001 F,0,158378,158457,0,1 F,0,158457,,1 F,0,158457,158773,1,0 S,0,158457,158773,0.7952001,0.9078401 F,0,158773,159009,0 S,0,158773,159088,0.9078401,0.8054401 F,0,159009,159088,0,1 F,0,159088,159404,1,0 S,0,159088,159404,0.8054401,0.9078401 F,0,159404,159641,0 S,0,159404,159720,0.9078401,0.7952 F,0,159641,159720,0,1 F,0,159720,160036,1,0 S,0,159720,160036,0.7952,0.9078401 F,0,160036,160273,0 S,0,160036,160352,0.9078401,0.7952002 F,0,160273,160352,0,1 F,0,160352,160667,1,0 S,0,160352,160667,0.7952002,0.9078401 F,0,160667,160904,0 S,0,160667,160983,0.9078401,0.7952002 F,0,160904,160983,0,1 F,0,160983,161299,1,0 S,0,160983,161299,0.7952002,0.9078401 F,0,161299,161536,0 S,0,161299,161615,0.9078401,0.7952002 F,0,161536,161615,0,1 F,0,161615,161930,1,0 S,0,161615,161930,0.7952002,0.9078401 F,0,161930,162167,0 S,0,161930,162246,0.9078401,0.8054402 F,0,162167,162246,0,1 F,0,162246,162562,1,0 S,0,162246,162562,0.8054402,0.9078401 F,0,162562,162799,0 S,0,162562,162878,0.9078401,0.80544 F,0,162799,162878,0,1 F,0,162878,163194,1,0 S,0,162878,163194,0.80544,0.9078401 F,0,163194,163430,0 S,0,163194,163509,0.9078401,0.7952 F,0,163430,163509,0,1 F,0,163509,163825,1,0 S,0,163509,163825,0.7952,0.9078401 F,0,163825,164062,0 S,0,163825,164141,0.9078401,0.8054401 F,0,164062,164141,0,1 F,0,164141,164457,1,0 S,0,164141,164457,0.8054401,0.9078401 F,0,164457,164694,0 S,0,164457,164773,0.9078401,0.7952 F,0,164694,164773,0,1 F,0,164773,165088,1,0 S,0,164773,165088,0.7952,0.9078401 F,0,165088,165325,0 S,0,165088,165404,0.9078401,0.8054402 F,0,165325,165404,0,1 F,0,165404,165720,1,0 S,0,165404,165720,0.8054402,0.9078401 F,0,165720,165957,0 S,0,165720,166036,0.9078401,0.7952 F,0,165957,166036,0,1 F,0,166036,166352,1,0 S,0,166036,166352,0.7952,0.9078401 F,0,166352,166588,0 S,0,166352,166667,0.9078401,0.8054401 F,0,166588,166667,0,1 F,0,166667,166983,1,0 S,0,166667,166983,0.8054401,0.9078401 F,0,166983,167220,0 S,0,166983,167299,0.9078401,0.8054401 F,0,167220,167299,0,1 F,0,167299,167615,1,0 S,0,167299,167615,0.8054401,0.9078401 F,0,167615,167852,0 S,0,167615,167930,0.9078401,0.8054401 F,0,167852,167930,0,1 F,0,167930,168246,1,0 S,0,167930,168246,0.8054401,0.9078401 F,0,168246,168483,0 S,0,168246,168562,0.9078401,0.8054401 F,0,168483,168562,0,1 F,0,168562,168878,1,0 S,0,168562,168878,0.8054401,0.9078401 F,0,168878,169115,0 S,0,168878,169194,0.9078401,0.8156801 F,0,169115,169194,0,1 F,0,169194,169509,1,0 S,0,169194,169509,0.8156801,0.9078401 F,0,169509,169746,0 S,0,169509,169825,0.9078401,0.8054401 F,0,169746,169825,0,1 F,0,169825,170141,1,0 S,0,169825,170141,0.8054401,0.9078401 F,0,170141,170378,0 S,0,170141,170457,0.9078401,0.7952001 F,0,170378,170457,0,1 F,0,170457,170773,1,0 S,0,170457,170773,0.7952001,0.9078401 F,0,170773,171009,0 S,0,170773,171088,0.9078401,0.8054401 F,0,171009,171088,0,1 F,0,171088,171404,1,0 S,0,171088,171404,0.8054401,0.9078401 F,0,171404,171641,0 S,0,171404,171720,0.9078401,0.7952001 F,0,171641,171720,0,1 F,0,171720,172036,1,0 S,0,171720,172036,0.7952001,0.9078401 F,0,172036,172273,0 S,0,172036,172352,0.9078401,0.8054401 F,0,172273,172352,0,1 F,0,172352,172667,1,0 S,0,172352,172667,0.8054401,0.9078401 F,0,172667,172904,0 S,0,172667,172983,0.9078401,0.8054401 F,0,172904,172983,0,1 F,0,172983,173299,1,0 S,0,172983,173299,0.8054401,0.9078401 F,0,173299,173536,0 S,0,173299,173615,0.9078401,0.8054401 F,0,173536,173615,0,1 F,0,173615,173930,1,0 S,0,173615,173930,0.8054401,0.9078401 F,0,173930,174167,0 S,0,173930,174246,0.9078401,0.7952 F,0,174167,174246,0,1 F,0,174246,174562,1,0 S,0,174246,174562,0.7952,0.9078401 F,0,174562,174799,0 S,0,174562,174878,0.9078401,0.7952002 F,0,174799,174878,0,1 F,0,174878,175194,1,0 S,0,174878,175194,0.7952002,0.9078401 F,0,175194,175430,0 S,0,175194,175509,0.9078401,0.8054401 F,0,175430,175509,0,1 F,0,175509,175825,1,0 S,0,175509,175825,0.8054401,0.9078401 F,0,175825,176062,0 S,0,175825,176141,0.9078401,0.8054401 F,0,176062,176141,0,1 F,0,176141,176457,1,0 S,0,176141,176457,0.8054401,0.9078401 F,0,176457,176694,0 S,0,176457,176773,0.9078401,0.8054401 F,0,176694,176773,0,1 F,0,176773,177088,1,0 S,0,176773,177088,0.8054401,0.9078401 F,0,177088,177325,0 S,0,177088,177404,0.9078401,0.8054401 F,0,177325,177404,0,1 F,0,177404,177720,1,0 S,0,177404,177720,0.8054401,0.9078401 F,0,177720,177957,0 S,0,177720,178036,0.9078401,0.8054401 F,0,177957,178036,0,1 F,0,178036,178352,1,0 S,0,178036,178352,0.8054401,0.9078401 F,0,178352,178588,0 S,0,178352,178667,0.9078401,0.8054401 F,0,178588,178667,0,1 F,0,178667,178983,1,0 S,0,178667,178983,0.8054401,0.9078401 F,0,178983,179220,0 S,0,178983,179299,0.9078401,0.8054401 F,0,179220,179299,0,1 F,0,179299,179615,1,0 S,0,179299,179615,0.8054401,0.9078401 F,0,179615,179852,0 S,0,179615,179930,0.9078401,0.8054402 F,0,179852,179930,0,1 F,0,179930,180246,1,0 S,0,179930,180246,0.8054402,0.9078401 F,0,180246,180483,0 S,0,180246,180562,0.9078401,0.8156801 F,0,180483,180562,0,1 F,0,180562,180878,1,0 S,0,180562,180878,0.8156801,0.9078401 F,0,180878,181115,0 S,0,180878,181194,0.9078401,0.8054401 F,0,181115,181194,0,1 F,0,181194,181509,1,0 S,0,181194,181509,0.8054401,0.9078401 F,0,181509,181746,0 S,0,181509,181825,0.9078401,0.7952002 F,0,181746,181825,0,1 F,0,181825,182141,1,0 S,0,181825,182141,0.7952002
Sprite,Foreground,Centre,"SB\black.png",320,240 M,0,0,,320,240 F,0,0,10273,1 F,0,10273,10351,1,0 F,0,49352,49509,0,1 F,0,50694,50773,1,0 F,0,109825,110141,0,1 F,0,111325,111404,1,0 F,0,121430,121509,0,1 F,0,131615,,0 F,0,182141,182457,0,1 F,0,182457,187509,1 F,0,187509,188457,1
Sprite,Foreground,Centre,"SB\white.png",320,240 F,0,50773,51088,1,0 F,0,51957,52036,0,1 F,0,52036,52352,1,0 F,0,53220,53299,0,1 F,0,53299,53615,1,0 F,0,54167,54246,0,1 F,0,54246,54483,1,0 F,0,54483,54562,0,1 F,0,54562,54799,1,0 F,0,54799,54878,0,1 F,0,54878,55115,1,0 F,0,55115,55194,0,1 F,0,55194,55746,1,0 F,0,55746,55825,0,1 F,0,55825,56141,1,0 F,0,57009,57088,0,1 F,0,57088,57404,1,0 F,0,58273,58352,0,1 F,0,58352,58667,1,0 F,0,59536,59615,0,1 F,0,59615,59694,1,0 F,0,59694,59773,0,1 F,0,59773,59852,1,0 F,0,59852,59930,0,1 F,0,59930,60009,1,0 F,0,60167,60246,0,1 F,0,60246,60325,1,0 F,0,60325,60404,0,1 F,0,60404,60483,1,0 F,0,60483,60562,0,1 F,0,60562,60641,1,0 F,0,60641,60720,0,1 F,0,60720,60799,1,0 F,0,96167,96246,0,1 F,0,96246,96878,1,0 F,0,97430,97509,0,1 F,0,97509,98141,1,0 F,0,98694,98773,1 F,0,98773,99404,1,0 F,0,99957,100036,0,1 F,0,100036,100667,1,0
Sprite,Foreground,Centre,"SB\c.png",320,240 F,0,156878,157115,1,0 S,0,156878,157115,0.8,1 F,0,157115,157430,0 S,0,157115,157430,1 F,0,157430,157509,0,1 S,0,157430,157509,1,0.8 F,0,157509,157746,1,0 S,0,157509,157746,0.8,1 F,0,157746,158062,0 S,0,157746,158062,1 F,0,158062,158141,0,1 S,0,158062,158141,1,0.8 F,0,158141,158378,1,0 S,0,158141,158378,0.8,1 F,0,158378,158694,0 S,0,158378,158694,1 F,0,158694,158773,0,1 S,0,158694,158773,1,0.8 F,0,158773,159009,1,0 S,0,158773,159009,0.8,1 F,0,159009,159325,0 S,0,159009,159325,1 F,0,159325,159404,0,1 S,0,159325,159404,1,0.8 F,0,159404,159641,1,0 S,0,159404,159641,0.8,1 F,0,159641,159957,0 S,0,159641,159957,1 F,0,159957,160036,0,1 S,0,159957,160036,1,0.8 F,0,160036,160273,1,0 S,0,160036,160273,0.8,1 F,0,160273,160588,0 S,0,160273,160588,1 F,0,160588,160667,0,1 S,0,160588,160667,1,0.8 F,0,160667,160904,1,0 S,0,160667,160904,0.8,1 F,0,160904,161220,0 S,0,160904,161220,1 F,0,161220,161299,0,1 S,0,161220,161299,1,0.8 F,0,161299,161536,1,0 S,0,161299,161536,0.8,1 F,0,161536,161852,0 S,0,161536,161852,1 F,0,161852,161930,0,1 S,0,161852,161930,1,0.8 F,0,161930,162167,1,0 S,0,161930,162167,0.8,1 F,0,162167,162483,0 S,0,162167,162483,1 F,0,162483,162562,0,1 S,0,162483,162562,1,0.8 F,0,162562,162799,1,0 S,0,162562,162799,0.8054399,1 F,0,162799,163115,0 S,0,162799,163115,1 F,0,163115,163194,0,1 S,0,163115,163194,1,0.8 F,0,163194,163430,1,0 S,0,163194,163430,0.8,1 F,0,163430,163746,0 S,0,163430,163746,1 F,0,163746,163825,0,1 S,0,163746,163825,1,0.8054401 F,0,163825,164062,1,0 S,0,163825,164062,0.8054401,1 F,0,164062,164378,0 S,0,164062,164378,1 F,0,164378,164457,0,1 S,0,164378,164457,1,0.8 F,0,164457,164694,1,0 S,0,164457,164694,0.8,1 F,0,164694,165009,0 S,0,164694,165009,1 F,0,165009,165088,0,1 S,0,165009,165088,1,0.8 F,0,165088,165325,1,0 S,0,165088,165325,0.8 F,0,165325,165641,0 S,0,165325,165641,1 F,0,165641,165720,0,1 S,0,165641,165720,1,0.8 F,0,165720,165957,1,0 S,0,165720,165957,0.8,1 F,0,165957,166273,0 S,0,165957,166273,1 F,0,166273,166352,0,1 S,0,166273,166352,1,0.8 F,0,166352,166588,1,0 S,0,166352,166588,0.81 F,0,166588,166904,0 S,0,166588,166904,1 F,0,166904,166983,0,1 S,0,166904,166983,1,0.8 F,0,166983,167220,1,0 S,0,166983,167220,0.8,1 F,0,167220,167536,0 S,0,167220,167536,1 F,0,167536,167615,0,1 S,0,167536,167615,1,0.8 F,0,167615,167852,1,0 S,0,167615,167852,0.8,1 F,0,167852,168167,0 S,0,167852,168167,1 F,0,168167,168246,0,1 S,0,168167,168246,1,0.8054401 F,0,168246,168483,1,0 S,0,168246,168483,0.8054401,1 F,0,168483,168799,0 S,0,168483,168799,1 F,0,168799,168878,0,1 S,0,168799,168878,1,0.7952 F,0,168878,169115,1,0 S,0,168878,169115,0.7952,1 F,0,169115,169430,0 S,0,169115,169430,1 F,0,169430,169509,0,1 S,0,169430,169509,1,0.8054399 F,0,169509,169746,1,0 S,0,169509,169746,0.8054399,1 F,0,169746,170062,0 S,0,169746,170062,1 F,0,170062,170141,0,1 S,0,170062,170141,1,0.7951999 F,0,170141,170378,1,0 S,0,170141,170378,0.7951999,1 F,0,170378,170694,0 S,0,170378,170694,1 F,0,170694,170773,0,1 S,0,170694,170773,1,0.7952 F,0,170773,171009,1,0 S,0,170773,171009,0.7952,1 F,0,171009,171325,0 S,0,171009,171325,1 F,0,171325,171404,0,1 S,0,171325,171404,1,0.7952002 F,0,171404,171641,1,0 S,0,171404,171641,0.7952002,1 F,0,171641,171957,0 S,0,171641,171957,1 F,0,171957,172036,0,1 S,0,171957,172036,1,0.8054399 F,0,172036,172273,1,0 S,0,172036,172273,0.8054399,1 F,0,172273,172588,0 S,0,172273,172588,1 F,0,172588,172667,0,1 S,0,172588,172667,1,0.8054401 F,0,172667,172904,1,0 S,0,172667,172904,0.8054401,1 F,0,172904,173220,0 S,0,172904,173220,1 F,0,173220,173299,0,1 S,0,173220,173299,1,0.8054399 F,0,173299,173536,1,0 S,0,173299,173536,0.8054399,1 F,0,173536,173852,0 S,0,173536,173852,1 F,0,173852,173930,0,1 S,0,173852,173930,1,0.8054399 F,0,173930,174167,1,0 S,0,173930,174167,0.8054399,1 F,0,174167,174483,0 S,0,174167,174483,1 F,0,174483,174562,0,1 S,0,174483,174562,1,0.8054401 F,0,174562,174799,1,0 S,0,174562,174799,0.8054401,1 F,0,174799,175115,0 S,0,174799,175115,1 F,0,175115,175194,0,1 S,0,175115,175194,1,0.8054401 F,0,175194,175430,1,0 S,0,175194,175430,0.8054401,1 F,0,175430,175746,0 S,0,175430,175746,1 F,0,175746,175825,0,1 S,0,175746,175825,1,0.7952 F,0,175825,176062,1,0 S,0,175825,176062,0.7952,1 F,0,176062,176378,0 S,0,176062,176378,1 F,0,176378,176457,0,1 S,0,176378,176457,1,0.8054401 F,0,176457,176694,1,0 S,0,176457,176694,0.8054401,1 F,0,176694,177009,0 S,0,176694,177009,1 F,0,177009,177088,0,1 S,0,177009,177088,1,0.80544 F,0,177088,177325,1,0 S,0,177088,177325,0.80544,1 F,0,177325,177641,0 S,0,177325,177641,1 F,0,177641,177720,0,1 S,0,177641,177720,1,0.7951999 F,0,177720,177957,1,0 S,0,177720,177957,0.7951999,1 F,0,177957,178273,0 S,0,177957,178273,1 F,0,178273,178352,0,1 S,0,178273,178352,1,0.8054402 F,0,178352,178588,1,0 S,0,178352,178588,0.8054402,1 F,0,178588,178904,0 S,0,178588,178904,1 F,0,178904,178983,0,1 S,0,178904,178983,1,0.7952002 F,0,178983,179220,1,0 S,0,178983,179220,0.7952002,1 F,0,179220,179536,0 S,0,179220,179536,1 S,0,179220,179536,1 F,0,179536,179615,0,1 S,0,179536,179615,1,0.8054401 F,0,179615,179852,1,0 S,0,179615,179852,0.8054401,1 F,0,179852,180167,0 S,0,179852,180167,1 F,0,180167,180246,0,1 S,0,180167,180246,1,0.7951999 F,0,180246,180483,1,0 S,0,180246,180483,0.7951999,1 F,0,180483,180799,0 S,0,180483,180799,1 F,0,180799,180878,0,1 S,0,180799,180878,1,0.7951999 F,0,180878,181115,1,0 S,0,180878,181115,0.7951999,1 F,0,181115,181430,0 S,0,181115,181430,1 F,0,181430,181509,0,1 S,0,181430,181509,1,0.8054401 F,0,181509,181746,1,0 S,0,181509,181746,0.8054401,1 F,0,181746,182062,0 S,0,181746,182062,1 F,0,182062,182141,0,1 S,0,182062,182141,1,0.7951999 F,0,182141,,1 F,0,182141,182457,1,0 S,0,182141,182457,0.7951999,0.97952
Sprite,Foreground,Centre,"SB\black.png",320,240 M,0,74773,,320,240 F,0,74773,75088,0,1 F,0,75088,75957,1 F,0,75957,76036,1,0 F,0,76036,154352,0,0.01265824 F,0,154352,154667,0.01265824,1 F,0,154667,156799,1 F,0,156799,156878,1,0.01265824
Sprite,Foreground,Centre,"SB\e.png",320,240 S,0,101299,,0.8 F,0,101299,101536,1,0 F,0,101536,101615,0,1 F,0,101615,101852,1,0 F,0,101852,101930,0,1 F,0,101930,102167,1,0 F,0,102167,102246,0,1 F,0,102246,102483,1,0 F,0,102483,102562,0,1 F,0,102562,102799,1,0 F,0,102799,102878,0,1 F,0,102878,103115,1,0 F,0,103115,103194,0,1 F,0,103194,103430,1,0 F,0,103430,103509,0,1 F,0,103509,103746,1,0 F,0,103746,103825,0,1 F,0,103825,104062,1,0 F,0,104062,104141,0,1 F,0,104141,104378,1,0 F,0,104378,104457,0,1 F,0,104457,104694,1,0 F,0,104694,104773,0,1 F,0,104773,105009,1,0 F,0,105009,105088,0,1 F,0,105088,105325,1,0 F,0,105325,105404,0,1 F,0,105404,105641,1,0 F,0,105641,105720,0,1 F,0,105720,105957,1,0 F,0,105957,106036,0,1 F,0,106036,106273,1,0 F,0,106273,106352,0,1 F,0,106352,106588,1,0 F,0,106588,106667,0,1 F,0,106667,106904,1,0 F,0,106904,106983,0,1 F,0,106983,107220,1,0 F,0,107220,107299,0,1 F,0,107299,107536,1,0 F,0,107536,107615,0,1 F,0,107615,107852,1,0 F,0,107852,107930,0,1 F,0,107930,108167,1,0 F,0,108167,108246,0,1 F,0,108246,108483,1,0 F,0,108483,108562,0,1 F,0,108562,108799,1,0 F,0,108799,108878,0,1 F,0,108878,109115,1,0 F,0,109115,109194,0,1 F,0,109194,109430,1,0 F,0,109430,109509,0,1 F,0,109509,109746,1,0 F,0,109746,109825,0,1 F,0,109825,110141,1,0 F,0,146694,146773,0.02841959,1 F,0,146773,147088,1,0.4367999 F,0,147088,147404,0.4367999 F,0,147404,147720,0.4367999,0 F,0,147720,147957,0 F,0,147957,148036,0,1 F,0,148036,148352,1,0.4367999 F,0,148352,148667,0.4367999 F,0,148667,148983,0.4367999,0 F,0,148983,149220,0 F,0,149220,149299,0,1 F,0,149299,149615,1,0.4367999 F,0,149615,149930,0.4367999 F,0,149930,150246,0.4367999,0 F,0,150246,150483,0 F,0,150483,150562,0,1 F,0,150562,150878,1,0.4367999 F,0,150878,151194,0.4367999 F,0,151194,151509,0.4367999,0 F,0,151509,151746,0 F,0,151746,151825,0,1 F,0,151825,152141,1,0.4367999 F,0,152141,152457,0.4367999 F,0,152457,152773,0.4367999,0 F,0,152773,153009,0 F,0,153009,153088,0,1 F,0,153088,153404,1,0.4367999 F,0,153404,153720,0.4367999 F,0,153720,154036,0.4367999,0 F,0,154036,154273,0 F,0,154273,154352,0,1 F,0,154352,154667,1,0.4367999 F,0,154667,154983,0.4367999 F,0,154983,155299,0.4367999,0 F,0,155299,155536,0
Sprite,Foreground,Centre,"SB\a.png",320,240 M,0,10351,,320,240 F,0,10351,10983,1,0 S,0,10351,10983,0.7951999,1 F,0,10983,12799,0 S,0,10983,12878,1,0.7952002 F,0,12799,12878,0,1 F,0,12878,13509,1,0 S,0,12878,13509,0.7952002,1 F,0,13509,15325,0,0.00303746 S,0,13509,15404,1,0.7951999 F,0,15325,15404,0.00303746,1 F,0,15404,15957,1,0 S,0,15404,16036,0.7951999,1 F,0,15957,16036,0,1 F,0,16036,16115,1,0.006324096 S,0,16036,16588,1 F,0,16115,16194,0.006324096,1 F,0,16194,16273,1,0.006324096 F,0,16273,16352,0.006324096,1 F,0,16352,16430,1,0.006324096 F,0,16430,16509,0.006324096,1 F,0,16509,16588,1,0.006324096 F,0,16588,16667,0.006324096,1 S,0,16588,16667,1,0.7952 F,0,16667,17299,1,0.006324096 S,0,16667,17299,0.7952,1 F,0,17299,17852,0.006324096,0.009079908 S,0,17299,17930,1,0.7952 F,0,17852,17930,0.009079908,1 F,0,17930,18562,1,0.009468612 S,0,17930,18562,0.7952,1 F,0,18562,19115,0.009468612,0.01221136 S,0,18562,19194,1,0.8054399 F,0,19115,19194,0.01221136,0.6782032 F,0,19194,19746,0.6782032,0.09593505 S,0,19194,19746,0.8054399,0.9756414 F,0,19746,19825,0.09593505,1 S,0,19746,19825,0.9756414,0.7952002 F,0,19825,19983,1 S,0,19825,19983,0.7952002,1 F,0,19983,20141,1,0 S,0,19983,20141,1,0.7951999 F,0,20141,20299,0,1 S,0,20141,20299,0.7951999,1 F,0,20299,20378,1,0 S,0,20299,20457,1,0.7952 F,0,20378,20457,0,1 F,0,20457,21088,1,0.01260318 S,0,20457,21088,0.7952,1 F,0,21088,21641,0.01260318,0.01534162 S,0,21088,21720,1,0.7952 F,0,21641,21720,0.01534162,1 F,0,21720,22352,1,0.01573283 S,0,21720,22352,0.7952,1 F,0,22352,22904,0.01573283 S,0,22352,22983,1,0.7952 F,0,22904,22983,0.01573283,1 F,0,22983,23615,1,0.01573283 S,0,22983,23615,0.7952,1 F,0,23615,24167,0.01573283,0.01709522 S,0,23615,24246,1,0.7952002 F,0,24167,24246,0.01709522,1 F,0,24246,,1 F,0,24246,24878,1,0 S,0,24246,24878,0.7952002,1 F,0,24878,25430,0,0.07875818 S,0,24878,25509,1,0.7951999 F,0,25430,25509,0.07875818,1 F,0,25509,26141,1,0.0172902 S,0,25509,26141,0.7951999,1 F,0,26141,26694,0.0172902,0.02001129 S,0,26141,26773,1,0.8054402 F,0,26694,26773,0.02001129,1 F,0,26773,27404,1,0.02040001 S,0,26773,27404,0.8054402,1 F,0,27404,27957,0.02040001 S,0,27404,28036,1,0.8054399 F,0,27957,28036,0.02040001,1 F,0,28036,28667,1,0.02040001 S,0,28036,28667,0.8054399,1 F,0,28667,29220,0.02040001 S,0,28667,29299,1,0.8054401 F,0,29220,29299,0.02040001,1 F,0,29299,29852,1,0 S,0,29299,29852,0.8054401,0.9759498 F,0,29852,29930,0,1 S,0,29852,29930,0.9759498,0.7952 F,0,29930,30009,1,0.02040001 S,0,29930,30009,0.7952,1 F,0,30009,30088,0.02040001,1 S,0,30009,30088,1,0.8054401 F,0,30088,30167,1,0.02040001 S,0,30088,30167,0.8054401,1 F,0,30167,30246,0.02040001,1 S,0,30167,30246,1,0.8054399 F,0,30246,30325,1,0.02040001 S,0,30246,30325,0.8054399,1 F,0,30325,30404,0.02040001,1 S,0,30325,30404,1,0.7952 F,0,30404,30483,1,0.02040001 S,0,30404,30483,0.7952,1 F,0,30483,30562,0.02040001 S,0,30483,30562,1 S,0,30562,,0.8 F,0,49509,49746,0,0.02040001 S,0,49509,49825,0.8054401,0.8 F,0,49746,49825,0.02040001,1 F,0,49825,50062,1,0.02040001 S,0,49825,50141,0.8054399 F,0,50062,50141,0.02040001,1 F,0,50141,50378,1,0.02040001 S,0,50141,50457,0.8054399,0.8054401 F,0,50378,50457,0.02040001,1 F,0,50457,50694,1,0.02040001 S,0,50457,50694,0.8054401,0.8054399 F,0,50694,50773,0.02040001 S,0,50694,50773,0.8,1 S,0,50773,,0.8 F,0,60799,60878,0.02040001,1 F,0,60878,61115,1,0.02040001 S,0,60878,61115,0.8054401,1 F,0,61115,61194,0.02040001,1 S,0,61115,61194,1,0.8054399 F,0,61194,61430,1,0.02040001 S,0,61194,61430,0.8054399,1 F,0,61430,61509,0.02040001,1 S,0,61430,61509,1,0.7951999 F,0,61509,61746,1,0.02040001 S,0,61509,61746,0.7951999,1 F,0,61746,61825,0.02040001,1 S,0,61746,61825,1,0.8054401 F,0,61825,62062,1,0.02040001 S,0,61825,62062,0.8054401,1 F,0,62062,62141,0.02040001,1 S,0,62062,62141,1,0.8054399 F,0,62141,62378,1,0.02040001 S,0,62141,62378,0.8054399,1 F,0,62378,62457,0.02040001,1 S,0,62378,62457,1,0.8054401 F,0,62457,62694,1,0.02040001 S,0,62457,62694,0.8054401,1 F,0,62694,62773,0.02040001,1 S,0,62694,62773,1,0.7952 F,0,62773,63009,1,0.02040001 S,0,62773,63009,0.7952,1 F,0,63009,63088,0.02040001,1 S,0,63009,63088,1,0.8054399 F,0,63088,63325,1,0.02040001 S,0,63088,63325,0.8054399,1 F,0,63325,63404,0.02040001,1 S,0,63325,63404,1,0.8054401 F,0,63404,63641,1,0.02040001 S,0,63404,63641,0.8054401,1 F,0,63641,63720,0.02040001,1 S,0,63641,63720,1,0.7952 F,0,63720,63957,1,0.02040001 S,0,63720,63957,0.7952,1 F,0,63957,64036,0.02040001,1 S,0,63957,64036,1,0.8054399 F,0,64036,64273,1,0.02040001 S,0,64036,64273,0.8054399,1 F,0,64273,64352,0.02040001,1 S,0,64273,64352,1,0.7952 F,0,64352,64588,1,0.02040001 S,0,64352,64588,0.7952,1 F,0,64588,64667,0.02040001,1 S,0,64588,64667,1,0.8054401 F,0,64667,64904,1,0.02040001 S,0,64667,64904,0.8054401,1 F,0,64904,64983,0.02040001,1 S,0,64904,64983,1,0.80544 F,0,64983,65220,1,0.02040001 S,0,64983,65220,0.80544,1 F,0,65220,65299,0.02040001,1 S,0,65220,65299,1,0.8054401 F,0,65299,65536,1,0.02040001 S,0,65299,65536,0.8054401,1 F,0,65536,65615,0.02040001,1 S,0,65536,65615,1,0.8054398 F,0,65615,65852,1,0.02040001 S,0,65615,65852,0.8054398,1 F,0,65852,65930,0.02040001,1 S,0,65852,65930,1,0.80544 F,0,65930,66167,1,0.02040001 S,0,65930,66167,0.80544,1 F,0,66167,66246,0.02040001,1 S,0,66167,66246,1,0.80544 F,0,66246,66483,1,0.02040001 S,0,66246,66483,0.80544,1 F,0,66483,66562,0.02040001,1 S,0,66483,66562,1,0.8054401 F,0,66562,66799,1,0.02040001 S,0,66562,66799,0.8054401,1 F,0,66799,66878,0.02040001,1 S,0,66799,66878,1,0.7952 F,0,66878,67115,1,0.02040001 S,0,66878,67115,0.7952,1 F,0,67115,67194,0.02040001,1 S,0,67115,67194,1,0.80544 F,0,67194,67430,1,0.02040001 S,0,67194,67430,0.80544,1 F,0,67430,67509,0.02040001,1 S,0,67430,67509,1,0.8054399 F,0,67509,67746,1,0.02040001 S,0,67509,67746,0.8054399,1 F,0,67746,67825,0.02040001,1 S,0,67746,67825,1,0.80544 F,0,67825,68062,1,0.02040001 S,0,67825,68062,0.80544,1 F,0,68062,68141,0.02040001,1 S,0,68062,68141,1,0.7951999 F,0,68141,68378,1,0.02040001 S,0,68141,68378,0.7951999,1 F,0,68378,68457,0.02040001,1 S,0,68378,68457,1,0.8054399 F,0,68457,68694,1,0.02040001 S,0,68457,68694,0.8054399,1 F,0,68694,68773,0.02040001,1 S,0,68694,68773,1,0.7951999 F,0,68773,69009,1,0 S,0,68773,69009,0.7951999,1 F,0,69009,69088,0,1 S,0,69009,69088,1,0.7952 F,0,69088,69325,1,0.02040001 S,0,69088,69325,0.7952,1 F,0,69325,69404,0.02040001,1 S,0,69325,69404,1,0.7952 F,0,69404,69641,1,0.02040001 S,0,69404,69641,0.7952,1 F,0,69641,69720,0.02040001,1 S,0,69641,69720,1,0.8054399 F,0,69720,69957,1,0.02040001 S,0,69720,69957,0.8054399,1 F,0,69957,70036,0.02040001,1 S,0,69957,70036,1,0.7952 F,0,70036,70273,1,0.02040001 S,0,70036,70273,0.7952,1 F,0,70273,70352,0.02040001,1 S,0,70273,70352,1,0.81568 F,0,70352,70588,1,0.02040001 S,0,70352,70588,0.81568,1 F,0,70588,70667,0.02040001,1 S,0,70588,70667,1,0.8054401 F,0,70667,70904,1,0.02040001 S,0,70667,70904,0.8054401,1 F,0,70904,70983,0.02040001,1 S,0,70904,70983,1,0.8054399 F,0,70983,71220,1,0.02040001 S,0,70983,71220,0.8054399,1 F,0,71220,71299,0.02040001,1 S,0,71220,71299,1,0.8054399 F,0,71299,71536,1,0.02040001 S,0,71299,71536,0.8054399,1 F,0,71536,71615,0.02040001,1 S,0,71536,71615,1,0.8054401 F,0,71615,71852,1,0.02040001 S,0,71615,71852,0.8054401,1 F,0,71852,71930,0.02040001,1 S,0,71852,71930,1,0.8054402 F,0,71930,72167,1,0.02040001 S,0,71930,72167,0.8054402,1 F,0,72167,72246,0.02040001,1 S,0,72167,72246,1,0.7951999 F,0,72246,72483,1,0.02040001 S,0,72246,72483,0.7951999,1 F,0,72483,72562,0.02040001,1 S,0,72483,72562,1,0.8054402 F,0,72562,72799,1,0.02040001 S,0,72562,72799,0.8054402,1 F,0,72799,72878,0.02040001,1 S,0,72799,72878,1,0.8054399 F,0,72878,73115,1,0.02040001 S,0,72878,73115,0.8054399,1 F,0,73115,73194,0.02040001,1 S,0,73115,73194,1,0.7952002 F,0,73194,73430,1,0.02040001 S,0,73194,73430,0.7952002,1 F,0,73430,73509,0.02040001,1 S,0,73430,73509,1,0.7951999 F,0,73509,73746,1,0.02040001 S,0,73509,73746,0.7951999,1 F,0,73746,73825,0.02040001,1 S,0,73746,73825,1,0.8054401 F,0,73825,74062,1,0.02040001 S,0,73825,74062,0.8054401,1 F,0,74062,74141,0.02040001,1 S,0,74062,74141,1,0.7952 F,0,74141,74378,1,0.02040001 S,0,74141,74378,0.7952,1 F,0,74378,74457,0.02040001,1 S,0,74378,74457,1,0.8054401 F,0,74457,74694,1,0.02040001 S,0,74457,74694,0.8054401,1 F,0,74694,74773,0.02040001,1 S,0,74694,74773,1,0.8054401 F,0,74773,75009,1,0.02040001 S,0,74773,75009,0.8054401,1 F,0,75009,75088,0 S,0,75009,75088,1 S,0,75088,,0.8 F,0,131536,131615,0.02040001,1 F,0,131615,132562,1,0.02040001 S,0,131615,132562,0.8054401,1 S,0,132562,,0.8 F,0,134062,134141,0.02334805,1 F,0,134141,135088,1,0.02350331 S,0,134141,135088,0.8054401,1 S,0,135088,,0.8 F,0,136588,136667,0.02546241,1 F,0,136667,137615,1,0.02556559 S,0,136667,137615,0.8054402,1 S,0,137615,,0.8 F,0,139115,139194,0.0275185,1 F,0,139194,140141,1,0.02762135 S,0,139194,140141,0.8054401,1 S,0,140141,,0.8 F,0,141641,141720,0.03054766,1 F,0,141720,142667,1,0.03070178 S,0,141720,142667,0.8054399,1 S,0,142667,,0.8 F,0,144167,144246,0.03264643,1 F,0,144246,145194,1,0.03274885 S,0,144246,145194,0.8,1 S,0,145195,,0.8
Sprite,Foreground,Centre,"SB\hands.png",320,240 M,0,122773,,434,238 F,0,122773,123088,1 F,0,123088,124036,1,0 F,0,124036,127746,0 F,0,127746,127825,0,1 F,0,127825,128141,1 F,0,128141,129088,1,0
Sprite,Foreground,Centre,"SB\hands.png",320,240 M,0,125299,,200,237 F,0,125299,125615,1 P,0,125299,125615,H F,0,125615,126562,1,0 P,0,125615,126562,H F,0,126562,130273,0,0.00206789 P,0,126562,130273,H F,0,130273,130352,0.00206789,1 P,0,130273,130352,H F,0,130352,130667,1 P,0,130352,130667,H F,0,130667,131615,1,0.002111912 P,0,130667,131615,H
//Storyboard Sound Samples
//Background Colour Transformations
3,100,163,162,255

[TimingPoints]
10352,315.789473684211,4,1,1,40,1,0
10667,-200,4,1,1,40,0,0
30562,-100,4,1,0,40,0,0
56457,-100,4,1,1,40,0,0
57088,-100,4,1,0,40,0,0
57720,-100,4,1,1,40,0,0
58352,-100,4,1,0,40,0,0
58983,-100,4,1,1,40,0,0
59615,-100,4,1,0,40,0,0
75720,-100,4,1,1,30,0,0
76036,-100,4,1,0,40,0,1
85509,-100,4,1,0,20,0,1
85825,-100,4,1,0,20,0,1
86141,-100,4,1,0,40,0,1
96246,-100,4,1,1,40,0,0
100667,-100,4,1,0,20,0,0
101299,-100,4,1,0,40,0,0
110773,-100,4,1,0,20,0,0
111404,-100,4,1,0,40,0,1
121509,-100,4,1,1,40,0,0
131615,-200,4,1,1,40,0,0
145825,-100,4,1,1,20,0,0
146299,-200,4,1,1,40,0,0
146773,-100,4,1,0,40,0,0
156878,-100,4,1,0,40,0,1
182141,-100,4,1,1,40,0,0
182773,-100,4,1,1,35,0,0
183404,-100,4,1,1,30,0,0
184036,-100,4,1,1,25,0,0
185930,-100,4,1,1,5,0,0

[Colours]
Combo1 : 221,0,0
Combo2 : 254,249,207
Combo3 : 145,0,0

[HitObjects]
256,192,8457,12,0,10351
256,88,10667,5,0
256,288,10983,1,8
80,192,11299,2,0,B|184:192,1,100
432,192,11930,6,0,B|328:192,1,100,0|8
280,192,12404,1,0
236,168,12562,1,0
192,192,12720,1,0
192,244,12878,2,0,B|192:348,1,100
392,324,13509,5,8
392,124,13825,1,0
104,44,14457,5,0
100,244,14773,1,8
392,324,15404,5,0
460,136,15720,1,0
268,188,16036,1,0
224,100,16194,1,0
176,188,16352,1,0
128,104,16509,1,0
80,192,16667,2,0,B|52:248|88:304,1,100
256,364,17299,5,8
256,28,17615,1,0
444,192,17930,2,0,B|396:152|352:192,1,100
68,192,18562,2,0,B|116:152|160:192,1,100,8|0
256,188,19194,1,0
256,188,19509,1,0
256,288,19825,5,8
256,88,19983,1,0
256,88,20299,1,0
256,288,20457,1,4
452,56,21088,5,8
60,328,21720,1,0
60,56,22352,5,8
228,164,22825,1,0
228,164,22983,1,0
472,340,23615,5,8
448,244,23930,1,0
424,200,24088,1,0
384,168,24246,1,0
256,48,24562,1,0
128,168,24878,5,8
88,200,25036,1,0
64,244,25194,1,0
40,340,25509,1,0
256,276,25825,5,0
256,176,26141,2,0,B|256:56,1,100,8|0
256,76,26773,1,0
92,188,27088,5,0
288,156,27404,1,8
356,332,27720,1,0
456,160,28036,1,0
180,44,28667,5,8
44,192,28983,1,0
180,340,29299,1,0
380,336,29615,1,0
380,136,29930,5,8
280,140,30088,1,8
280,240,30246,1,8
280,240,30404,1,8
280,336,30562,5,4
184,308,30720,2,0,B|124:308|112:252,1,100,0|8
184,76,31036,2,0,B|124:76|112:132,1,100
192,192,31352,1,0
208,192,31430,1,0
224,192,31509,1,8
324,192,31667,5,0
424,192,31825,1,0
376,104,31983,1,0
276,104,32141,1,8
76,108,32457,6,0,B|76:224,1,100
76,308,32773,1,8
276,312,33088,6,0,B|324:340|372:308,1,100
324,220,33404,1,8
396,152,33562,1,0
484,200,33720,2,0,B|512:152|480:104,2,100,0|0|8
308,104,34352,6,0,B|204:104,1,100
208,204,34667,2,0,B|208:312,1,100,8|0
308,304,34983,2,0,B|428:304,2,100,0|0|8
108,308,35615,5,0
108,292,35694,1,0
108,276,35773,1,0
108,176,35930,1,8
56,92,36088,1,0
156,92,36246,1,0
256,92,36404,1,0
212,180,36562,1,8
376,292,36878,6,0,B|376:348,2,50
324,204,37194,1,8
424,204,37352,1,0
376,292,37509,1,0
324,204,37667,1,0
424,204,37825,1,8
288,60,38141,6,0,B|240:20|196:64,1,100
148,148,38457,2,0,B|196:188|240:144,1,100,8|0
340,144,38773,2,0,B|456:144,1,100
464,144,39009,1,0
488,144,39088,1,8
256,192,39404,12,0,40509
344,72,40667,6,0,B|340:128|288:160,1,100,4|0
168,72,40983,2,0,B|172:128|224:160,1,100,8|0
256,248,41299,2,0,B|256:352,2,100,0|0|8
96,128,41930,5,0
48,216,42088,1,0
132,268,42246,1,8
180,180,42404,1,0
280,180,42562,1,0
380,180,42720,1,0
332,92,42878,1,8
136,48,43194,6,0,B|72:48,2,50
204,120,43509,1,8
136,196,43667,1,0
204,268,43825,1,0
132,336,43983,2,0,B|68:336,2,50,0|0|8
332,336,44457,6,0,B|452:336,1,100
380,248,44773,2,0,B|380:136,1,100,8|0
332,60,45088,2,0,B|452:60,2,100,0|0|8
132,60,45720,5,0
120,68,45799,1,0
108,76,45878,1,0
48,156,46036,1,8
60,256,46194,1,0
136,320,46352,1,0
136,320,46509,2,0,B|176:356|232:344,1,100,0|8
256,144,46983,6,0,B|308:132|348:168,1,100
416,96,47299,1,8
444,192,47457,1,0
364,252,47615,1,0
264,252,47773,2,0,B|152:252,1,100,0|8
128,56,48246,5,0
40,156,48457,1,0
60,288,48667,1,0
176,356,48878,1,0
300,312,49088,1,0
332,184,49299,1,0
260,72,49509,2,0,B|260:28,6,33.3333333333333
260,172,49983,5,4
252,240,50088,1,0
292,292,50194,1,4
356,308,50299,1,0
420,288,50404,1,4
380,160,50615,1,4
380,160,50773,1,4
36,40,51404,6,0,B|36:104,4,50
40,240,51878,1,0
40,340,52036,1,4
476,344,52667,6,0,B|476:280,4,50
472,144,53141,1,0
472,44,53299,1,4
256,360,53930,5,0
204,272,54088,1,0
304,272,54246,1,4
256,184,54404,1,0
204,100,54562,1,4
304,100,54720,1,0
256,12,54878,1,4
356,28,55036,6,0,B|416:24|444:88,1,100,0|4
156,28,55352,2,0,B|96:24|68:88,1,100,0|4
72,100,55588,2,0,B|72:164,1,50
72,252,55825,5,0
464,336,56457,1,8
112,148,57088,1,0
504,236,57720,1,8
148,52,58352,1,0
424,344,58983,1,8
56,192,59615,5,0
156,192,59773,1,0
256,192,59930,1,0
456,192,60246,5,0
356,192,60404,1,0
256,192,60562,1,0
256,92,60720,1,0
256,192,60878,6,0,B|324:264,1,100,4|0
256,192,61194,2,0,B|188:264,1,100,8|0
324,264,61509,2,0,B|416:216,1,100,0|0
187,264,61825,2,0,B|96:216,1,100,8|0
364,130,62141,2,0,B|412:217,1,100,0|0
147,130,62457,2,0,B|99:217,1,100,8|0
104,320,62773,6,0,B|136:360|136:360|200:336,1,100,0|0
408,320,63088,2,0,B|376:360|376:360|312:336,1,100,8|0
256,276,63404,2,0,B|164:236,1,100
256,108,63720,2,0,B|352:156,1,100,8|0
256,108,64036,2,0,B|160:152,1,100,0|0
256,276,64352,2,0,B|368:220,1,100,8|0
392,76,64667,5,8
392,76,64746,1,0
392,76,64825,1,0
120,76,64983,1,8
120,76,65062,1,0
120,76,65141,1,0
256,216,65299,1,0
256,200,65378,1,0
256,184,65457,1,4
256,168,65536,1,0
256,152,65615,1,4
256,136,65694,1,0
256,120,65773,1,4
160,100,65930,6,0,B|128:148|160:196,1,100
360,196,66246,2,0,B|392:244|360:292,1,100,8|0
260,280,66562,5,0
312,364,66720,1,0
412,364,66878,1,8
460,280,67036,1,0
364,252,67194,5,0
316,164,67352,1,0
216,164,67509,1,8
164,244,67667,1,0
104,324,67825,2,0,B|60:288|56:216,1,100
104,60,68141,2,0,B|60:96|56:168,1,100,8|0
160,148,68457,5,0
160,148,68536,1,0
160,148,68615,1,0
224,68,68773,1,8
324,68,68930,1,0
388,144,69088,1,0
388,144,69167,1,0
388,144,69246,1,0
324,220,69404,2,0,B|273:248|225:218,1,100,8|0
132,248,69720,5,0
200,320,69878,1,0
300,320,70036,1,8
396,288,70194,2,0,B|444:264|448:208,1,100,0|4
448,108,70509,1,4
372,44,70667,1,4
356,44,70746,1,0
340,44,70825,1,4
296,136,70983,5,0
256,44,71141,1,0
216,136,71299,1,8
180,44,71457,1,0
140,136,71615,1,0
104,44,71773,1,0
40,232,71930,6,0,B|16:296|76:332,1,100,8|0
256,224,72246,2,0,B|256:340,1,100
472,232,72562,2,0,B|496:296|436:332,1,100,8|0
256,164,72878,2,0,B|256:36,1,100
429,131,73194,2,0,B|356:64,1,100,8|0
82,131,73509,2,0,B|156:64,1,100
256,64,73825,5,8
256,88,73904,1,0
256,112,73983,1,0
256,136,74062,1,0
256,160,74141,1,0
256,184,74220,1,0
256,208,74299,2,0,B|256:276,4,50,4|0|4|0|4
256,192,74773,12,4,75720
336,64,76036,6,0,B|400:60|408:124,1,100
407,266,76352,2,0,B|400:324|336:320,1,100,8|0
176,320,76667,2,0,B|112:324|104:266,1,100
104,117,76983,2,0,B|112:60|176:64,1,100,8|0
256,124,77299,5,0
256,224,77457,1,0
256,72,77615,1,8
256,272,77773,1,0
336,332,77930,5,0
412,268,78088,1,0
412,116,78246,1,8
336,52,78404,1,0
176,52,78562,5,0
100,116,78720,1,0
100,268,78878,1,8
176,332,79036,1,0
256,272,79194,5,0
304,184,79352,1,0
208,184,79509,1,8
256,96,79667,1,0
356,76,79825,5,0
368,84,79904,1,0
380,92,79983,1,0
372,192,80141,1,8
384,200,80220,1,0
396,208,80299,1,0
392,308,80457,1,0
404,316,80536,1,0
416,324,80615,1,4
428,332,80694,1,0
440,340,80773,1,4
452,348,80852,1,0
464,356,80930,1,4
480,256,81088,5,0
460,156,81246,1,0
400,76,81404,1,8
304,44,81562,1,0
208,44,81720,5,0
112,76,81878,1,0
52,156,82036,1,8
32,256,82194,1,0
128,224,82352,6,0,B|184:220|200:284,1,100
256,196,82667,1,8
312,280,82825,2,0,B|328:220|384:224,1,100
336,136,83141,1,0
256,76,83299,1,8
176,136,83457,1,0
108,208,83615,6,0,B|108:308,1,100
256,336,83930,2,0,B|256:232,1,100,8|0
404,212,84246,2,0,B|404:320,1,100
256,192,84562,12,0,85509
256,88,85825,6,0,B|256:112,8,25
352,64,86299,5,0
432,128,86457,1,8
432,228,86615,1,0
332,228,86773,2,0,B|212:228,1,100
280,140,87088,2,0,B|164:140,1,100,8|0
144,336,87404,5,0
92,248,87562,2,0,B|64:200|88:132,1,100,0|8
92,248,87878,2,0,B|110:195|178:170,1,100
212,92,88194,5,0
296,36,88352,1,8
376,92,88509,1,0
296,36,88667,1,0
296,136,88825,1,0
296,236,88983,1,8
292,336,89141,1,0
376,284,89299,1,0
292,336,89457,1,0
212,276,89615,1,8
212,276,89773,1,0
168,84,89930,5,0
168,100,90009,1,0
168,116,90088,1,0
80,160,90246,1,8
80,176,90325,1,0
80,192,90404,1,0
168,244,90562,1,0
168,260,90641,1,0
168,276,90720,1,4
168,292,90799,1,0
168,308,90878,1,4
168,324,90957,1,0
168,340,91036,1,4
268,348,91194,6,0,B|332:332|304:264,1,100
240,200,91509,2,0,B|215:140|279:124,1,100,8|0
380,124,91825,2,0,B|444:140|419:199,1,100
348,272,92141,2,0,B|323:331|387:347,1,100,8|0
452,156,92457,5,0
392,76,92615,1,0
332,156,92773,1,8
272,76,92930,1,0
212,156,93088,1,0
156,76,93246,1,0
96,156,93404,1,8
36,76,93562,1,0
96,156,93720,6,0,B|96:268,1,100
212,156,94036,2,0,B|212:280,1,100,8|0
332,156,94352,2,0,B|332:268,1,100
268,332,94667,5,8
268,332,94825,1,0
368,316,94983,1,0
368,316,95141,1,0
424,232,95299,1,8
424,232,95457,1,0
364,40,95615,5,0
364,40,95694,1,0
364,40,95773,1,0
164,40,95930,1,8
164,40,96009,1,0
164,40,96088,1,0
260,216,96246,1,4
260,216,96878,5,8
476,40,97509,1,0
36,40,98141,1,8
36,340,98615,1,0
36,340,98773,1,0
480,348,99404,1,8
256,184,99720,1,0
256,132,99878,1,0
256,84,100036,1,0
256,284,100667,2,0,B|256:320,11,25
356,108,101299,6,0,B|448:48,1,100,0|0
156,108,101615,2,0,B|64:48,1,100,8|0
156,276,101930,2,0,B|64:336,1,100,0|0
356,276,102246,2,0,B|448:336,1,100,8|0
448,232,102562,6,0,B|484:188|448:140,1,100,0|0
300,44,102878,2,0,B|256:8|208:44,1,100,8|0
64,140,103194,2,0,B|28:188|64:232,1,100,0|0
212,340,103509,2,0,B|255:376|304:340,1,100,8|0
256,252,103825,5,0
256,152,103983,1,0
260,52,104141,1,8
172,100,104299,1,0
256,152,104457,1,0
348,108,104615,1,0
348,208,104773,1,8
256,252,104930,1,0
168,204,105088,5,0
168,204,105167,1,0
168,204,105246,1,0
48,44,105404,1,8
48,44,105483,1,0
48,44,105562,1,0
44,244,105720,1,0
52,256,105799,1,0
60,268,105878,1,4
68,280,105957,1,0
76,292,106036,1,4
84,304,106115,1,0
92,316,106194,1,4
192,332,106352,6,0,B|224:368|224:368|276:368,1,100
448,264,106667,2,0,B|483:232|483:232|483:179,1,100,8|0
320,64,106983,2,0,B|288:28|288:28|236:28,1,100
60,124,107299,2,0,B|24:156|24:156|24:208,1,100,8|0
44,308,107615,6,0,B|56:368|128:360,1,100
395,360,107930,2,0,B|456:368|468:308,1,100,8|0
468,76,108246,2,0,B|456:16|395:23,1,100
116,23,108562,2,0,B|56:16|44:76,1,100,8|0
116,144,108878,6,0,B|224:144,1,100
396,240,109194,2,0,B|288:240,1,100,8|0
296,40,109509,2,0,B|296:144,1,100
216,344,109825,2,0,B|216:240,1,100,8|0
212,144,110141,5,0
328,52,110299,1,0
428,164,110457,1,0
312,256,110615,1,0
320,156,110773,6,0,B|288:128,12,25
192,312,111404,5,0
96,280,111562,1,0
36,200,111720,2,0,B|28:148|72:104,1,100,8|0
256,44,112036,1,0
444,108,112194,6,0,B|484:148|476:200,1,100,0|8
416,280,112509,1,0
320,312,112667,1,0
256,240,112825,5,0
256,44,112983,1,8
256,196,113141,1,0
256,80,113299,1,0
336,140,113457,2,0,B|448:140,1,100,0|8
436,140,113773,1,0
388,52,113930,5,0
388,52,114009,1,0
388,52,114088,1,0
124,52,114246,1,8
124,52,114325,1,0
124,52,114404,1,0
140,152,114562,6,0,B|144:204|212:208,1,100
372,152,114878,2,0,B|368:204|300:208,1,100,8|0
256,64,115194,2,0,B|256:164,1,100
256,320,115509,6,0,B|256:220,1,100,8|0
140,232,115825,2,0,B|144:180|212:176,1,100
372,232,116141,2,0,B|368:180|300:176,1,100,8|0
372,104,116457,5,0
304,32,116615,1,0
260,120,116773,1,8
216,32,116930,1,0
144,100,117088,1,0
184,192,117246,1,0
256,264,117404,1,8
328,192,117562,1,0
424,220,117720,6,0,B|432:272|432:272|364:312,1,100
304,348,118036,2,0,B|200:348,1,100,8|0
120,296,118352,2,0,B|80:272|80:272|88:220,1,100
128,112,118667,1,8
256,32,118825,1,0
384,112,118983,1,0
256,268,119141,6,0,B|256:136,1,100,0|8
338,224,119457,2,0,B|256:168,1,100
173,224,119773,2,0,B|256:168,1,100,0|8
316,88,120088,2,0,B|255:168,1,100
195,88,120404,2,0,B|256:168,1,100,0|8
408,180,120720,5,0
408,180,120799,1,0
408,180,120878,1,8
284,336,121036,1,0
284,336,121115,1,0
284,336,121194,1,8
160,180,121352,1,0
36,336,121509,1,4
256,192,131615,5,0
256,352,132246,1,8
256,24,132878,1,0
32,192,133509,5,8
480,192,134141,1,0
112,32,134773,6,0,B|68:128|116:236,1,200,8|0
400,352,136036,2,0,B|444:256|396:148,1,200,8|0
44,340,137930,6,0,B|144:340,2,100,0|0|8
256,192,139194,1,0
468,44,139825,2,0,B|368:44,2,100,8|0|0
396,336,141088,5,8
364,296,141246,1,0
148,88,141562,1,0
116,48,141720,1,4
468,240,142983,5,0
44,144,143615,1,8
304,340,144246,5,0
208,44,144878,1,8
408,52,145194,1,0
228,140,145509,1,0
428,152,145825,2,0,B|468:152,4,25
364,232,146141,1,8
256,232,146299,1,8
256,232,146615,1,0
88,340,146773,6,0,B|36:300|68:232,1,100
144,196,147088,1,8
64,136,147246,1,0
116,52,147404,2,0,B|240:52,1,100
316,52,147720,1,8
428,216,148036,5,0
392,308,148194,1,0
356,216,148352,1,8
320,308,148509,1,0
280,216,148667,1,0
244,308,148825,1,0
208,216,148983,1,8
84,60,149299,6,0,B|192:60,1,100
428,60,149615,2,0,B|320:60,1,100,8|0
256,128,149930,1,0
256,128,150009,1,0
256,128,150088,1,0
256,228,150246,1,8
440,304,150562,6,0,B|432:244|368:216,1,100
440,80,150878,2,0,B|432:140|368:168,1,100,8|0
292,192,151194,2,0,B|228:192,2,50
140,188,151509,1,8
32,356,151825,5,0
112,296,151983,1,0
196,240,152141,2,0,B|288:160,1,100,8|0
348,108,152457,1,0
424,44,152615,1,0
424,44,152773,1,8
480,340,153088,5,0
436,252,153246,1,0
384,336,153404,1,8
332,248,153562,1,0
284,160,153720,1,0
236,248,153878,1,0
188,160,154036,1,8
256,192,154352,12,4,156246
256,36,156878,5,0
356,48,157036,1,0
424,120,157194,1,8
336,172,157352,2,0,B|276:200|292:264,1,100
328,344,157667,2,0,B|388:316|372:252,1,100,0|8
336,172,157983,1,0
256,112,158141,1,0
176,172,158299,1,0
256,112,158457,6,0,B|148:60,1,100,8|0
256,112,158773,2,0,B|364:60,1,100
428,124,159088,1,8
476,212,159246,1,0
296,300,159404,6,0,B|280:264|220:264|216:312,1,100
148,232,159720,2,0,B|183:216|184:156|136:152,1,100,8|0
216,84,160036,2,0,B|232:120|292:120|296:72,1,100
364,152,160352,2,0,B|328:168|328:228|376:232,1,100,8|0
416,316,160667,5,0
456,224,160825,1,0
436,124,160983,1,8
356,64,161141,1,0
256,52,161299,1,8
208,44,161378,1,0
156,64,161457,1,0
76,124,161615,1,8
48,168,161694,1,0
56,224,161773,1,0
224,336,161930,6,0,B|312:240,1,100,4|0
288,48,162246,2,0,B|200:144,1,100,8|0
140,184,162562,1,0
220,244,162720,1,0
304,188,162878,1,8
388,244,163036,1,0
388,144,163194,5,0
308,88,163352,1,0
224,144,163509,1,8
144,84,163667,1,0
60,140,163825,2,0,B|32:184|32:184|60:232,1,100
132,292,164141,2,0,B|160:248|160:248|132:200,1,100,8|0
60,140,164457,6,0,B|60:76,2,50
256,32,164773,2,0,B|256:136,1,100,8|0
452,140,165088,2,0,B|452:76,2,50
352,124,165404,6,0,B|288:124|272:188,1,100,8|0
332,260,165720,2,0,B|319:312|255:312,1,100
208,224,166036,2,0,B|144:224|128:288,1,100,8|0
192,356,166352,5,0
388,332,166667,1,8
256,180,166983,1,0
256,80,167141,6,0,B|324:76|336:132,1,100,0|8
256,180,167457,2,0,B|188:176|176:232,1,100
256,276,167773,2,0,B|324:272|336:328,1,100,0|8
412,256,168088,5,0
412,156,168246,1,0
412,156,168404,2,0,B|412:36,1,100,0|8
324,104,168720,1,0
324,204,168878,1,0
324,204,169036,2,0,B|324:324,2,100,0|8|0
236,160,169509,5,0
136,160,169667,1,0
104,64,169825,1,8
192,20,169983,1,0
280,68,170141,1,0
352,136,170299,6,0,B|400:84|460:104,1,100,0|8
352,136,170615,2,0,B|421:151|433:213,1,100,0|0
352,136,170930,2,0,B|373:203|325:245,1,100,0|8
352,136,171246,2,0,B|304:188|243:167,1,100,0|0
352,136,171562,2,0,B|282:120|270:58,1,100,0|8
176,80,171878,1,0
132,172,172036,5,0
68,248,172194,1,0
104,340,172352,1,8
168,264,172509,1,0
252,212,172667,2,0,B|296:168|348:216,1,100
380,304,172983,2,0,B|336:348|284:300,1,100,8|0
252,212,173299,2,0,B|208:168|156:216,1,100
124,304,173615,2,0,B|168:348|220:300,1,100,8|0
252,212,173930,5,0
252,112,174088,1,0
252,112,174246,2,0,B|252:52,2,50,8|0|0
156,148,174562,5,0
76,92,174720,1,0
72,192,174878,1,8
72,292,175036,1,0
152,236,175194,1,0
244,192,175352,6,0,B|348:116,1,100,0|8
244,192,175667,2,0,B|348:268,1,100
404,192,175983,1,0
448,100,176141,1,8
356,60,176299,1,0
156,60,176457,1,8
156,60,176536,1,0
156,60,176615,1,0
88,248,176773,1,8
88,248,176852,1,0
88,248,176930,1,0
276,312,177088,5,0
276,212,177246,1,0
276,112,177404,1,8
276,112,177562,2,0,B|344:24,1,100
424,92,177878,2,0,B|472:120|464:176,1,100,0|8
464,276,178194,1,0
364,276,178352,1,0
364,176,178509,1,0
464,176,178667,1,8
364,176,178825,6,0,B|264:176,1,100
312,88,179141,2,0,B|208:88,1,100,0|8
112,88,179457,1,0
48,168,179615,1,0
68,268,179773,1,0
164,300,179930,1,8
256,264,180088,1,0
268,164,180246,1,0
428,44,180404,6,0,B|484:72|472:136,1,100,0|8
473,258,180720,2,0,B|484:312|428:340,1,100
356,272,181036,1,0
332,176,181194,1,8
256,108,181352,1,0
184,176,181509,1,8
184,176,181588,1,0
184,176,181667,1,0
160,272,181825,1,8
160,272,181904,1,0
160,272,181983,1,0
256,320,182141,5,0
36,192,182773,1,8
256,64,183404,1,0
480,192,184036,1,8
256,192,184667,12,0,185930
