osu file format v9

[General]
AudioFilename: Floxytek - Opera.mp3
AudioLeadIn: 0
PreviewTime: 39286
Countdown: 0
SampleSet: Normal
StackLeniency: 0.7
Mode: 0
LetterboxInBreaks: 1
EpilepsyWarning: 1

[Editor]
DistanceSpacing: 1
BeatDivisor: 4
GridSize: 8

[Metadata]
Title:Opera
Artist:Floxytek
Creator:-Lennox-
Version:Normal
Source:
Tags:OnosakiHito hardtek

[Difficulty]
HPDrainRate:4
CircleSize:3
OverallDifficulty:3
ApproachRate:4
SliderMultiplier:1
SliderTickRate:1

[Events]
//Background and Video events
0,0,"wallpaper_1.jpg"
//Break Periods
2,81178,89764
//Storyboard Layer 0 (Background)
//Storyboard Layer 1 (Fail)
//Storyboard Layer 2 (Pass)
//Storyboard Layer 3 (Foreground)
Sprite,Foreground,Centre,"black.png",320,240 L,49392,4 F,1,0,316,0.5,0 L,50655,1 F,1,0,732,0.6,0 L,58234,6 F,0,1,316,0.5,0 L,59813,12 F,0,1,158,0.5,0 L,69602,4 F,1,0,316,0.5,0 L,99918,4 F,1,0,316,0.5,0
Sprite,Foreground,Centre,"eye.jpg.jpg",320,240 L,60760,128 F,1,0,158,0.4,0 S,1,0,158,1,1.2 L,101181,128 F,1,0,158,0.4,0 S,1,0,158,1,1.2
Sprite,Foreground,Centre,"pulse.jpg.jpg",320,240 L,49392,4 F,1,0,316,0.5,0 S,1,0,316,1,1.2 L,50655,1 F,1,0,732,0.6,0 S,1,0,732,1,1.4 L,60760,128 S,1,0,157,1,1.2 F,1,0,158,0.4,0 L,101181,128 F,1,0,158,0.4,0 S,1,0,158,1,1.2 L,99918,4 F,1,0,316,0.5,0 S,1,0,316,1,1.2
//Storyboard Sound Samples
//Background Colour Transformations
3,100,163,162,255

[TimingPoints]
2663,315.789473684211,4,1,0,33,1,0
60365,-66.6666666666667,4,1,0,33,0,0
60768,-100,4,1,0,33,0,1
80978,-100,4,1,0,21,0,0
101189,-100,4,1,0,33,0,1
111760,-100,4,1,0,33,0,1
121399,-100,4,1,0,33,0,0
122978,-100,4,1,0,21,0,0
123926,-100,4,1,0,10,0,0
125110,-100,4,1,0,0,0,0
126373,-100,4,2,0,0,0,0
126531,-100,4,1,0,21,0,0

[Colours]
Combo1 : 64,128,128
Combo2 : 209,209,209
Combo3 : 128,128,255

[HitObjects]
256,192,38031,12,0,40242
304,192,40558,6,0,B|256:224|192:192,1,100,0|8
232,104,41189,2,0,B|184:80|128:112,1,100,0|8
56,160,41821,1,0
56,160,42137,1,8
64,256,42452,1,0
64,256,42768,1,8
152,304,43084,6,0,B|200:328|248:304,1,100,0|8
224,208,43715,2,0,B|272:184|336:208,1,100,0|8
400,272,44347,2,0,B|496:232|456:80,2,200,0|8|12
312,312,45926,5,0
208,312,46242,1,8
168,224,46558,1,0
232,152,46873,2,0,B|224:104|176:64,1,100,8|0
80,64,47505,2,0,B|24:88|16:136,1,100,8|0
16,232,48137,2,0,B|24:368|144:368,2,200,8|8|8
112,200,49715,5,6
64,112,50031,1,4
152,56,50347,1,6
208,144,50663,1,4
296,104,50979,6,0,B|352:88|408:120,1,100,0|8
392,216,51610,2,0,B|336:240|288:208,1,100,0|8
208,168,52242,2,0,B|176:208|184:264,1,100,0|8
256,336,52873,2,0,B|216:368|152:352,1,100,0|8
72,304,53505,5,0
40,208,53821,1,8
56,112,54137,1,0
152,72,54452,6,0,B|136:24,2,50,8|0|0
256,72,55084,2,0,B|272:24,2,50,8|0|0
200,168,55715,1,8
200,168,56031,1,0
200,168,56347,1,8
104,144,56663,6,0,B|80:200|112:256,1,100,0|8
56,328,57294,2,0,B|96:368|152:344,1,100,0|8
248,336,57926,1,0
256,240,58242,6,0,B|280:192,2,50,8|0|0
224,200,58715,2,0,B|224:144,2,50,0|8|0
184,168,59189,2,0,B|168:120,2,50,0|0|8
136,168,59663,2,0,B|96:128,2,50
104,208,60137,2,0,B|64:208,8,25,8|0|0|0|8|0|0|0|8
168,288,61084,5,0
272,288,61400,2,0,B|312:248|296:192,1,100,8|0
224,128,62031,2,0,B|232:64|296:48,1,100,8|0
384,64,62663,1,8
440,144,62979,1,0
432,240,63294,1,8
336,272,63610,6,0,B|280:272|224:208|216:112,2,200,0|8|0
80,120,65821,5,0
64,216,66137,1,8
104,304,66452,1,0
208,304,66768,2,0,B|264:272|256:208,1,100,8|0
352,248,67400,2,0,B|344:176|296:144,1,100,8|0
392,96,68031,2,0,B|352:48|288:72,1,100,8|0
256,192,68663,12,4,70873
264,192,71189,6,0,B|376:192,2,100,0|8|0
192,264,72137,1,8
128,192,72452,1,0
192,112,72768,1,8
264,40,73084,2,0,B|312:80|288:144,1,100,0|8
376,72,73715,6,0,B|408:128|392:224|344:256,1,200,0|8
312,160,74663,2,0,B|256:192|240:256|264:344,1,200,0|8
160,344,75610,1,0
72,296,75926,1,8
48,200,76242,1,0
144,184,76558,2,0,B|184:152|176:88,1,100,8|0
280,96,77189,6,0,B|264:152|312:200,1,100,8|0
368,264,77821,1,8
304,344,78137,1,0
240,264,78452,6,0,B|304:264,2,50,8|0|0
240,216,78926,2,0,B|184:216,2,50,0|8|0
240,168,79400,2,0,B|288:168,2,50,0|0|8
240,120,79873,2,0,B|240:80,14,25,0|0|8|0|0|0|8|0|0|0|8|0|0|0|8
256,192,91084,5,4
64,136,91715,2,0,B|64:80|120:56,1,100
64,248,92663,2,0,B|64:312|112:328,1,100
256,192,93610,1,0
256,192,94873,5,0
448,136,95821,2,0,B|448:80|392:56,1,100
448,240,96768,2,0,B|448:304|400:320,1,100
256,192,97715,2,0,B|136:192,1,100
256,192,98663,12,0,100873
360,192,101189,6,0,B|424:192|448:248,2,100,4|8|0
256,192,102137,1,8
160,192,102452,2,0,B|96:192|88:128,2,100,0|8|0
160,296,103400,1,8
248,344,103715,1,0
336,296,104031,1,8
424,344,104347,6,0,B|456:296|432:240,1,100,0|8
344,216,104979,2,0,B|328:160|368:120,1,100,0|8
464,144,105610,1,8
448,48,105926,1,0
352,32,106242,1,8
272,88,106558,6,0,B|232:176|144:176|96:152,1,200,0|0
112,256,107505,1,8
168,336,107821,2,0,B|216:264|280:248|360:264,1,200,0|0
424,312,108768,1,8
456,216,109084,1,0
408,128,109400,1,8
312,104,109715,6,0,B|264:80|200:104,1,100,0|8
248,192,110347,2,0,B|192:224|144:192,1,100,0|8
80,128,110979,2,0,B|40:168|56:240,1,100,0|12
64,320,111610,1,0
160,344,111926,1,8
256,320,112242,1,0
208,232,112558,6,0,B|248:184|312:200,1,100,8|0
352,280,113189,2,0,B|400:256|408:200,1,100,8|0
400,104,113821,1,8
336,32,114137,1,0
240,32,114452,1,8
160,96,114768,6,0,B|176:152|248:152,2,100,0|8|0
64,120,115715,2,0,B|80:176|40:224,2,100,8|0|8
152,72,116663,2,0,B|192:128|184:208|144:272,1,200,8|0
104,352,117610,5,8
200,328,117926,1,0
288,288,118242,1,8
336,200,118558,1,0
352,104,118873,6,0,B|384:48,2,50,8|0|0
256,88,119505,2,0,B|256:32,2,50,8|0|0
160,112,120137,2,0,B|128:72,2,50,8|0|0
144,208,120768,2,0,B|80:208,2,50,8|0|0
248,208,121400,1,4
256,192,121715,12,0,126452
