osu file format v9

[General]
AudioFilename: Floxytek - Opera.mp3
AudioLeadIn: 0
PreviewTime: 39286
Countdown: 0
SampleSet: Normal
StackLeniency: 0.7
Mode: 0
LetterboxInBreaks: 1
EpilepsyWarning: 1

[Editor]
DistanceSpacing: 1.6
BeatDivisor: 4
GridSize: 8

[Metadata]
Title:Opera
Artist:Floxytek
Creator:-Lennox-
Version:Insane
Source:
Tags:OnosakiHito hardtek

[Difficulty]
HPDrainRate:6
CircleSize:4
OverallDifficulty:6
ApproachRate:9
SliderMultiplier:1.8
SliderTickRate:2

[Events]
//Background and Video events
0,0,"wallpaper_1.jpg"
//Break Periods
2,81179,89221
2,121600,125852
//Storyboard Layer 0 (Background)
//Storyboard Layer 1 (Fail)
//Storyboard Layer 2 (Pass)
//Storyboard Layer 3 (Foreground)
Sprite,Foreground,Centre,"black.png",320,240 L,49392,4 F,1,0,316,0.5,0 L,50655,1 F,1,0,732,0.6,0 L,58234,6 F,0,1,316,0.5,0 L,59813,12 F,0,1,158,0.5,0 L,69602,4 F,1,0,316,0.5,0 L,99918,4 F,1,0,316,0.5,0
Sprite,Foreground,Centre,"eye.jpg.jpg",320,240 L,60760,128 F,1,0,158,0.4,0 S,1,0,158,1,1.2 L,101181,128 F,1,0,158,0.4,0 S,1,0,158,1,1.2
Sprite,Foreground,Centre,"pulse.jpg.jpg",320,240 L,49392,4 F,1,0,316,0.5,0 S,1,0,316,1,1.2 L,50655,1 F,1,0,732,0.6,0 S,1,0,732,1,1.4 L,60760,128 S,1,0,157,1,1.2 F,1,0,158,0.4,0 L,101181,128 F,1,0,158,0.4,0 S,1,0,158,1,1.2 L,99918,4 F,1,0,316,0.5,0 S,1,0,316,1,1.2
//Storyboard Sound Samples
//Background Colour Transformations
3,100,163,162,255

[TimingPoints]
2663,315.789473684211,4,1,0,33,1,0
49715,-100,4,1,0,25,0,0
50347,-100,4,1,0,34,0,0
60365,-66.6666666666667,4,1,0,33,0,0
60786,-100,4,1,0,33,0,1
63839,-66.6666666666667,4,1,0,33,0,1
64155,-100,4,1,0,33,0,1
68102,-66.6666666666667,4,1,0,33,0,1
69050,-100,4,1,0,33,0,1
80971,-100,4,1,0,24,0,0
101181,-100,4,1,0,33,0,1
111760,-100,4,1,0,33,0,1
121392,-100,4,1,0,33,0,0
126602,-100,4,1,0,21,0,0

[Colours]
Combo1 : 64,128,128
Combo2 : 209,209,209
Combo3 : 128,128,255

[HitObjects]
256,192,38347,12,4,40242
144,336,40558,5,0
192,272,40715,1,0
192,192,40873,1,8
136,136,41031,1,0
56,160,41189,2,0,B|80:72,1,90,0|0
224,96,41505,6,0,B|288:24,1,90,8|0
360,152,41821,2,0,B|448:152,1,90,0|0
480,232,42137,1,8
480,232,42294,1,0
376,304,42452,1,0
376,304,42610,1,0
320,168,42768,6,0,B|288:80,1,90,8|0
168,160,43084,2,0,B|64:160,1,90,0|0
136,296,43400,2,0,B|72:368,2,90,8|0|0
104,224,43873,1,0
104,144,44031,1,8
152,80,44189,1,0
232,64,44347,5,8
344,120,44505,1,0
344,120,44584,1,8
344,120,44663,1,8
256,208,44821,1,8
344,296,44979,1,0
344,296,45058,1,8
344,296,45137,1,8
432,208,45294,6,4,B|488:136,2,90
368,256,45768,1,0
304,208,45926,1,8
280,128,46084,1,0
216,72,46242,1,0
104,160,46400,2,0,B|16:240,1,90,0|8
176,272,46715,2,0,B|176:376,1,90
312,312,47031,6,0,B|392:368,2,90,0|8|0
240,272,47505,1,0
240,272,47663,1,0
240,128,47821,1,8
240,128,47900,1,0
240,128,47979,1,0
360,208,48137,1,12
360,208,48294,1,0
360,352,48452,5,12
360,352,48531,1,0
360,352,48610,2,0,B|304:280,1,90
176,344,48926,2,0,B|216:240,1,90,0|8
136,136,49242,2,0,B|224:80,1,90,0|4
480,40,49715,5,4
32,40,50031,1,4
256,352,50347,1,4
256,272,50505,6,0,B|256:176,1,90,0|12
256,104,50821,1,0
336,120,50979,1,0
392,176,51137,1,0
408,256,51294,1,8
376,328,51452,1,0
304,360,51610,6,0,B|232:264,1,90
176,328,51926,2,0,B|176:216,1,90,8|0
96,224,52242,2,0,B|160:136,1,90
200,88,52558,5,8
200,88,52637,1,0
200,88,52715,1,0
256,192,52873,1,8
304,88,53031,1,0
304,88,53110,1,0
304,88,53189,1,8
256,192,53347,5,0
256,272,53505,1,8
208,336,53663,2,0,B|112:296|80:192,1,180,0|0
48,136,54137,1,8
48,96,54215,1,0
64,56,54294,1,0
96,32,54373,1,0
136,24,54452,1,0
176,160,54610,5,0
320,160,54768,1,8
376,24,54926,5,0
416,32,55005,1,0
448,56,55084,1,0
464,88,55163,1,0
464,128,55242,1,0
256,40,55400,5,8
256,184,55558,1,0
256,328,55715,2,0,B|152:328,1,90
256,328,56031,2,0,B|352:328,1,90,8|0
360,184,56347,2,0,B|280:112,1,90
152,184,56663,2,0,B|232:112,1,90,8|0
256,48,56979,1,0
256,128,57137,1,0
256,208,57294,1,8
256,288,57452,5,0
360,184,57610,1,8
152,184,57768,1,0
256,48,57926,1,12
96,48,58242,5,8
96,48,58321,1,4
96,48,58400,1,0
96,192,58558,1,8
96,192,58637,1,4
96,192,58715,1,0
240,192,58873,5,8
240,192,58952,1,4
240,192,59031,1,0
384,192,59189,1,8
384,192,59268,1,4
384,192,59347,1,0
384,48,59505,1,8
384,48,59584,1,4
384,48,59663,1,0
240,40,59821,5,8
240,40,59900,1,4
240,40,59979,1,0
240,40,60058,1,4
240,40,60137,1,8
240,40,60215,1,0
240,40,60294,1,4
240,40,60452,2,4,B|240:320,1,269.999991953373,8|4
160,312,60926,5,0
96,264,61084,1,8
72,184,61242,1,0
96,104,61400,1,0
160,56,61558,2,0,B|232:0,1,90,0|8
304,128,61873,6,0,B|400:128,1,90,0|0
400,272,62189,2,0,B|488:320,2,90,0|8|0
328,232,62663,1,0
256,192,62821,1,0
176,72,62979,5,8
176,72,63058,1,0
176,72,63137,1,0
112,200,63294,1,8
112,200,63373,1,0
112,200,63452,1,0
104,120,63610,5,8
176,160,63768,1,0
176,240,63926,2,0,B|176:312,2,67.4999979883433,8|0|0
176,160,64242,5,0
248,120,64400,1,0
328,144,64558,1,8
328,144,64715,1,0
328,288,64873,1,0
184,288,65031,1,0
184,288,65110,1,0
184,288,65189,1,8
184,144,65347,5,0
184,144,65426,1,0
184,144,65505,1,0
256,72,65663,1,4
256,256,65821,1,12
112,152,65979,5,4
368,152,66137,1,4
432,208,66294,1,0
432,208,66373,1,0
432,208,66452,1,8
432,288,66610,1,0
368,344,66768,6,0,B|280:344,1,90
272,264,67084,2,0,B|184:216,1,90,8|0
240,152,67400,2,0,B|216:48,1,90
136,80,67715,1,8
80,136,67873,1,0
64,216,68031,1,0
72,296,68189,6,0,B|32:352,2,67.4999979883433,0|0|8
192,264,68505,2,0,B|272:264,2,67.4999979883433,0|0|8
120,168,68821,2,0,B|96:88,2,67.4999979883433,0|0|8
200,168,69137,1,0
256,224,69294,1,0
256,304,69452,1,0
464,304,69610,5,8
40,296,69926,1,8
256,16,70242,1,0
256,176,70558,6,0,B|256:360,1,180,0|12
176,352,71031,1,0
136,280,71189,1,0
128,200,71347,1,0
136,120,71505,2,0,B|208:48,1,90,8|0
288,168,71821,2,0,B|384:168,1,90
368,312,72137,2,0,B|432:376,2,90,8|0|0
312,256,72610,5,0
232,256,72768,1,8
168,304,72926,1,0
104,248,73084,1,0
104,248,73163,1,0
104,248,73242,1,0
72,176,73400,1,8
72,176,73558,1,0
96,96,73715,1,0
96,96,73794,1,0
96,96,73873,1,0
168,64,74031,6,0,B|264:24|360:48,1,180,8|0
296,112,74505,1,0
216,128,74663,2,0,B|256:248|336:264,1,180,8|0
368,192,75137,1,0
448,208,75294,1,8
448,288,75452,1,0
368,312,75610,1,0
368,312,75689,1,0
368,312,75768,1,0
288,328,75926,5,8
248,256,76084,1,0
248,256,76163,1,0
248,256,76242,1,0
184,208,76400,1,0
136,144,76558,6,0,B|160:56,1,90,8|0
224,104,76873,2,0,B|272:16,1,90
312,96,77189,2,0,B|392:40,1,90,8|0
392,128,77505,2,0,B|488:128,1,90
456,208,77821,5,8
392,264,77979,1,0
328,208,78137,1,0
248,192,78294,1,0
248,192,78452,1,8
248,272,78610,1,0
248,272,78689,1,0
248,272,78768,1,8
104,272,78926,5,0
104,272,79005,1,0
104,272,79084,1,8
104,128,79242,1,0
104,128,79321,1,0
104,128,79400,1,8
248,128,79558,5,0
248,128,79637,1,0
248,128,79715,1,8
392,128,79873,1,0
392,128,79952,1,0
392,128,80031,1,8
368,272,80189,5,0
344,272,80268,1,0
320,272,80347,1,8
296,272,80426,1,0
272,272,80505,1,0
248,272,80584,1,0
224,272,80663,1,8
200,272,80742,1,0
176,272,80821,1,0
152,272,80900,1,0
128,272,80979,1,8
256,192,89821,12,4,90768
256,192,91084,5,4
136,32,91715,2,0,B|136:160|16:160,1,180
352,344,92663,2,0,B|360:224|488:232,1,180
256,192,93610,1,0
256,192,94873,5,0
40,224,95821,2,0,B|144:232|128:368,1,180
472,152,96768,2,0,B|368:144|368:16,1,180
256,192,97715,12,0,99610
32,32,99926,5,4
480,32,100242,1,4
480,352,100558,5,4
32,352,100873,1,4
256,192,101189,5,0
200,128,101347,1,0
120,120,101505,1,8
56,176,101663,2,0,B|0:256,1,90
88,256,101979,2,0,B|96:344,1,90,0|8
176,352,102294,1,0
256,328,102452,1,0
280,248,102610,1,0
384,344,102768,6,0,B|456:272,1,90,8|0
344,176,103084,2,0,B|344:80,1,90
208,136,103400,2,0,B|152:56,1,90,8|0
96,192,103715,1,0
32,240,103873,1,0
24,320,104031,1,8
80,376,104189,1,0
152,344,104347,1,0
216,288,104505,6,0,B|280:224,1,90,0|8
200,192,104821,2,0,B|200:80,1,90,0|8
280,104,105137,1,8
392,192,105294,1,8
392,192,105373,1,0
392,192,105452,1,8
280,288,105610,5,8
176,192,105768,1,8
176,192,105847,1,0
176,192,105926,1,8
80,80,106084,1,8
40,208,106242,1,0
128,312,106400,1,0
208,288,106558,6,0,B|312:256|352:144,1,180,8|0
256,176,107031,1,0
256,176,107110,1,0
256,176,107189,1,8
256,96,107347,1,0
192,48,107505,1,0
128,96,107663,1,0
128,176,107821,1,8
128,176,107900,1,0
128,176,107979,1,0
256,240,108137,5,0
256,240,108215,1,0
256,240,108294,1,0
384,176,108452,1,8
384,176,108531,1,0
384,176,108610,1,0
472,64,108768,6,0,B|392:0,1,90,0|0
312,120,109084,2,0,B|192:120,1,90,8|0
152,248,109400,2,0,B|64:304,1,90,0|0
32,232,109715,1,8
48,152,109873,1,0
112,104,110031,1,4
192,96,110189,2,0,B|288:96,1,90,4|8
282,96,110505,5,0
282,96,110584,1,0
282,96,110663,1,12
392,224,110821,1,4
264,304,110979,1,12
128,224,111137,1,4
264,200,111294,5,4
264,200,111452,1,0
264,200,111610,1,12
264,24,111768,1,0
184,32,111926,5,0
184,32,112005,1,0
184,32,112084,1,0
152,104,112242,1,8
152,104,112400,1,0
88,152,112558,1,0
88,152,112637,1,0
88,152,112715,1,0
48,224,112873,6,0,B|64:328,1,90,8|0
160,200,113189,2,0,B|232:256,1,90,0|0
248,112,113505,2,0,B|352:64,1,90,8|0
408,48,113821,1,0
432,128,113979,1,0
424,208,114137,5,8
424,208,114215,1,0
424,208,114294,1,0
328,312,114452,1,0
424,208,114610,5,0
424,208,114689,1,0
424,208,114768,1,8
328,104,114926,1,0
224,200,115084,2,0,B|120:200,1,90,0|0
136,320,115400,2,0,B|64:384,1,90,8|0
144,64,115715,2,0,B|64:0,1,90,0|0
56,192,116031,5,8
56,192,116110,1,0
56,192,116189,1,0
136,192,116347,1,0
184,128,116505,2,0,B|240:128|256:192,1,90,0|8
256,256,116820,2,0,B|256:312|304:328,1,90
384,328,117137,6,0,B|464:328,2,45,0|8|0
368,184,117452,2,0,B|408:144,2,45,0|8|0
256,96,117768,2,0,B|256:48,2,45,0|8|0
136,184,118084,2,0,B|112:144,2,45,0|8|0
96,320,118400,2,0,B|48:320,2,45,0|8|0
256,304,118715,1,0
256,80,118873,5,8
256,56,118952,1,0
256,32,119031,1,0
352,200,119189,1,8
376,200,119268,1,0
400,200,119347,1,0
256,320,119505,5,8
256,344,119584,1,0
256,368,119663,1,0
160,200,119821,1,8
136,200,119900,1,0
112,200,119979,1,0
80,88,120137,5,8
104,88,120215,1,0
128,88,120294,1,0
152,88,120373,1,0
176,88,120452,1,8
200,88,120531,1,0
216,104,120610,1,0
232,112,120689,1,0
256,120,120768,5,8
280,112,120847,1,0
296,96,120926,1,0
320,88,121005,1,0
344,88,121084,1,8
368,88,121163,1,0
392,88,121242,1,8
416,88,121321,1,0
440,88,121400,1,12
256,32,126452,5,4
96,192,126768,5,8
96,192,126847,1,0
96,192,126926,1,0
184,256,127084,1,8
184,256,127163,1,0
184,256,127242,1,0
272,192,127400,5,8
272,192,127479,1,0
272,192,127558,1,0
352,120,127715,1,8
352,120,127794,1,0
352,120,127873,1,0
352,120,127952,1,0
352,120,128031,1,8
352,120,128110,1,0
352,120,128189,1,8
416,168,128347,5,0
424,248,128505,1,0
376,312,128663,1,0
296,320,128821,1,0
216,296,128979,2,0,B|128:248,1,90,8|0
184,120,129294,2,0,B|160:16,1,90,8|0
304,80,129610,2,0,B|344:0,1,90,8|0
400,136,129926,2,0,B|504:120,1,90,8|0
480,200,130242,5,8
432,296,130400,1,0
432,296,130479,1,8
432,296,130558,1,0
360,216,130715,1,0
304,304,130873,1,8
192,304,131031,1,0
192,304,131110,1,8
192,304,131189,1,0
248,208,131347,5,0
168,136,131505,1,8
88,208,131663,1,0
88,208,131742,1,8
88,208,131821,1,0
0,144,131979,1,0
0,144,132058,1,0
0,144,132137,1,8
80,72,132294,5,0
80,72,132373,1,0
80,72,132452,1,8
184,64,132610,1,0
184,64,132689,1,0
184,64,132768,1,8
184,64,132847,1,0
184,64,132926,1,0
184,64,133005,1,0
184,64,133084,1,8
176,208,133242,6,0,B|272:168,1,90,0|0
272,320,133558,2,0,B|344:216,1,90,0|8
432,336,133873,2,0,B|400:232,1,90,0|0
376,176,134189,1,0
336,72,134347,1,8
336,72,134426,1,0
336,72,134505,1,0
264,152,134663,5,8
224,48,134821,1,0
224,48,134900,1,0
224,48,134979,1,8
224,48,135058,1,4
224,48,135137,1,4
256,192,135294,12,4,136558
