osu file format v9

[General]
AudioFilename: Floxytek - Opera.mp3
AudioLeadIn: 0
PreviewTime: 39286
Countdown: 0
SampleSet: Normal
StackLeniency: 0.7
Mode: 0
LetterboxInBreaks: 1
EpilepsyWarning: 1

[Editor]
DistanceSpacing: 1
BeatDivisor: 4
GridSize: 8

[Metadata]
Title:Opera
Artist:Floxytek
Creator:-Lennox-
Version:Hard
Source:
Tags:OnosakiHito hardtek

[Difficulty]
HPDrainRate:4
CircleSize:4
OverallDifficulty:5
ApproachRate:7
SliderMultiplier:1.6
SliderTickRate:1

[Events]
//Background and Video events
0,0,"wallpaper_1.jpg"
//Break Periods
2,81178,88921
//Storyboard Layer 0 (Background)
//Storyboard Layer 1 (Fail)
//Storyboard Layer 2 (Pass)
//Storyboard Layer 3 (Foreground)
Sprite,Foreground,Centre,"black.png",320,240 L,49392,4 F,1,0,316,0.5,0 L,50655,1 F,1,0,732,0.6,0 L,58234,6 F,0,1,316,0.5,0 L,59813,12 F,0,1,158,0.5,0 L,69602,4 F,1,0,316,0.5,0 L,99918,4 F,1,0,316,0.5,0
Sprite,Foreground,Centre,"eye.jpg.jpg",320,240 L,60760,128 F,1,0,158,0.4,0 S,1,0,158,1,1.2 L,101181,128 F,1,0,158,0.4,0 S,1,0,158,1,1.2
Sprite,Foreground,Centre,"pulse.jpg.jpg",320,240 L,49392,4 F,1,0,316,0.5,0 S,1,0,316,1,1.2 L,50655,1 F,1,0,732,0.6,0 S,1,0,732,1,1.4 L,60760,128 S,1,0,157,1,1.2 F,1,0,158,0.4,0 L,101181,128 F,1,0,158,0.4,0 S,1,0,158,1,1.2 L,99918,4 F,1,0,316,0.5,0 S,1,0,316,1,1.2
//Storyboard Sound Samples
//Background Colour Transformations
3,100,163,162,255

[TimingPoints]
2663,315.789473684211,4,1,0,33,1,0
58478,-200,4,1,0,33,0,0
59978,-100,4,1,0,33,0,0
60365,-66.6666666666667,4,1,0,33,0,0
60786,-100,4,1,0,33,0,1
68102,-66.6666666666667,4,1,0,33,0,1
69050,-100,4,1,0,33,0,1
80971,-100,4,1,0,20,0,0
101181,-100,4,1,0,33,0,1
111760,-100,4,1,0,33,0,1
121392,-100,4,1,0,33,0,0
126286,-100,4,2,0,22,0,0
126602,-100,4,1,0,21,0,0

[Colours]
Combo1 : 64,128,128
Combo2 : 209,209,209
Combo3 : 128,128,255

[HitObjects]
256,192,38347,12,4,40242
288,200,40558,6,0,B|248:240|208:184,1,80
192,272,40873,2,0,B|144:264|136:216,1,80,8|0
72,272,41189,2,0,B|40:232|64:184,1,80
120,152,41505,2,0,B|168:80|112:-8,2,160,8|0|8
96,224,42294,1,0
112,304,42452,1,0
184,328,42610,1,0
248,288,42768,1,8
328,312,42926,6,0,B|368:288|368:240,1,80
448,248,43242,2,0,B|464:200|408:144,1,80,0|8
496,120,43558,2,0,B|472:72|408:64,1,80
360,56,43873,1,0
280,64,44031,1,8
216,112,44189,1,0
200,192,44347,2,0,B|200:240|248:256,1,80,0|8
320,280,44663,5,8
360,160,44821,1,0
400,280,44979,1,0
296,208,45137,1,0
424,208,45294,1,12
176,280,45610,6,0,B|208:248|248:256,2,80,4|0|8
120,336,46084,1,0
48,304,46242,1,0
40,224,46400,1,0
72,152,46558,1,8
128,96,46715,6,0,B|208:128|240:216,1,160
272,280,47189,1,8
344,320,47347,1,0
344,320,47505,2,0,B|400:296|384:232,1,80
464,272,47821,2,0,B|464:216|432:176,1,80,8|0
408,128,48137,5,0
408,128,48215,1,0
408,128,48294,1,8
352,72,48452,1,8
280,112,48610,2,0,B|240:144|200:104,1,80,8|0
240,40,48926,2,0,B|208:16|160:40,1,80,0|8
96,80,49242,5,0
128,152,49400,2,0,B|128:232,1,80,4|0
240,200,49715,2,0,B|288:280,1,80,12|0
368,192,50031,2,0,B|448:192,1,80,4|0
448,192,50347,1,12
280,336,50663,5,4
200,336,50821,2,8,B|160:320|144:280,1,80,8|0
72,320,51137,2,0,B|48:264|72:208,1,80
88,168,51452,1,0
160,128,51610,1,8
200,200,51768,2,0,B|240:176|256:144|256:144|272:176|320:208,1,160
352,128,52242,1,8
424,160,52400,1,0
432,240,52558,6,0,B|408:296|440:336,2,80,0|0|8
408,168,53031,1,0
336,136,53189,1,0
280,192,53347,1,0
296,272,53505,6,0,B|240:312|208:256,1,80,8|0
160,328,53821,2,0,B|120:288|128:232,1,80
144,176,54137,1,8
184,104,54294,1,0
184,104,54452,1,0
256,64,54610,1,0
328,104,54768,1,8
328,104,54926,1,0
376,168,55084,6,8,B|344:208|368:264,2,80,0|8|8
216,200,55715,2,0,B|184:248|128:224,1,80
72,208,56031,1,8
32,136,56189,1,0
72,64,56347,1,0
152,64,56505,1,0
128,144,56663,6,0,B|160:176|200:160,1,80,8|0
216,240,56979,2,0,B|272:240|296:200,1,80
336,272,57294,2,0,B|368:248|368:192,1,80,8|0
440,232,57610,2,0,B|464:136|376:64,2,160,0|8|0
256,296,58557,6,0,B|208:296,1,40
144,264,58873,2,0,B|112:216,1,40
120,152,59189,2,0,B|144:120,1,40
216,80,59505,2,0,B|264:80,1,40
328,120,59820,2,0,B|360:160,1,40
256,184,60137,5,0
256,216,60215,1,0
256,248,60294,1,12
256,272,60373,1,0
256,296,60452,1,12
32,192,60768,5,0
88,128,60926,2,0,B|144:112|176:168,1,80,0|12
120,216,61242,2,0,B|168:248|208:224,1,80
216,312,61558,2,0,B|272:296|280:240,1,80,0|8
344,296,61873,2,0,B|376:264|360:200,1,80
364,221,62189,1,0
364,221,62347,1,8
336,96,62505,6,0,B|304:136|304:192,1,80
288,248,62821,1,0
216,280,62979,1,8
144,240,63137,1,0
160,160,63294,1,0
240,184,63452,6,0,B|240:88|160:40,1,160,0|8
171,47,63926,2,0,B|248:80|336:40,1,160,8|0
408,24,64400,1,0
408,104,64558,2,0,B|400:144|424:208,2,80,8|0|0
336,136,65031,1,0
264,168,65189,1,8
264,168,65268,1,0
264,168,65347,1,0
272,248,65505,6,0,B|272:288|232:312,2,80,0|0|8
352,240,65979,1,0
424,280,66137,1,0
440,200,66294,1,0
416,120,66452,6,0,B|400:72|344:40,1,80,8|0
304,104,66768,2,0,B|256:72|208:72,1,80
208,152,67084,2,0,B|152:144|120:176,1,80,8|0
160,240,67400,2,0,B|112:272|112:320,1,80,0|0
113,302,67715,1,8
256,192,68031,12,0,69610
256,240,69926,1,4
256,200,70242,1,4
256,160,70558,1,4
112,88,70873,6,0,B|80:128|72:176,1,80,12|0
48,232,71189,1,0
48,312,71347,1,0
120,352,71505,1,8
192,320,71663,6,0,B|232:312|256:272|256:272|272:312|312:320,1,160
384,352,72137,1,8
448,304,72294,1,0
376,272,72452,2,0,B|352:200|408:112,1,160,0|8
328,80,72926,5,0
264,128,73084,2,0,B|216:160|168:136,1,80
200,224,73400,2,0,B|144:232|112:200,1,80,8|0
48,120,73715,2,0,B|16:152|16:200,1,80
176,160,74031,6,0,B|216:128|216:80,1,80,8|0
256,24,74347,1,0
336,16,74505,1,0
400,72,74663,1,8
320,96,74821,6,0,B|296:128|288:176,1,80
288,248,75137,1,0
336,312,75294,1,8
416,320,75452,2,0,B|448:344,2,40
448,248,75768,5,0
440,168,75926,1,8
488,104,76084,2,0,B|464:64|400:64,1,80
296,64,76400,2,0,B|256:96|256:152,1,80,0|8
256,256,76715,2,0,B|256:312|200:320,1,80
136,328,77031,5,0
72,280,77189,1,8
48,200,77347,1,0
88,128,77505,1,0
168,128,77663,1,0
136,200,77820,2,0,B|176:240|224:232|256:304,1,160,8|0
176,80,78452,5,8
136,152,78610,1,0
176,224,78768,1,0
224,160,78926,2,0,B|248:120|256:88|256:88|264:120|296:168,1,160,0|8
336,224,79400,5,0
376,152,79558,1,0
336,80,79715,1,8
256,56,79873,1,0
256,136,80031,5,0
256,168,80110,1,0
256,200,80189,1,0
256,232,80268,1,0
256,264,80347,1,8
256,304,80426,1,0
256,344,80505,2,0,B|256:384,6,40,0|0|8|0|0|0|4
256,192,89821,12,4,90768
256,192,91084,5,4
32,120,91715,2,0,B|48:24|152:40,1,160
147,344,92663,2,0,B|48:360|32:264,1,160
256,192,93610,1,0
256,192,94873,5,0
364,39,95820,2,0,B|464:24|480:120,1,160
364,344,96768,2,0,B|464:360|480:264,1,160
256,192,97715,1,0
256,192,98031,12,0,99610
232,208,99926,5,4
232,160,100242,1,4
272,160,100558,1,4
272,208,100873,1,4
432,200,101189,6,0,B|424:248|456:288,1,80
384,320,101505,2,0,B|392:280|344:224,1,80,8|0
288,208,101821,1,0
208,216,101979,1,0
160,280,102137,1,8
104,336,102294,2,0,B|56:312|56:256,1,80
120,216,102610,2,0,B|120:160|88:136,1,80,0|8
24,176,102926,6,0,B|16:64|120:32,1,160
168,56,103400,1,8
224,112,103558,1,0
304,104,103715,1,0
376,64,103873,6,0,B|424:80|424:128,1,80,0|8
496,88,104189,2,0,B|504:152|480:192,1,80
432,224,104505,1,0
360,256,104663,1,8
280,232,104821,5,0
280,232,104900,1,8
280,232,104979,1,8
208,264,105137,1,0
136,232,105294,1,8
120,152,105452,6,0,B|80:168|56:208,1,80
32,280,105768,1,0
72,352,105926,2,0,B|128:352|152:312,1,80,8|0
224,344,106242,2,0,B|264:320|264:280,1,80
264,200,106558,1,8
264,120,106715,1,0
184,40,106873,5,0
344,40,107031,1,0
264,48,107189,2,0,B|264:232,1,160,8|0
248,288,107663,5,0
168,296,107821,1,8
104,344,107979,2,0,B|64:304|96:256,1,80
136,208,108294,1,0
160,136,108452,1,8
104,72,108610,1,0
24,96,108768,6,0,B|32:144|88:152,1,80
256,200,109084,2,0,B|304:216|344:184,1,80,8|0
400,152,109400,1,0
432,80,109558,1,0
392,16,109715,1,8
312,24,109873,5,0
312,24,110031,1,0
248,72,110189,1,0
248,72,110347,1,8
208,144,110505,2,0,B|168:120|176:64,1,80
96,48,110821,2,0,B|120:104|88:144,2,80,8|0|0
48,264,111294,5,0
104,320,111452,1,0
184,296,111610,1,8
184,296,111689,1,0
184,296,111768,1,0
256,328,111926,6,0,B|296:296|288:248,1,80,8|0
368,288,112242,2,0,B|384:240|368:184,1,80,8|0
456,224,112558,2,0,B|464:168|440:120,1,80
416,72,112873,5,8
416,72,112952,1,0
416,72,113031,1,0
336,56,113189,1,8
256,72,113347,1,0
176,56,113505,1,8
104,88,113663,6,0,B|88:136|112:176,1,80
128,240,113979,2,0,B|144:288|216:288,1,80,0|8
272,288,114294,2,0,B|320:280|336:224,1,80
336,160,114610,5,0
368,88,114768,1,8
448,80,114926,1,0
504,136,115084,1,0
496,216,115242,1,0
424,256,115400,1,8
416,176,115558,6,0,B|344:248|256:224,1,160
200,192,116031,2,0,B|184:240|200:280,1,80,8|0
224,344,116347,1,0
304,368,116505,1,0
368,328,116663,2,0,B|424:304|424:224|376:184,1,160,8|0
304,176,117136,1,0
232,216,117294,5,8
232,216,117373,1,0
232,216,117452,1,0
160,248,117610,2,0,B|128:184|152:152,1,80,8|0
192,112,117926,5,8
192,112,118005,1,0
192,112,118084,1,0
168,32,118242,2,0,B|128:16|80:32,1,80,8|0
48,112,118558,1,8
48,112,118637,1,0
48,112,118715,1,0
40,192,118873,6,0,B|120:192,1,80,8|0
112,320,119189,2,0,B|168:256,1,80
248,352,119505,2,0,B|248:264,1,80,8|0
368,320,119821,2,0,B|320:248,1,80
432,184,120136,2,0,B|344:184,1,80,8|0
256,192,120452,5,0
256,192,120531,1,0
256,192,120610,1,0
256,192,120689,1,0
256,192,120768,2,0,B|256:144,5,40,8|0|0|0|0|0
256,112,121241,2,0,B|256:32,1,80,8|12
256,192,121715,12,0,126452
