osu file format v9

[General]
AudioFilename: Floxytek - Opera.mp3
AudioLeadIn: 0
PreviewTime: 39286
Countdown: 0
SampleSet: Normal
StackLeniency: 0.7
Mode: 0
LetterboxInBreaks: 1

[Editor]
Bookmarks: 86023,91076
DistanceSpacing: 1
BeatDivisor: 4
GridSize: 8

[Metadata]
Title:Opera
Artist:Floxytek
Creator:-Lennox-
Version:Easy
Source:
Tags:OnosakiHito hardtek

[Difficulty]
HPDrainRate:2
CircleSize:4
OverallDifficulty:1
ApproachRate:3
SliderMultiplier:0.5
SliderTickRate:1

[Events]
//Background and Video events
0,0,"wallpaper_1.jpg"
//Break Periods
2,81179,87749
//Storyboard Layer 0 (Background)
//Storyboard Layer 1 (Fail)
//Storyboard Layer 2 (Pass)
//Storyboard Layer 3 (Foreground)
Sprite,Foreground,Centre,"black.png",320,240 L,49392,4 F,1,0,316,0.5,0 L,50655,1 F,1,0,732,0.6,0 L,58234,6 F,0,1,316,0.5,0 L,59813,12 F,0,1,158,0.5,0 L,69602,4 F,1,0,316,0.5,0 L,99918,4 F,1,0,316,0.5,0
Sprite,Foreground,Centre,"eye.jpg.jpg",320,240 L,60760,128 F,1,0,158,0.4,0 S,1,0,158,1,1.2 L,101181,128 F,1,0,158,0.4,0 S,1,0,158,1,1.2
Sprite,Foreground,Centre,"pulse.jpg.jpg",320,240 L,49392,4 F,1,0,316,0.5,0 S,1,0,316,1,1.2 L,50655,1 F,1,0,732,0.6,0 S,1,0,732,1,1.4 L,60760,128 S,1,0,157,1,1.2 F,1,0,158,0.4,0 L,101181,128 F,1,0,158,0.4,0 S,1,0,158,1,1.2 L,99918,4 F,1,0,316,0.5,0 S,1,0,316,1,1.2
//Storyboard Sound Samples
//Background Colour Transformations
3,100,163,162,255

[TimingPoints]
2663,315.789473684211,4,1,0,33,1,0
60768,-100,4,1,0,33,0,1
80978,-100,4,1,0,33,0,0
101189,-100,4,1,0,33,0,1
121399,-100,4,1,0,33,0,0

[Colours]
Combo1 : 64,128,128
Combo2 : 209,209,209
Combo3 : 128,128,255

[HitObjects]
256,192,38031,12,0,39926
256,96,40558,5,4
208,184,41189,2,0,B|256:208|304:184,1,100,8|0
392,136,42452,1,8
392,136,43084,2,0,B|448:208|368:264|424:344,1,200,0|0
256,208,45610,5,0
256,104,46242,1,8
176,160,46873,2,0,B|72:160|72:160,2,100,0|8|0
328,288,49400,5,2
328,240,49715,1,2
328,192,50031,1,2
328,144,50347,1,2
328,96,50663,1,4
152,192,51926,5,0
256,192,52558,1,8
344,240,53189,2,0,B|368:192|344:136,1,100,0|8
280,72,54452,6,0,B|232:40|184:72,1,100,0|8
232,160,55715,2,0,B|208:240|264:288|224:368,1,200,0|8
144,296,57610,1,0
256,192,58242,12,0,60768
208,136,61400,6,0,B|256:112|304:136,1,100,0|8
304,240,62663,2,0,B|256:264|200:240,1,100,0|8
120,192,63926,1,0
120,88,64558,6,0,B|168:24|248:24|296:96,1,200,8|8
200,136,66452,2,0,B|216:208|160:256|184:352,1,200,0|0
264,280,68347,2,0,B|336:312|376:264|464:272,1,200,8|8
464,224,69926,5,2
448,176,70242,1,2
416,136,70558,1,2
376,112,70873,6,0,B|319:112|282:148|282:212,1,150,8|0
280,256,72137,2,0,B|280:312|256:360|184:360,1,150,8|0
144,360,73400,2,0,B|80:360|64:304|64:256,1,150,8|0
64,208,74663,6,0,B|64:128|112:80|208:80,1,200,8|8
168,176,76558,1,0
168,176,77189,2,0,B|232:200|232:248|288:272,1,150,8|0
256,192,78452,12,0,80979
256,192,89189,12,0,91084
256,120,91715,6,0,B|256:176,1,50
256,272,92663,2,0,B|256:216,1,50
160,192,93610,1,4
360,192,94873,5,4
208,192,95821,2,0,B|152:192,1,50
56,192,96768,2,0,B|112:192,1,50
256,192,97400,12,0,99294
344,256,99926,2,0,B|344:192,3,50,0|0|0|0
344,160,101189,2,0,B|344:96|280:96,1,100,0|8
232,96,102137,1,0
136,96,102768,6,0,B|80:96|80:168,1,100,8|0
176,200,104031,1,8
80,240,104663,2,0,B|80:312|144:312,1,100,0|8
184,312,105610,1,0
248,240,106242,5,8
312,160,106873,2,0,B|392:200|384:264|456:304,1,200
368,352,108768,2,0,B|280:304|256:376|168:336,1,200,8|8
144,144,111294,6,0,B|144:80|208:80,1,100,0|8
256,80,112242,1,0
304,80,112558,2,0,B|299:79|333:79|351:97|373:119|373:143,1,100,0|8
288,192,113821,5,0
376,248,114452,2,0,B|376:320|312:320,1,100,8|0
224,320,115715,1,8
168,240,116347,6,0,B|144:168|192:128|152:32,2,200
256,192,119505,12,0,121400
