osu file format v9

[General]
AudioFilename: Floxytek - Dominus (Billx Rmx).mp3
AudioLeadIn: 0
PreviewTime: 50666
Countdown: 0
SampleSet: Normal
StackLeniency: 0.7
Mode: 0
LetterboxInBreaks: 0
EpilepsyWarning: 1

[Editor]
Bookmarks: 10245,20350,30455,50666,70876,80982,91087,111297,131508,141613,151718
DistanceSpacing: 1
BeatDivisor: 4
GridSize: 4

[Metadata]
Title:Dominus (Billx Remix)
Artist:Floxytek
Creator:DarkTigrus
Version:Insane
Source:
Tags:Billx Hardtek OnosakiHito

[Difficulty]
HPDrainRate:7
CircleSize:4
OverallDifficulty:7
ApproachRate:9
SliderMultiplier:1.9
SliderTickRate:1

[Events]
//Background and Video events
0,0,"background.jpg"
//Break Periods
2,71076,80382
2,131708,141013
//Storyboard Layer 0 (Background)
//Storyboard Layer 1 (Fail)
//Storyboard Layer 2 (Pass)
//Storyboard Layer 3 (Foreground)
Sprite,Foreground,Centre,"inverse.jpg",320,240 S,0,30455,,0.99 F,0,30455,31718,1,0 S,0,91087,,0.99 F,0,91087,91718,1,0 S,0,101192,,0.99 F,0,101192,101823,1,0
Sprite,Foreground,Centre,"white.jpg",320,240 F,0,20350,21613,1,0 F,0,70876,73403,1,0 F,0,75929,78455,1,0 F,0,96140,96771,1,0 F,0,106245,106876,1,0 F,0,151718,154245,1,0
Sprite,Foreground,Centre,"pulse.jpg",320,240 L,15297,2 F,1,0,1264,0.9,0 S,1,0,1264,1,1.4 L,17824,3 F,1,0,632,0.6,0 S,1,0,632,1,1.4 L,50666,24 F,1,0,158,0.6,0 S,1,0,158,1,1.3 L,54455,4 F,1,0,316,0.6,0 S,1,0,316,1,1.4 L,55718,24 F,1,0,158,0.6,0 S,1,0,158,1,1.3 L,59508,4 F,1,0,316,0.6,0 S,1,0,316,1,1.4 L,60771,24 F,1,0,158,0.6,0 S,1,0,158,1,1.3 L,64561,4 F,1,0,316,0.6,0 S,1,0,316,1,1.4 L,65824,32 F,1,0,158,0.6,0 S,1,0,158,1,1.3 L,80982,8 F,1,0,1264,0.9,0 S,1,0,1264,1,1.4 L,111297,56 F,1,0,158,0.6,0 S,1,0,158,1,1.3 L,120140,3 F,1,0,316,0.6,0 S,1,0,316,1,1.4 L,121075,2 F,1,0,158,0.6,0 S,1,0,158,1,1.4 L,121403,64 F,1,0,158,0.6,0 S,1,0,158,1,1.3 L,131508,8 F,1,0,1264,0.9,0 S,1,0,1264,1,1.4 L,141613,64 F,1,0,158,0.6,0 S,1,0,158,1,1.3
//Storyboard Sound Samples
//Background Colour Transformations
3,100,163,162,255

[TimingPoints]
140,315.789473684211,4,1,0,45,1,0
50666,-100,4,1,0,50,0,1
70876,-100,4,1,0,45,0,0
111297,-100,4,1,0,50,0,1
131508,-100,4,1,0,45,0,0
141613,-100,4,1,0,50,0,1
151718,-100,4,1,0,45,0,0

[HitObjects]
256,192,5192,12,0,8982
64,192,10245,5,4
448,192,10876,1,0
88,64,11508,1,0
424,320,12140,1,0
88,320,12771,6,0,B|120:296|152:328|152:328|184:320,1,95
424,64,13403,2,0,B|392:88|360:56|360:56|328:64,1,95
256,336,14034,1,0
256,336,14192,1,0
256,48,14666,1,0
256,48,14823,1,0
184,112,14981,5,4
216,152,15060,1,0
256,168,15139,1,0
304,152,15218,1,0
336,112,15297,1,8
480,72,15613,6,0,B|475:143|396:152|383:238,1,190
256,312,16245,1,0
126,231,16561,2,0,B|115:152|36:143|32:72,1,190,8|0
32,72,17192,1,2
256,152,17508,5,0
256,152,17666,1,0
344,112,17824,2,0,B|376:136|400:104|440:128,2,95,8|0|0
168,112,18455,2,0,B|136:136|112:104|72:128,2,95,8|0|0
256,56,19087,5,8
256,152,19245,1,0
256,248,19402,1,0
208,328,19561,1,0
304,328,19718,1,2
352,248,19876,1,0
160,248,20034,1,2
400,192,20350,5,4
432,104,20508,2,0,B|328:104,1,95,0|8
256,56,20824,1,0
80,104,20982,2,0,B|184:104,1,95,0|0
256,152,21297,1,8
328,224,21455,1,0
256,288,21613,1,0
184,224,21771,1,0
112,288,21929,2,0,B|80:320|48:288|16:320,2,95,8|0|0
332,192,22561,5,2
180,192,22876,1,2
84,192,23034,1,0
56,100,23192,1,8
132,44,23350,1,0
208,100,23508,1,0
272,176,23666,1,0
360,208,23824,1,8
456,184,23982,1,0
428,272,24140,6,0,B|400:292|416:328|376:348,1,95,0|0
300,292,24455,2,0,B|256:260|212:292,1,95,8|0
136,348,24771,2,0,B|96:328|112:292|84:272,1,95,0|0
104,180,25087,5,2
408,176,25402,1,2
304,144,25560,2,0,B|256:160|208:144,1,95,0|8
56,88,25876,2,0,B|104:72|152:88,1,95
256,64,26192,1,0
344,32,26350,1,8
432,64,26508,1,0
432,160,26666,1,0
344,200,26824,1,0
256,168,26982,2,0,B|224:200|224:200|176:216,1,95,8|0
256,328,27297,1,0
480,120,27613,5,2
32,120,27929,1,2
100,52,28087,2,0,B|132:68|160:48|196:52,1,95,0|8
256,124,28403,1,0
412,52,28561,2,0,B|380:68|352:48|316:52,1,95
256,124,28876,1,8
256,124,29034,1,0
184,184,29192,6,0,B|152:240,3,47.5,8|0|0|0
164,272,29508,2,0,B|188:312,3,47.5,8|0|0|0
232,328,29824,2,0,B|280:328,3,47.5,8|0|0|0
324,312,30139,1,2
348,272,30218,1,2
352,224,30297,1,2
328,184,30376,1,0
352,140,30455,6,0,B|452:140,1,95,4|0
400,56,30771,2,0,B|304:56,1,95,8|0
65,140,31087,2,0,B|160:140,1,95,0|0
207,56,31403,2,0,B|112:56,1,95,8|0
104,224,31718,5,0
168,296,31876,1,0
256,328,32034,2,0,B|304:328|304:328|336:296,1,95,8|0
304,204,32350,2,0,B|256:204|256:204|224:236,1,95,0|0
76,128,32666,6,0,B|171:128,1,95,2|0
436,128,32982,2,0,B|341:128,1,95,2|0
256,172,33297,1,8
320,240,33455,1,0
412,220,33613,1,0
436,128,33771,1,0
372,60,33929,1,8
280,84,34087,1,0
188,108,34245,5,0
188,108,34324,1,0
188,108,34403,1,0
136,192,34561,1,0
136,192,34640,1,0
136,192,34719,1,0
192,272,34876,1,2
220,300,34955,1,0
256,308,35034,1,2
292,300,35113,1,2
320,272,35192,1,2
64,64,35508,5,6
120,144,35666,2,0,B|160:160|192:128|224:128,1,95,0|8
304,128,35982,1,0
344,40,36140,2,0,B|392:56|400:112,1,95
432,272,36455,2,0,B|384:256|376:200,1,95,8|0
400,112,36771,1,0
344,40,36929,1,0
248,48,37087,1,8
208,136,37245,1,0
256,216,37403,1,0
76,320,37718,5,2
76,64,38034,1,6
168,80,38192,1,0
256,116,38350,2,0,B|298:147|298:147|330:205,1,95,8|0
256,256,38666,2,0,B|213:224|213:224|181:166,1,95
256,116,38982,1,8
344,80,39140,1,0
344,176,39297,5,0
344,176,39376,1,0
344,176,39455,1,0
256,216,39613,1,0
256,216,39692,1,0
256,216,39771,1,0
168,176,39929,1,0
168,176,40008,1,0
168,176,40087,1,0
192,264,40245,1,2
220,292,40324,1,0
256,304,40403,1,2
292,292,40482,1,2
320,264,40561,1,6
412,288,40718,5,0
416,192,40876,2,0,B|376:208|352:176|320:192,1,95,8|0
256,128,41192,1,0
336,80,41350,1,0
256,32,41508,2,0,B|200:36|176:80,1,95,8|0
112,208,41824,5,0
168,288,41982,1,0
256,328,42140,2,0,B|296:284|384:288|416:232,1,190,8|0
464,152,42613,1,0
464,152,42771,1,10
288,80,43087,6,0,B|304:136|272:168,1,95
192,304,43403,2,0,B|176:248|208:216,1,95,8|0
184,128,43718,1,0
88,112,43876,1,0
40,192,44034,1,8
112,256,44192,1,0
192,304,44350,2,0,B|200:328,8,23.75
256,232,44824,1,0
320,304,44982,2,0,B|376:304|400:256,1,95,0|0
320,200,45297,2,0,B|368:172|365:118,1,95
256,48,45613,5,4
192,112,45771,1,0
96,112,45929,1,8
32,184,46087,1,0
88,264,46245,2,0,B|136:240|184:264,1,95
336,296,46561,2,2,B|288:320|240:296,1,95,2|0
256,192,46876,5,0
176,88,47034,2,0,B|224:64|267:85,1,95,0|8
424,120,47350,2,0,B|376:144|332:122,1,95
376,40,47666,1,0
344,232,47824,2,2,B|312:240|296:280|216:280|200:240|168:232,1,190,2|0
96,176,48297,5,0
24,232,48455,1,8
64,320,48613,1,0
160,336,48771,1,0
256,352,48929,1,0
352,336,49087,1,8
448,320,49245,1,0
448,192,49403,5,0
448,192,49482,1,0
448,192,49561,1,0
368,100,49718,1,0
368,100,49797,1,0
368,100,49876,1,0
256,68,50034,5,2
220,56,50113,1,0
184,64,50192,1,2
156,88,50271,1,2
156,124,50350,1,2
356,260,50508,1,2
284,324,50666,6,0,B|188:324,1,95,4|0
160,212,50982,2,0,B|256:212,1,95,8|0
344,140,51297,1,0
256,68,51455,1,0
168,140,51613,1,2
344,244,51771,1,2
444,188,51929,5,0
460,76,52087,2,0,B|432:48|404:76|368:48,1,95,0|8
256,68,52403,1,0
52,76,52561,2,0,B|80:48|108:76|144:48,1,95
112,160,52876,5,2
400,224,53034,1,2
312,296,53192,1,0
200,296,53350,1,0
92,332,53508,1,8
112,160,53666,1,0
145,233,53824,2,0,B|100:256|56:224,1,95
366,150,54140,2,0,B|412:128|456:160,1,95,2|2
256,192,54455,5,0
256,192,54534,1,0
256,192,54613,1,0
168,120,54771,1,0
168,120,54850,1,0
168,120,54929,1,0
256,40,55087,1,0
256,40,55166,1,0
256,40,55245,1,0
344,120,55403,1,2
344,120,55482,1,2
344,120,55561,1,2
432,256,55718,5,6
352,336,55876,1,0
256,272,56034,2,0,B|208:304|160:272,1,95,8|0
168,120,56350,1,0
256,192,56508,1,0
88,200,56666,1,2
424,200,56824,1,2
344,120,56982,5,0
256,40,57140,1,0
144,48,57297,1,8
56,120,57455,1,0
168,120,57613,2,0,B|256:184|344:120,1,190,0|2
456,120,58087,1,2
192,236,58245,5,0
164,348,58403,1,0
272,316,58561,2,0,B|304:272|272:228,1,95,8|0
240,68,58876,2,0,B|208:112|240:156,1,95,0|0
448,320,59192,1,2
344,272,59350,1,2
432,120,59508,5,0
432,120,59587,1,0
432,120,59666,1,0
352,64,59824,1,0
352,64,59903,1,0
352,64,59982,1,0
256,64,60140,5,0
224,80,60218,1,0
192,72,60297,1,0
168,96,60376,1,0
136,96,60455,1,0
120,128,60534,1,0
88,136,60613,1,0
72,168,60692,1,0
48,192,60771,6,0,B|56:248|104:264,1,95,4|0
200,320,61087,2,0,B|223:268|192:229,1,95,8|0
320,232,61403,2,0,B|289:270|313:321,1,95,0|0
408,264,61719,2,0,B|454:248|462:192,1,95,2|2
424,88,62034,5,0
312,112,62192,1,0
200,88,62350,1,8
88,112,62508,1,0
48,224,62666,1,0
112,320,62824,2,2,B|152:288|160:240,1,95
352,240,63140,1,2
464,228,63297,5,0
400,320,63455,1,0
400,120,63613,2,0,B|352:144|312:112,1,95,8|0
112,120,63929,2,0,B|160:144|200:112,1,95
256,32,64245,1,2
256,352,64403,1,2
400,320,64561,5,0
400,320,64640,1,0
400,320,64718,1,0
352,240,64876,1,0
352,240,64955,1,0
352,240,65034,1,0
400,160,65192,1,0
400,160,65271,1,0
400,160,65349,1,0
344,80,65508,6,2,B|304:88|288:64|256:200|224:64|208:88|168:80,1,190,2|4
72,144,65982,2,0,B|88:192|144:200,1,95,0|8
256,208,66297,1,0
368,200,66455,2,0,B|424:192|439:145,1,95,0|0
344,80,66771,1,2
168,304,66929,1,2
280,288,67087,6,0,B|376:288,1,95
440,192,67403,2,0,B|344:192,1,95,8|0
304,88,67718,2,0,B|208:88,1,95
96,64,68034,1,2
96,320,68192,1,2
208,296,68350,6,0,B|216:256|184:240|192:200,1,95
208,88,68666,1,8
304,88,68824,1,0
320,204,68982,2,0,B|328:240|296:256|304:296,1,95
416,320,69297,5,2
416,64,69455,1,2
424,160,69613,5,8
400,184,69692,1,0
368,176,69771,1,0
344,200,69850,1,0
312,192,69929,1,8
288,216,70008,1,0
256,208,70087,1,0
224,216,70166,1,0
200,192,70245,1,8
168,200,70324,1,0
144,176,70403,1,0
112,184,70482,1,0
88,160,70561,2,0,B|64:120,4,47.5,2|2|2|2|4
88,104,80982,6,0,B|24:192|88:280,2,190,4|8|0
256,192,81929,1,0
424,280,82245,2,0,B|488:192|424:104,2,190,0|8|0
256,336,83192,1,0
80,288,83508,6,0,B|48:224|116:160|80:104,1,190,4|8
80,104,84140,1,0
256,48,84455,1,0
432,96,84771,2,0,B|464:160|400:224|432:284,1,190,0|8
256,336,85403,2,0,B|256:148,1,190
96,48,86034,6,0,B|96:144,1,95,4|0
176,96,86350,2,0,B|176:192,1,95,8|0
256,144,86666,2,0,B|256:240,1,95
336,208,86982,2,0,B|336:304,1,95
240,304,87297,6,0,B|144:304,1,95
208,224,87613,2,0,B|96:224,1,95,8|0
176,144,87929,2,0,B|80:144,1,95
144,64,88245,2,0,B|48:64,1,95
224,80,88561,6,0,B|304:160,1,95
384,128,88876,2,0,B|316:60,1,95,8|0
128,256,89192,2,0,B|195:323,1,95,0|0
288,304,89507,2,0,B|220:236,1,95
160,160,89824,5,0
168,64,89982,1,0
256,104,90140,1,8
344,64,90297,1,0
352,160,90455,1,0
256,200,90613,1,0
256,296,90771,2,2,B|256:360,2,63.3333333333333
320,264,91087,6,0,B|376:280|400:232,1,95,4|0
440,144,91403,2,0,B|384:128|352:160,1,95,8|0
72,240,91718,2,0,B|128:256|160:223,1,95,0|0
192,120,92034,2,0,B|136:104|112:152,1,95,8|0
96,336,92350,5,0
192,312,92508,1,0
256,240,92666,1,8
416,48,92824,1,0
320,72,92982,1,0
256,144,93140,1,0
336,192,93297,2,0,B|392:208|424:168,1,95,8|0
176,192,93613,5,0
96,240,93771,1,0
96,144,93929,1,8
64,56,94087,2,0,B|96:40|128:72|160:56,1,95
256,64,94403,1,0
448,56,94561,2,0,B|416:40|384:72|352:56,1,95,8|0
256,64,94876,6,0,B|256:112,3,47.5
256,160,95192,2,0,B|256:224,3,47.5,8|0|0|0
256,256,95508,2,0,B|256:304,3,47.5,8|0|0|0
224,336,95824,6,2,B|104:360|80:240,1,190,2|4
48,160,96297,1,0
32,64,96455,1,8
120,96,96613,1,0
168,184,96771,2,0,B|200:184|200:184|224:152|288:152|312:184|312:184|344:184,1,190,0|8
432,232,97245,1,0
424,136,97403,6,0,B|408:88|348:88,1,95
256,84,97718,1,8
160,88,97876,2,0,B|102:87|86:135,1,95
92,232,98192,1,0
164,292,98350,1,8
256,272,98508,1,0
324,184,98666,5,0
404,232,98823,1,0
444,316,98981,1,8
188,200,99140,1,0
108,152,99297,1,0
68,68,99455,1,0
160,88,99613,2,0,B|192:60|220:104|248:76,1,95,8|0
352,88,99929,5,8
368,124,100008,1,0
352,160,100087,1,0
344,196,100166,1,0
308,204,100245,1,8
292,236,100324,1,0
256,224,100403,1,0
220,236,100482,1,0
204,204,100561,1,8
164,196,100640,1,0
160,160,100719,1,0
144,124,100798,1,0
160,88,100876,2,2,B|208:72,2,47.5
72,120,101192,5,4
40,208,101350,1,0
96,288,101508,2,0,B|128:328|192:328,1,95,8|0
416,288,101824,2,0,B|384:328|320:328,1,95
256,264,102140,1,8
256,168,102297,1,0
352,140,102455,6,0,B|452:140,1,95,0|0
400,56,102771,2,0,B|304:56,1,95,8|0
65,140,103087,2,0,B|160:140,1,95,0|0
207,56,103403,2,0,B|112:56,1,95,8|0
136,224,103718,1,0
208,288,103876,1,0
304,288,104034,1,8
376,224,104192,1,0
304,168,104350,2,0,B|304:112|352:88,1,95
208,168,104666,2,0,B|208:112|160:88,1,95,8|0
84,40,104982,6,0,B|60:96,3,47.5,8|0|0|0
84,120,105297,2,0,B|108:176,3,47.5,8|0|0|0
84,200,105613,2,0,B|60:256,3,47.5,8|0|0|0
100,264,105929,2,2,B|124:320,3,47.5
160,320,106245,6,0,B|224:352|288:288|352:320,1,190,4|8
432,280,106718,1,0
392,192,106876,1,0
432,104,107034,1,0
352,56,107192,2,0,B|256:56,1,95,8|0
160,56,107508,5,0
80,104,107666,1,0
120,192,107824,1,8
80,280,107982,1,0
176,304,108140,2,0,B|216:272|200:216,1,95
336,304,108455,2,0,B|296:272|312:216,1,95,8|0
480,96,108771,6,0,B|416:88|384:152,1,95
344,40,109087,2,0,B|304:72|312:128,1,95,8|0
168,40,109403,2,0,B|208:72|200:128,1,95,0|0
34,95,109719,2,0,B|88:88|115:130,1,95,8|0
104,224,110034,5,8
120,256,110113,1,0
152,256,110192,1,0
168,280,110271,1,0
200,272,110350,1,8
224,296,110429,1,0
256,288,110508,1,0
288,296,110587,1,0
312,272,110666,1,8
344,280,110745,1,0
360,256,110824,1,0
392,256,110903,1,0
408,224,110982,2,2,B|432:176,2,47.5
320,184,111297,6,0,B|304:136|352:104,1,95
256,96,111613,1,8
160,104,111771,1,0
192,184,111929,2,0,B|208:248|120:312|56:256,1,190,0|8
72,168,112403,1,0
160,104,112561,1,0
256,96,112718,1,0
352,104,112876,1,8
440,168,113034,1,0
424,264,113192,2,0,B|405:327|304:336|276:268,1,190,0|8
276,268,113666,1,0
208,200,113824,5,0
160,104,113982,1,0
352,104,114140,1,8
304,200,114298,1,0
256,292,114455,2,0,B|240:320|232:352|232:352|256:368,2,95,0|0|8
256,192,114929,1,0
304,100,115087,6,0,B|352:104,3,47.5,8|0|0|0
384,120,115403,2,0,B|415:156,3,47.5,8|0|0|0
424,192,115718,1,8
416,228,115797,1,0
400,264,115876,1,0
372,288,115955,1,0
336,292,116034,1,2
300,284,116113,1,2
272,260,116192,1,2
256,224,116271,1,2
256,192,116350,6,0,B|256:88,1,95,4|0
176,48,116666,2,0,B|176:144,1,95,8|0
336,143,116982,2,0,B|336:48,1,95
96,97,117297,2,0,B|96:192,1,95,8|0
120,284,117613,5,0
208,324,117771,1,0
304,324,117929,1,8
392,284,118087,1,0
416,192,118245,2,0,B|368:220|326:188,1,95,0|0
96,112,118561,2,0,B|144:84|185:115,1,95,8|0
256,176,118876,5,0
328,240,119034,1,0
256,304,119192,1,8
184,240,119350,1,0
180,136,119508,2,0,B|212:72|300:72|332:136,1,190,0|8
256,264,119982,1,0
256,340,120140,5,8
256,192,120455,1,8
256,44,120771,1,8
352,136,121087,5,2
160,136,121245,1,2
80,192,121403,6,0,B|88:240|88:240|136:288,1,95,4|0
208,304,121718,1,8
304,304,121876,1,0
391,272,122034,2,0,B|424:240|424:240|432:192,1,95,0|0
352,136,122350,1,8
256,136,122508,1,0
160,136,122666,6,0,B|136:184|176:240,1,95
208,304,122982,1,8
208,304,123140,1,0
112,288,123297,2,0,B|72:264|40:192|64:112,1,190,0|8
128,48,123771,1,0
160,136,123929,5,0
232,200,124087,1,0
312,248,124245,2,0,B|368:280|416:240,1,95,8|0
480,192,124561,2,0,B|408:120|304:168,1,190,0|8
305,167,125034,1,0
216,280,125192,6,0,B|160:280,3,47.5,8|0|0|0
144,256,125508,2,0,B|115:220,3,47.5,8|0|0|0
112,184,125824,2,0,B|112:128,3,47.5,8|0|0|0
120,100,126140,1,2
144,68,126218,1,2
180,52,126297,1,2
216,48,126376,1,2
256,48,126455,6,0,B|308:48|308:48|344:68,1,95,4|0
420,208,126771,2,0,B|368:208|368:208|332:188,1,95,8|0
256,128,127087,1,0
180,188,127245,1,0
256,248,127403,1,8
332,188,127561,1,0
256,48,127718,6,0,B|204:48|204:48|168:68,1,95,0|0
92,208,128034,2,0,B|144:208|144:208|180:188,1,95,8|0
256,128,128350,1,0
332,188,128508,1,0
256,248,128666,1,8
336,304,128824,1,0
176,304,128982,6,0,B|146:270|175:241|152:215,1,95
100,136,129297,1,8
164,68,129455,1,0
256,48,129613,1,0
348,68,129771,1,0
412,136,129929,1,8
332,188,130087,1,0
256,192,130245,12,4,131508
304,192,141613,5,4
208,192,141771,1,0
112,184,141929,2,0,B|120:132|168:104,1,95,8|0
400,200,142245,2,0,B|392:252|344:280,1,95,0|0
256,288,142561,1,8
256,96,142718,1,0
352,88,142876,6,0,B|400:80|400:80|436:52,2,95,0|0|8
256,96,143350,1,0
160,88,143508,2,0,B|112:80|112:80|76:52,2,95,0|0|8
256,96,143982,1,0
256,192,144140,5,0
336,244,144297,1,0
304,332,144455,1,8
208,332,144613,1,0
176,244,144771,2,0,B|128:224|84:244,1,95
32,324,145087,2,0,B|80:344|124:324,1,95,8|0
176,244,145403,5,8
176,244,145482,1,0
176,244,145561,1,0
256,192,145718,1,8
256,192,145797,1,0
256,192,145876,1,0
336,244,146034,1,8
336,244,146113,1,0
336,244,146192,1,0
324,148,146350,5,2
292,128,146429,1,2
256,120,146508,1,2
220,128,146587,1,2
188,148,146666,2,0,B|92:148,1,95,4|0
64,56,146982,2,0,B|160:56,1,95,8|0
325,148,147297,2,0,B|420:148,1,95,0|0
448,56,147613,2,0,B|352:56,1,95,8|0
256,56,147929,5,0
232,148,148087,1,0
256,176,148166,1,0
280,204,148245,1,8
256,296,148403,1,0
164,312,148561,2,0,B|88:302|71:208|129:162,1,190,0|8
204,116,149034,1,0
308,116,149192,5,0
368,192,149350,2,0,B|420:192,2,47.5,0|0|8
144,192,149666,2,0,B|92:192,2,47.5,0|0|8
256,296,149982,2,0,B|256:348,2,47.5,0|0|8
320,252,150297,1,0
368,192,150455,5,8
376,156,150534,1,0
340,144,150613,1,0
340,104,150692,1,0
304,100,150771,1,8
292,64,150850,1,0
256,76,150929,1,0
220,64,151008,1,0
208,100,151087,1,8
172,104,151166,1,0
172,144,151245,1,0
136,156,151324,1,0
144,192,151403,2,0,B|164:244,4,47.5,2|2|2|2|4
