osu file format v5

[General]
AudioFilename: CODE GEASS R2 OP2 WORLD END (FULL VERSION).MP3
AudioLeadIn: 0
PreviewTime: -1
Countdown: 1
SampleSet: Normal
StackLeniency: 0.7
Mode: 0
LetterboxInBreaks: 1

[Metadata]
Title:WORLD END
Artist:Flow
Creator:Ayasato-chan
Version:Hard
Source:Code Geass
Tags:Code Geass Flow R2 WORLD END

[Difficulty]
HPDrainRate:5
CircleSize:6
OverallDifficulty:5
SliderMultiplier:1.4
SliderTickRate:1

[Events]
//Background and Video events
//Break Periods
2,50027,54554
2,82026,86720
2,141694,151554
//Storyboard Layer 0 (Background)
//Storyboard Layer 1 (Failing)
//Storyboard Layer 2 (Passing)
//Storyboard Layer 3 (Foreground)
//Storyboard Sound Samples
//Background Colour Transformations
3,100,163,162,255

[TimingPoints]
2237,582.693988540352,4,1,0,100,1

[Colours]
Combo1 : 255,150,0
Combo2 : 40,205,31
Combo3 : 45,88,228
Combo4 : 255,255,128

[HitObjects]
160,160,12579,1,0
192,160,12944,1,0
224,160,13308,1,0
384,192,13745,1,0
352,192,14327,1,0
320,192,14619,1,0
256,192,15129,1,0
224,192,15638,1,0
192,192,16003,1,0
128,192,16950,5,0
96,192,17314,1,0
64,192,17824,1,0
96,256,18333,1,0
96,256,18625,1,0
160,256,19207,1,0
224,256,19644,1,0
288,256,20009,1,0
288,256,20154,1,0
320,256,20519,1,0
416,256,21028,1,0
416,160,21393,1,0
416,160,21538,1,0
384,160,21902,1,0
320,160,22339,1,0
256,160,22704,5,0
256,96,23213,1,0
256,128,23578,1,0
256,128,23723,1,0
256,160,24088,1,0
256,192,24597,1,0
256,256,24889,1,0
256,256,25107,1,0
256,288,25399,1,0
256,320,25981,1,0
256,320,26345,1,0
256,320,26418,1,0
256,288,26782,1,0
256,256,27292,1,0
320,160,28094,5,0
288,160,28312,1,0
256,160,28676,1,0
224,160,29186,1,0
192,160,29769,1,0
192,160,29987,1,0
160,160,30424,1,0
128,160,30861,1,0
128,160,31007,1,0
96,160,31298,1,0
64,160,31808,1,0
64,160,32391,2,0,B|64:288,1,122.5
160,320,33702,1,0
192,288,33993,1,0
224,320,34503,1,0
352,160,35159,5,0
288,160,35377,1,0
224,160,35814,1,0
192,160,36251,1,0
192,160,36397,1,0
128,160,36688,1,0
64,160,37271,1,0
160,288,38946,5,0
160,256,39238,1,0
160,224,39456,1,0
160,192,39966,1,0
160,192,40257,1,0
160,192,40403,1,0
160,192,40621,1,0
160,192,40767,1,0
160,192,41131,1,0
320,224,41787,5,0
320,192,42005,1,0
384,192,42588,1,0
384,128,42879,1,0
320,128,43098,1,0
256,128,43462,1,0
288,256,44336,5,0
256,256,44482,1,0
256,192,44846,1,0
192,224,45356,1,0
192,192,45720,1,0
192,128,45866,1,0
256,160,46011,1,0
288,128,46157,1,0
320,192,46448,1,0
288,288,47250,5,0
288,256,47395,1,0
288,192,47541,1,0
224,224,48051,1,0
224,160,48196,1,0
192,192,48561,1,0
160,224,48852,1,0
256,192,55990,12,0,58175
256,288,58976,5,0
256,224,59195,1,0
256,224,59413,1,0
256,160,59705,1,0
320,192,59996,1,0
320,128,60433,1,0
416,192,60652,1,0
384,192,60870,1,0
288,224,61817,1,0
288,160,62472,1,0
384,192,63201,1,0
352,192,63711,1,0
320,192,64002,1,0
320,192,64148,1,0
256,192,64512,1,0
288,128,65022,1,0
352,160,65386,1,0
352,160,65532,1,0
352,224,65896,1,0
160,224,66916,5,0
160,192,67280,1,0
224,224,67425,1,0
192,160,67790,1,0
192,192,68081,1,0
256,192,68445,1,0
256,128,68736,1,0
288,160,69101,1,0
256,192,69902,12,0,72670
96,192,73544,5,0
128,160,74054,1,0
192,192,74491,1,0
224,160,74855,1,0
224,160,75000,1,0
256,192,75365,1,0
288,160,75802,1,0
320,192,76166,1,0
320,192,76311,1,0
352,160,76676,1,0
384,320,77258,5,0
352,320,77987,2,0,B|32:320|96:96,1,402.5
256,192,88111,12,0,91170
96,192,93355,5,0
128,192,93865,1,0
160,192,94302,1,0
192,224,94885,1,0
224,192,95322,1,0
256,224,95613,1,0
256,224,95832,1,0
288,192,96123,1,0
320,224,96779,1,0
384,96,98381,5,0
352,128,98600,1,0
320,96,98891,1,0
288,128,99328,1,0
224,96,99692,1,0
224,96,99838,1,0
224,128,99983,1,0
160,128,100202,1,0
160,64,100566,1,0
160,192,101222,1,0
192,224,101513,1,0
224,192,102023,1,0
256,224,102314,1,0
288,192,102606,1,0
320,224,102897,1,0
416,320,103698,5,0
384,288,103844,1,0
320,320,104208,1,0
288,288,104645,1,0
256,320,105009,1,0
224,288,105228,1,0
224,256,105373,1,0
224,224,105592,1,0
224,192,105883,1,0
288,96,106539,5,0
224,96,106684,1,0
256,160,106903,1,0
256,224,107413,1,0
256,288,107558,1,0
256,352,107923,1,0
256,288,108214,1,0
256,224,108724,1,0
256,160,109088,1,0
256,96,109452,1,0
128,160,109816,1,0
192,160,110472,1,0
256,160,111127,1,0
320,160,111783,1,0
384,160,112439,1,0
32,96,114405,6,0,B|256:352|480:96,1,525
480,352,117464,2,0,B|256:192|32:352,1,472.5
0,32,120305,2,0,B|256:320|480:32,1,560
480,352,123437,2,0,B|256:128|32:320,1,490
32,352,126205,2,0,B|256:64|512:352,1,560
512,352,129045,2,0,B|256:128|0:352,2,560
96,160,134362,2,0,B|224:160,4,122.5
256,192,137422,12,0,141428
256,192,152790,12,0,154247
256,192,155558,12,0,157015
256,192,158326,12,0,160147
256,192,161093,12,0,163133
32,32,164954,6,0,B|448:320,2,490
480,32,170489,2,0,B|32:352,2,542.5
256,192,176608,12,0,178720
64,160,179885,5,0
160,160,180614,1,0
256,160,181342,1,0
320,160,181998,1,0
416,160,182653,1,0
256,192,185567,12,0,187679
32,32,188699,6,0,B|448:320,1,490
480,32,192049,2,0,B|32:320,1,525
64,224,196492,5,0
96,192,196856,1,0
128,224,197293,1,0
128,224,197657,1,0
160,160,198022,1,0
192,224,198386,1,0
224,192,198677,1,0
416,224,199406,5,0
384,192,199988,1,0
352,224,200352,1,0
352,160,200717,1,0
320,224,201372,1,0
320,160,202246,1,0
288,192,202975,1,0
256,160,203703,1,0
256,192,204140,1,0
192,192,204577,1,0
160,192,205014,1,0
160,160,205451,1,0
224,192,205961,1,0
224,128,206325,1,0
320,224,207636,5,0
288,224,208146,1,0
256,160,208947,1,0
224,224,209457,1,0
256,192,211933,12,0,217469
