osu file format v5

[General]
AudioFilename: GO!!!.mp3
AudioLeadIn: 1015
PreviewTime: -1
Countdown: 1
SampleSet: Normal
StackLeniency: 0.2
Mode: 0
LetterboxInBreaks: 1

[Metadata]
Title:GO!!! (Full Version)
Artist:Flow
Creator:EpicEraser
Version:Normal
Source:Naruto
Tags:Intro Anime Theme Naruto OP Opening

[Difficulty]
HPDrainRate:6
CircleSize:5
OverallDifficulty:6
SliderMultiplier:1.4
SliderTickRate:2

[Events]
//Background and Video events
0,0,"naruto-kakashi-sakura-sasuke.jpg"
//Break Periods
2,86244,87233
2,145357,158887
//Storyboard Layer 0 (Background)
//Storyboard Layer 1 (Failing)
//Storyboard Layer 2 (Passing)
//Storyboard Layer 3 (Foreground)
//Storyboard Sound Samples
//Background Colour Transformations
3,100,0,128,255

[TimingPoints]
2288,447.861194029851,4,1,0,100,1,0

[HitObjects]
64,160,2289,2,0,B|256:32|448:160,1,420
448,224,4079,2,0,B|288:352|96:224,1,420,0|0
64,160,5870,2,0,B|256:32|448:160,1,420
256,192,8110,1,4
128,224,9453,6,0,C|128:64,1,140
128,32,10237,2,0,C|256:12,1,105
320,32,11245,2,0,C|320:192,2,140
256,32,12588,1,0
192,32,13036,6,0,C|192:192,1,140
192,224,13820,2,0,C|320:256,1,93.3333333333333,0|0
384,224,14828,2,0,C|384:64,2,140
320,224,16171,1,0
256,224,16619,6,0,C|96:224,1,140
64,224,17403,2,0,C|32:96,1,93.3333333333333
96,32,18411,2,0,C|256:32,2,140,0|0|0
96,96,19754,1,0
96,160,20202,6,4,C|320:160,2,210
128,224,21993,1,4
192,224,22441,5,0
256,224,22889,1,0
320,224,23337,1,0
320,160,23785,6,0,C|256:96,1,70
224,64,24457,2,0,C|160:0,1,70
128,64,25128,1,8
64,128,25576,2,0,C|64:288,2,140,0|0|0
128,128,26920,1,12
192,128,27368,6,0,C|256:192,1,70
288,224,28040,2,0,C|352:288,1,70
384,224,28711,1,8
448,160,29159,2,0,C|448:0,2,140
384,160,30503,1,12
320,160,30951,6,0,C|256:224,1,70
224,256,31622,2,0,C|145:335,1,70
128,256,32294,1,8
64,192,32742,2,0,C|64:32,2,140,0|0|0
128,192,34086,1,12
192,192,34534,6,0,C|256:128,1,70
288,96,35205,2,0,C|352:32,1,70
384,96,35877,1,8
256,192,36325,12,4,38116
256,128,38564,6,0,C|256:32,1,70
224,128,39236,1,0
192,128,39460,1,0
160,128,39684,2,0,C|160:224,1,70
320,192,41027,2,0,C|320:288,2,70
384,192,41923,6,0,C|384:96,1,70
384,96,42371,1,0
384,64,42595,2,0,C|288:64,1,70
288,64,43043,1,0
256,64,43267,1,0
224,64,43491,2,0,C|224:224,2,140
256,192,45282,5,0
192,128,45730,1,0
256,128,46178,2,0,C|352:128,2,70
256,224,47298,2,0,C|256:320,6,70
192,256,49089,6,0,C|288:256,1,70
288,192,49761,1,0
288,128,50209,1,0
288,96,50433,1,0
288,64,50657,2,0,C|192:64,4,70
128,192,52448,5,0
192,288,52896,1,0
320,288,53344,2,0,C|480:288,1,140
384,192,54239,1,0
352,96,54687,1,0
256,64,55135,1,0
160,96,55583,1,0
128,192,56031,1,0
160,288,56479,1,0
256,320,56927,1,0
352,288,57374,1,0
384,192,57822,2,0,C|288:192,1,70
256,96,58494,5,14
256,192,58942,1,14
256,320,59614,5,0
160,288,60062,1,0
128,192,60509,1,0
160,96,60957,1,0
256,64,61405,1,0
352,96,61853,1,0
384,192,62301,2,0,C|224:192,1,140
128,192,63197,5,0
192,96,63644,1,0
256,192,64092,1,0
192,288,64540,1,0
64,288,64988,1,4
192,224,65884,5,0
256,224,66332,1,0
320,224,66780,2,0,C|320:64,1,140
288,64,67563,2,0,C|160:44,1,105
96,64,68571,2,0,C|96:224,2,140
160,64,69915,1,0
224,64,70362,6,0,C|224:224,1,140
224,256,71146,2,0,C|352:276,1,105
416,256,72154,2,0,C|416:96,2,140
352,256,73497,1,0
288,256,73945,6,0,C|288:96,1,140
288,64,74729,2,0,C|160:32,1,105
64,96,75737,2,0,C|64:256,2,140
128,96,77080,1,0
192,96,77528,2,4,C|416:96,2,210
160,160,79320,1,4
192,224,79767,5,0
256,224,80215,1,0
320,224,80663,1,0
384,192,81111,6,0,C|320:128,1,70
288,96,81783,2,0,C|224:32,1,70
192,96,82455,1,8
128,160,82903,2,0,C|128:320,2,140
192,160,84246,1,12
256,160,84694,6,0,C|320:224,1,70
352,256,85366,2,0,C|416:320,1,70
448,256,86038,1,8
256,224,88277,5,0
256,160,88725,2,0,C|256:64,1,70
320,64,89397,1,0
320,96,89620,1,0
320,128,89844,2,0,C|320:224,1,70
160,192,91188,2,0,C|160:288,2,70
224,192,92084,6,0,C|224:96,1,70
224,96,92532,1,0
224,64,92755,2,0,C|320:64,1,70
288,96,93203,1,0
288,128,93427,1,0
288,160,93651,2,0,C|288:320,2,140
160,224,95443,5,0
160,160,95890,1,0
160,96,96338,2,0,C|64:96,2,70
256,96,97458,2,0,C|256:192,6,70
320,192,99249,6,0,C|320:96,1,70
320,96,99697,1,0
320,64,99921,1,0
288,64,100145,1,0
256,64,100369,1,0
256,96,100593,1,0
256,128,100817,2,0,C|256:224,4,70,0|0|0|0|4
192,32,102608,5,0
192,128,103056,1,0
192,224,103504,2,0,C|192:384,1,140
288,288,104400,1,0
288,160,104848,1,0
288,32,105296,1,0
384,128,105743,1,0
256,160,106191,1,0
384,256,106639,1,0
256,320,107087,1,0
128,256,107535,1,0
256,192,107983,2,0,C|256:96,1,70
352,128,108655,5,14
352,256,109102,1,14
256,192,109774,5,0
128,192,110222,1,0
128,64,110670,1,0
256,64,111118,1,0
384,64,111566,1,0
384,192,112013,1,0
288,288,112461,2,0,C|128:288,1,140
160,160,113357,5,0
224,64,113805,1,0
288,160,114253,1,0
352,64,114701,1,0
416,160,115149,1,4
416,288,116044,5,0
352,288,116492,1,0
288,288,116940,2,0,C|288:128,1,140
288,96,117724,2,0,C|160:76,1,105
64,96,118731,2,0,C|64:256,2,140
128,96,120075,1,0
192,96,120523,6,0,C|192:256,1,140
192,288,121307,2,0,C|320:308,1,105
384,288,122314,2,0,C|384:128,2,140
320,288,123658,1,0
256,288,124106,6,0,C|256:128,1,140
256,96,124890,2,0,C|384:76,1,105
448,96,125897,2,0,C|448:256,2,140
384,96,127241,1,0
384,160,127689,6,4,C|160:160,2,210
448,160,129480,1,4
448,96,129928,1,0
384,96,130376,1,0
384,160,130824,1,0
384,224,131272,6,0,C|320:160,1,70
288,128,131943,2,0,C|224:64,1,70
192,128,132615,1,8
128,192,133063,2,0,C|128:352,2,140
192,192,134407,1,12
256,192,134854,6,0,C|320:128,1,70
352,96,135526,2,0,C|416:32,1,70
448,96,136198,1,8
512,160,136646,2,0,C|512:320,2,140
448,160,137989,1,12
384,160,138437,6,0,C|320:224,1,70
288,256,139109,2,0,C|224:320,1,70
192,256,139781,1,8
128,192,140229,2,0,C|128:32,2,140
192,192,141572,1,12
256,192,142020,6,0,C|320:256,1,70
352,288,142692,2,0,C|416:352,1,70
448,288,143364,1,8
512,224,143812,2,0,C|512:64,2,140
448,224,145155,1,12
32,32,159935,6,0,C|480:32|480:96|32:96,1,980
0,96,163518,2,0,C|0:160|480:160,1,560
448,256,165981,1,0
352,192,166653,1,0
288,256,167100,2,0,C|32:256|32:320|512:320,1,840
480,256,170235,1,0
480,192,170683,2,0,C|32:192|32:128|352:128,1,840
384,128,173818,1,0
384,64,174266,2,0,C|224:64,1,140
192,64,175050,2,0,C|172:192,1,105
192,256,176058,2,0,C|352:256,2,140
192,320,177401,1,0
128,320,177849,6,0,C|128:160,1,140
128,128,178633,2,0,C|256:108,1,105
320,128,179641,2,0,C|320:288,2,140
256,128,180984,1,0
192,128,181432,6,0,C|192:288,1,140
192,320,182216,2,0,C|320:340,1,105
384,320,183223,2,0,C|384:160,2,140
320,320,184567,1,0
256,192,185015,12,4,187254
256,192,187702,5,0
320,192,188150,1,0
320,128,188598,2,0,C|160:128,1,140
128,128,189382,2,0,C|108:256,1,105
128,320,190389,2,0,C|288:320,2,140
128,256,191733,1,0
192,256,192181,6,0,C|192:96,1,140
192,64,192964,2,0,C|320:44,1,105
384,64,193972,2,0,C|384:224,2,140
320,64,195316,1,0
256,64,195764,6,0,C|256:224,1,140
256,256,196547,2,0,C|384:276,1,105
448,256,197555,2,0,C|448:96,2,140
384,256,198899,1,0
384,192,199346,6,4,C|160:192,2,210
384,128,201138,5,0
320,128,201586,1,0
256,128,202034,1,0
192,128,202481,1,0
64,128,203377,2,0,C|64:32,8,70
64,192,205616,5,0
128,192,206064,1,0
256,192,206960,2,0,C|256:96,8,70
256,256,209199,5,0
320,256,209647,1,0
448,256,210543,2,0,C|448:160,8,70
256,64,214126,6,0,C|256:160,8,70
256,192,216813,5,4
256,256,217261,6,0,C|320:192,1,70,0|0
352,160,217933,2,0,C|416:96,1,70
352,64,218604,1,8
288,0,219052,2,0,C|288:160,2,140
224,0,220396,1,12
160,0,220844,6,0,C|224:64,1,70
256,96,221516,2,0,C|335:174,1,70
256,192,222187,1,8
192,192,222635,2,0,C|192:352,2,140
256,192,223979,1,12
256,128,224427,6,0,C|192:192,1,70
160,224,225098,2,0,C|96:288,1,70
64,224,225770,1,8
0,160,226218,2,0,C|0:0,2,140,0|0|0
64,160,227562,1,8
128,160,228010,6,0,C|192:224,1,70
224,256,228681,2,0,C|288:320,1,70
320,256,229353,1,8
384,192,229801,2,0,C|384:32,2,140
320,192,231145,1,12
256,192,231592,5,4
256,192,232040,12,4,233440
