osu file format v14

[General]
AudioFilename: Flosstradamus - Mosh Pit (Eliminate Flip).mp3
AudioLeadIn: 0
PreviewTime: 61225
Countdown: 1
SampleSet: Normal
StackLeniency: 0.7
Mode: 0
LetterboxInBreaks: 1
WidescreenStoryboard: 0

[Editor]
DistanceSpacing: 2
BeatDivisor: 6
GridSize: 4
TimelineZoom: 1

[Metadata]
Title:Mosh Pit (Eliminate Flip)
TitleUnicode:Mosh Pit (Eliminate Flip)
Artist:Flosstradamus
ArtistUnicode:Flosstradamus
Creator:FenrirCurse
Version:Psi
Source:
Tags:
BeatmapID:1469801
BeatmapSetID:694796

[Difficulty]
HPDrainRate:8
CircleSize:3
OverallDifficulty:8
ApproachRate:10
SliderMultiplier:0.600000005960464
SliderTickRate:4

[Events]
//Background and Video events
0,0,"184006.jpg",0,0
//Break Periods
//Storyboard Layer 0 (Background)
//Storyboard Layer 1 (Fail)
//Storyboard Layer 2 (Pass)
//Storyboard Layer 3 (Foreground)
//Storyboard Sound Samples

[TimingPoints]
0,230.769230769231,4,1,0,100,1,0
59692,-50,4,1,0,100,0,0
70384,166.666666666667,4,1,0,100,1,0
70384,-66.6666666666667,4,1,0,100,0,0
70911,-58.8235294117647,4,1,0,100,0,0
71300,-52.6315789473684,4,1,0,100,0,0
71717,-50,4,1,0,100,0,0
71967,120,4,1,0,100,1,0
71967,-50,4,1,0,100,0,0
72308,230.769230769231,4,1,0,100,1,0
72308,-50,4,1,0,100,0,0
83479,-100,4,1,0,100,0,0
95961,-50,4,1,0,100,0,0
106308,166.666666666667,4,1,0,100,1,0
106308,-66.6666666666667,4,1,0,100,0,0
106835,-58.8235294117647,4,1,0,100,0,0
107196,-52.6315789473684,4,1,0,100,0,0
107585,-50,4,1,0,100,0,0
107974,120,4,1,0,100,1,0
107974,-50,4,1,0,100,0,0
108434,230.769230769231,4,1,0,100,1,0
108434,-50,4,1,0,100,0,0
118356,-200,4,1,0,100,0,0
119895,-100,4,1,0,100,0,0
158972,-200,4,1,0,100,0,0
161780,-50,4,1,0,100,0,0
185318,-100,4,1,0,100,0,0
197587,120,4,1,0,100,1,0
197587,-50,4,1,0,100,0,0
197887,230.769230769231,4,1,0,100,1,0
197887,-50,4,1,0,100,0,0

[HitObjects]
184,180,0,5,0,0:0:0:0:
392,92,3000,1,0,0:0:0:0:
160,264,4500,1,0,0:0:0:0:
120,200,5307,1,0,0:0:0:0:
160,136,5653,1,0,0:0:0:0:
320,84,5846,1,0,0:0:0:0:
396,268,6038,1,0,0:0:0:0:
252,192,8269,5,0,0:0:0:0:
460,48,9000,2,0,B|376:52|376:52|372:56|372:64|424:104|424:104|400:176|344:176|308:152,1,300.000002980232
128,96,10538,1,0,0:0:0:0:
280,116,12000,2,0,B|196:104|128:200|156:208|164:216|160:224|144:252|144:252|168:280|168:280|216:288|216:288|236:240|232:212|232:212|288:156|324:212|312:256|288:312|288:312|312:300|312:300,1,590.000005861123
256,188,14653,1,0,0:0:0:0:
76,64,14846,1,0,0:0:0:0:
380,64,15000,2,0,B|424:176|352:304|232:316|124:292|72:192,1,500.000002980232
256,100,17653,5,0,0:0:0:0:
360,340,17846,1,0,0:0:0:0:
400,248,18038,2,0,B|428:188|428:188|320:108|304:100|304:100|280:136|268:184|268:184|332:216|332:216|372:120,1,480.000002861023
396,72,20269,1,0,0:0:0:0:
172,204,20846,1,0,0:0:0:0:
380,264,21038,1,0,0:0:0:0:
256,192,22500,1,0,0:0:0:0:
256,192,22653,12,0,23615,0:0:0:0:
448,176,24000,6,0,P|448:112|416:88,1,100.000000993411
368,188,24576,2,0,P|344:172|344:152,1,50.0000004967054
156,84,25153,1,0,0:0:0:0:
180,284,25538,1,0,0:0:0:0:
276,316,25730,1,0,0:0:0:0:
260,216,25923,1,0,0:0:0:0:
328,260,26076,6,0,L|368:228,1,50.0000004967054
440,160,26461,1,0,0:0:0:0:
440,60,26653,1,0,0:0:0:0:
308,76,26846,1,0,0:0:0:0:
308,76,26923,1,0,0:0:0:0:
308,76,27038,1,0,0:0:0:0:
108,92,27423,5,0,0:0:0:0:
92,192,27615,2,0,P|100:212|100:240,1,50.0000004967054
264,316,28153,2,0,P|324:300|348:268,1,100.000000993411
396,184,28730,2,0,L|412:136,1,50.0000004967054
336,104,29076,2,0,L|280:88,1,50.0000004967054
200,140,29461,2,0,L|216:140,6,10.0000000993411
80,252,29846,2,0,L|96:308,1,50.0000004967054
292,276,30423,5,0,0:0:0:0:
384,232,30615,2,0,P|408:192|408:184,1,50.0000004967054
252,100,31153,1,0,0:0:0:0:
128,256,31538,2,0,L|168:296,1,50.0000004967054
256,332,31923,1,0,0:0:0:0:
316,280,32076,6,0,L|356:248,1,50.0000004967054
256,228,32461,2,0,L|256:172,1,50.0000004967054
256,178,32846,1,0,0:0:0:0:
256,178,32923,1,0,0:0:0:0:
256,178,33038,1,0,0:0:0:0:
440,96,33423,5,0,0:0:0:0:
356,44,33615,2,0,P|364:64|364:92,1,50.0000004967054
184,104,34153,2,0,P|124:88|100:56,1,100.000000993411
188,108,34730,2,0,L|204:60,1,50.0000004967054
124,52,35076,2,0,L|180:36,1,50.0000004967054
268,72,35461,2,0,L|280:84,6,10.0000000993411
348,192,35846,1,0,0:0:0:0:
256,232,36038,5,0,0:0:0:0:
100,320,36384,1,0,0:0:0:0:
68,224,36576,2,0,P|44:240|44:260,1,50.0000004967054
236,320,37153,1,0,0:0:0:0:
432,272,37538,1,0,0:0:0:0:
432,272,37730,1,0,0:0:0:0:
440,172,37923,1,0,0:0:0:0:
364,148,38076,6,0,L|404:116,1,50.0000004967054
308,76,38461,1,0,0:0:0:0:
228,136,38653,1,0,0:0:0:0:
252,232,38846,1,0,0:0:0:0:
252,232,38923,1,0,0:0:0:0:
252,232,39038,1,0,0:0:0:0:
396,92,39423,5,0,0:0:0:0:
440,180,39615,2,0,P|448:200|448:228,1,50.0000004967054
272,272,40153,2,0,P|332:288|356:320,1,100.000000993411
452,336,40730,2,0,L|468:288,1,50.0000004967054
408,236,41076,2,0,L|352:220,1,50.0000004967054
428,148,41461,2,0,L|428:132,5,10.0000000993411
332,88,41846,2,0,L|348:144,1,50.0000004967054
200,240,42384,5,0,0:0:0:0:
248,152,42576,2,0,P|264:176|284:176,1,50.0000004967054
248,152,43153,1,0,0:0:0:0:
108,296,43538,1,0,0:0:0:0:
108,296,43730,2,0,L|164:296,1,50.0000004967054
184,280,44076,6,0,L|224:248,1,50.0000004967054
223,248,44461,1,0,0:0:0:0:
248,152,44653,1,0,0:0:0:0:
324,216,44846,1,0,0:0:0:0:
324,216,44923,1,0,0:0:0:0:
324,216,45038,1,0,0:0:0:0:
452,60,45423,5,0,0:0:0:0:
352,56,45615,2,0,L|296:56,1,50.0000004967054
124,56,46153,2,0,L|232:56,1,100.000000993411
300,124,46730,2,0,L|316:76,1,50.0000004967054
364,140,47076,2,0,L|308:124,1,50.0000004967054
236,184,47461,2,0,L|236:196,5,10.0000000993411
208,288,47846,2,0,L|224:344,1,50.0000004967054
116,192,48384,5,0,0:0:0:0:
256,48,48769,1,0,0:0:0:0:
388,196,49153,1,0,0:0:0:0:
252,344,49538,1,0,0:0:0:0:
122,148,49923,5,0,0:0:0:0:
300,55,50269,1,0,0:0:0:0:
380,236,50653,1,0,0:0:0:0:
205,335,51038,1,0,0:0:0:0:
144,107,51423,5,0,0:0:0:0:
342,76,51769,1,0,0:0:0:0:
359,274,52153,1,0,0:0:0:0:
161,310,52538,1,0,0:0:0:0:
177,75,52923,5,0,0:0:0:0:
375,111,53269,1,0,0:0:0:0:
326,303,53653,1,0,0:0:0:0:
168,220,54000,5,0,0:0:0:0:
184,184,54076,1,0,0:0:0:0:
204,148,54153,1,0,0:0:0:0:
236,124,54230,1,0,0:0:0:0:
276,116,54307,1,0,0:0:0:0:
316,112,54384,1,0,0:0:0:0:
356,124,54461,1,0,0:0:0:0:
392,144,54538,1,0,0:0:0:0:
428,164,54615,1,0,0:0:0:0:
452,196,54692,1,0,0:0:0:0:
464,236,54769,1,0,0:0:0:0:
468,276,54846,1,0,0:0:0:0:
464,316,54923,1,0,0:0:0:0:
424,320,55000,5,0,0:0:0:0:
412,284,55076,1,0,0:0:0:0:
400,244,55153,1,0,0:0:0:0:
380,208,55230,1,0,0:0:0:0:
344,188,55307,1,0,0:0:0:0:
304,180,55384,1,0,0:0:0:0:
264,180,55461,1,0,0:0:0:0:
232,204,55538,1,0,0:0:0:0:
208,236,55615,1,0,0:0:0:0:
180,264,55692,1,0,0:0:0:0:
172,304,55769,1,0,0:0:0:0:
176,344,55846,1,0,0:0:0:0:
216,344,55923,5,0,0:0:0:0:
232,308,56000,1,0,0:0:0:0:
252,272,56076,1,0,0:0:0:0:
284,248,56153,1,0,0:0:0:0:
324,252,56230,1,0,0:0:0:0:
356,272,56307,1,0,0:0:0:0:
376,308,56384,1,0,0:0:0:0:
392,344,56461,1,0,0:0:0:0:
352,348,56538,5,0,0:0:0:0:
336,312,56615,1,0,0:0:0:0:
312,280,56692,1,0,0:0:0:0:
316,240,56769,1,0,0:0:0:0:
340,208,56846,1,0,0:0:0:0:
372,184,56923,1,0,0:0:0:0:
384,144,57000,1,0,0:0:0:0:
208,192,58500,5,0,0:0:0:0:
308,192,58692,1,0,0:0:0:0:
208,192,58884,5,0,0:0:0:0:
308,192,59076,1,0,0:0:0:0:
208,192,59269,5,0,0:0:0:0:
308,192,59461,1,0,0:0:0:0:
60,56,60038,5,0,0:0:0:0:
448,72,60769,2,0,P|448:160|360:244,1,200.000001986821
48,48,61730,1,0,0:0:0:0:
128,232,61923,1,0,0:0:0:0:
472,344,62269,1,0,0:0:0:0:
100,316,63038,5,0,0:0:0:0:
208,48,63576,1,0,0:0:0:0:
244,244,63769,2,0,B|244:344|244:344|160:268,1,200.000001986821
408,48,64730,2,0,L|472:136,1,100.000000993411
112,68,65269,1,0,0:0:0:0:
456,336,66038,5,0,0:0:0:0:
168,192,66769,2,0,B|212:144|212:144|244:152|256:184|272:192|272:192|320:192,1,180.000001788139
448,52,67730,1,0,0:0:0:0:
448,52,67923,1,0,0:0:0:0:
128,220,68269,2,0,B|148:208|148:208|164:160|164:160|200:156|252:80|252:80|324:160|360:164|360:164|372:208|372:208|388:224,1,400.000003973643
80,312,69576,1,0,0:0:0:0:
244,196,69769,2,0,B|264:284|264:284|232:268|232:268|300:236,1,200.000001986821
392,80,70550,6,0,B|412:148|412:148|384:216|384:216|380:212,1,150.000007212162
392,80,70911,2,0,B|412:156|412:156|380:216|380:216|356:188,1,170.000004931291
392,80,71272,2,0,B|408:164|408:164|376:224|376:224|344:168,1,204.000005917549
392,80,71689,2,0,B|408:164|408:164|376:224|376:224|352:176,1,189.999996813933
392,80,72047,2,0,L|396:304,1,220.000002185503
256,80,72769,6,0,P|260:172|360:216,1,200.000001986821
48,300,73692,1,0,0:0:0:0:
200,172,73884,2,0,P|200:260|112:344,1,200.000001986821
460,336,75038,1,0,0:0:0:0:
448,48,75577,1,0,0:0:0:0:
292,172,75769,2,0,B|292:272|292:272|176:272,1,200.000001986821
60,56,76731,1,0,0:0:0:0:
60,56,76923,5,0,0:0:0:0:
376,224,77269,2,0,B|444:224|444:224|456:296|456:296|380:296|380:296|420:316|420:316|396:344|396:344|288:344,1,400.000003973643
388,48,78769,2,0,B|444:76|444:76|304:76,1,200.000001986821
68,56,79730,2,0,L|132:144,1,100.000000993411
436,324,80269,1,0,0:0:0:0:
64,244,81038,5,0,0:0:0:0:
400,84,81576,1,0,0:0:0:0:
276,240,81769,2,0,B|228:224|228:224|120:120,1,200.000001986821
192,84,82730,2,0,L|272:160,1,100.000000993411
192,84,83269,1,0,0:0:0:0:
208,244,84000,6,0,P|208:180|176:156,1,100.000000993411
308,200,84576,2,0,P|289:178|294:158,1,50.0000004967054
464,52,85153,1,0,0:0:0:0:
268,92,85538,1,0,0:0:0:0:
196,160,85730,1,0,0:0:0:0:
176,260,85923,1,0,0:0:0:0:
112,212,86076,6,0,L|152:180,1,50.0000004967054
252,176,86461,1,0,0:0:0:0:
352,168,86653,1,0,0:0:0:0:
308,256,86846,1,0,0:0:0:0:
308,256,86923,1,0,0:0:0:0:
308,256,87038,1,0,0:0:0:0:
124,332,87423,5,0,0:0:0:0:
212,288,87615,2,0,P|220:308|220:336,1,50.0000004967054
384,260,88153,2,0,P|444:244|468:212,1,100.000000993411
372,180,88730,2,0,L|388:132,1,50.0000004967054
316,100,89076,2,0,L|260:84,1,50.0000004967054
252,184,89461,2,0,L|268:184,6,10.0000000993411
172,200,89846,2,0,L|168:148,1,50.0000004967053
176,112,90153,5,0,0:0:0:0:
200,80,90230,1,0,0:0:0:0:
236,60,90307,1,0,0:0:0:0:
272,48,90384,1,0,0:0:0:0:
312,48,90461,1,0,0:0:0:0:
352,52,90538,1,0,0:0:0:0:
388,72,90615,1,0,0:0:0:0:
420,96,90692,1,0,0:0:0:0:
444,128,90769,1,0,0:0:0:0:
456,168,90846,1,0,0:0:0:0:
460,208,90922,1,0,0:0:0:0:
444,244,90999,1,0,0:0:0:0:
404,244,91076,5,0,0:0:0:0:
396,204,91153,1,0,0:0:0:0:
384,164,91230,1,0,0:0:0:0:
360,132,91307,1,0,0:0:0:0:
324,116,91384,1,0,0:0:0:0:
284,116,91461,1,0,0:0:0:0:
244,124,91538,1,0,0:0:0:0:
212,148,91615,1,0,0:0:0:0:
184,176,91692,1,0,0:0:0:0:
160,208,91769,1,0,0:0:0:0:
180,244,91846,5,0,0:0:0:0:
216,232,91922,1,0,0:0:0:0:
248,212,91999,1,0,0:0:0:0:
280,188,92076,1,0,0:0:0:0:
320,184,92153,1,0,0:0:0:0:
352,208,92230,1,0,0:0:0:0:
368,244,92307,1,0,0:0:0:0:
376,284,92384,1,0,0:0:0:0:
356,320,92461,1,0,0:0:0:0:
320,340,92538,1,0,0:0:0:0:
280,336,92615,1,0,0:0:0:0:
260,300,92692,1,0,0:0:0:0:
268,260,92769,1,0,0:0:0:0:
296,232,92846,1,0,0:0:0:0:
364,220,93000,2,0,L|376:212,3,10.0000000993411
388,176,93192,5,0,0:0:0:0:
320,104,93384,2,0,L|304:96,3,10.0000000993411
272,96,93577,1,0,0:0:0:0:
156,124,93769,2,0,P|144:128|140:128,3,10.0000000993411
120,156,93961,1,0,0:0:0:0:
116,264,94154,2,0,L|120:280,3,10.0000000993411
156,284,94346,1,0,0:0:0:0:
232,192,94538,6,0,P|260:140|272:132,1,70.0000006953875
232,192,94884,2,0,P|240:160|280:132,1,80.0000007947285
232,192,95269,2,0,P|240:152|292:124,1,100.000000993411
452,324,96038,5,0,0:0:0:0:
392,188,96769,2,0,P|319:238|301:358,1,200.000001986821
256,40,97730,1,0,0:0:0:0:
124,192,97923,1,0,0:0:0:0:
456,48,98269,1,0,0:0:0:0:
44,340,99038,5,0,0:0:0:0:
348,328,99576,1,0,0:0:0:0:
312,132,99769,2,0,B|236:176|236:176|156:276,1,200.000001986821
312,132,100730,2,0,L|376:220,1,100.000000993411
48,48,101269,1,0,0:0:0:0:
464,340,102038,5,0,0:0:0:0:
392,148,102769,2,0,B|396:88|396:88|424:84|428:128|360:112|360:112|360:60,1,200.000001986821
256,332,103730,1,0,0:0:0:0:
108,200,103923,1,0,0:0:0:0:
372,220,104269,2,0,B|364:208|364:208|348:160|348:160|312:156|256:252|256:252|188:160|152:164|152:164|140:208|140:208|124:224,1,400.000003973643
460,336,105576,1,0,0:0:0:0:
416,140,105769,2,0,B|376:168|376:168|344:152|344:152|368:272,1,200.000001986821
256,328,106550,6,0,B|236:260|236:260|264:191|264:191|267:196,1,150.000007212162
256,328,106911,2,0,B|236:251|236:251|268:192|268:192|292:220,1,170.000004931291
256,328,107272,2,0,B|240:244|240:244|272:184|272:184|304:240,1,204.000005917549
256,328,107689,2,0,B|240:244|240:244|272:184|272:184|295:232,1,189.999996813933
256,328,108038,2,0,B|252:292|252:292|256:276|256:276|254:263|254:263|252:248|252:248|256:236|256:236|252:220|252:220|256:204|256:204|252:188|252:188|260:176|260:176|252:160|252:160|260:148|260:148|252:128|252:128|260:112|260:112|252:92|252:92|260:72|260:72|252:48,1,280.00000278155
64,332,108769,6,0,P|68:240|168:196,1,200.000001986821
264,56,109692,1,0,0:0:0:0:
424,176,109884,2,0,P|424:264|336:348,1,200.000001986821
68,112,111038,1,0,0:0:0:0:
252,336,111577,1,0,0:0:0:0:
296,140,111769,2,0,B|272:192|296:240|296:240|244:260|188:240,1,200.000001986821
464,328,112731,1,0,0:0:0:0:
464,328,112923,5,0,0:0:0:0:
232,52,113269,2,0,B|328:204|328:204|284:200|284:200|280:236|280:236|156:320|156:320,1,400.000003973643
140,156,114769,2,0,B|196:184|196:184|56:184,1,200.000001986821
384,56,115730,2,0,L|448:144,1,100.000000993411
132,320,116269,1,0,0:0:0:0:
460,48,117038,5,0,0:0:0:0:
56,104,117576,1,0,0:0:0:0:
216,228,117769,2,0,B|168:212|168:212|60:108,1,200.000001986821
376,152,118549,2,0,L|380:180,1,25.0000002483527
248,92,118895,2,0,L|224:104,1,25.0000002483527
116,228,119280,2,0,L|136:248,1,25.0000002483527
300,304,119626,2,0,L|328:288,1,30.0000002980232
256,192,120010,12,0,125280,0:0:0:0:
388,276,126010,5,0,0:0:0:0:
80,68,129010,1,0,0:0:0:0:
456,192,130510,1,0,0:0:0:0:
60,332,131280,1,0,0:0:0:0:
100,108,131664,1,0,0:0:0:0:
100,108,131857,5,0,0:0:0:0:
100,108,132049,2,0,B|208:196|208:276|208:276|108:212|108:212|108:276|108:276|192:320,1,480.000004768371
80,68,134280,1,0,0:0:0:0:
248,184,135010,2,0,B|200:200|140:232|120:280|120:280|180:324|180:324|232:324,1,290.000002880891
432,316,136510,1,0,0:0:0:0:
252,160,138011,6,0,L|252:96|252:52,1,100.000000993411
252,60,138587,2,0,L|252:84|252:112,1,50.0000004967053
92,228,139164,1,0,0:0:0:0:
292,204,139549,1,0,0:0:0:0:
292,204,139741,1,0,0:0:0:0:
292,204,139934,1,0,0:0:0:0:
248,232,140087,6,0,L|288:200,1,50.0000004967054
208,264,140472,1,0,0:0:0:0:
208,264,140664,1,0,0:0:0:0:
296,312,140857,1,0,0:0:0:0:
336,308,140934,1,0,0:0:0:0:
384,276,141049,1,0,0:0:0:0:
440,84,141434,5,0,0:0:0:0:
452,184,141626,2,0,P|460:204|460:232,1,50.0000004967054
284,192,142164,2,0,P|344:176|368:144,1,100.000000993411
276,192,142741,2,0,L|292:144,1,50.0000004967054
291,144,143087,2,0,L|235:128,1,50.0000004967054
242,130,143472,2,0,L|258:130,6,10.0000000993411
180,180,143857,2,0,L|196:236,1,50.0000004967054
180,180,144587,6,0,P|156:164|156:144,1,50.0000004967054
352,104,145164,1,0,0:0:0:0:
436,288,145549,1,0,0:0:0:0:
340,316,145741,1,0,0:0:0:0:
296,224,145934,1,0,0:0:0:0:
340,316,146087,6,0,L|380:284,1,50.0000004967054
296,224,146472,1,0,0:0:0:0:
208,268,146664,1,0,0:0:0:0:
152,184,146857,1,0,0:0:0:0:
172,148,146934,1,0,0:0:0:0:
172,148,147049,1,0,0:0:0:0:
368,104,147434,5,0,0:0:0:0:
368,104,147626,2,0,P|360:124|360:152,1,50.0000004967054
368,104,148164,2,0,P|428:88|452:56,1,100.000000993411
434,107,148741,2,0,L|450:59,1,50.0000004967054
368,56,149087,2,0,L|312:40,1,50.0000004967054
232,88,149472,2,0,L|228:103,6,10.0000000993411
268,160,149857,2,0,L|284:216,1,50.0000004967054
103,229,150395,5,0,0:0:0:0:
296,279,150780,1,0,0:0:0:0:
98,199,151164,5,0,0:0:0:0:
278,285,151510,1,0,0:0:0:0:
99,174,151895,5,0,0:0:0:0:
263,287,152280,1,0,0:0:0:0:
104,147,152664,5,0,0:0:0:0:
247,287,153011,1,0,0:0:0:0:
115,121,153395,5,0,0:0:0:0:
230,284,153780,1,0,0:0:0:0:
129,98,154164,5,0,0:0:0:0:
215,278,154510,1,0,0:0:0:0:
147,77,154895,5,0,0:0:0:0:
200,270,155280,1,0,0:0:0:0:
168,60,155664,5,0,0:0:0:0:
187,259,156010,1,0,0:0:0:0:
214,229,156087,1,0,0:0:0:0:
214,229,156164,1,0,0:0:0:0:
214,229,156241,1,0,0:0:0:0:
214,229,156318,1,0,0:0:0:0:
214,229,156395,1,0,0:0:0:0:
214,229,156472,1,0,0:0:0:0:
214,229,156549,1,0,0:0:0:0:
214,229,156626,1,0,0:0:0:0:
209,268,156703,5,0,0:0:0:0:
200,270,156780,1,0,0:0:0:0:
200,270,156857,1,0,0:0:0:0:
200,270,156934,1,0,0:0:0:0:
200,270,157010,1,0,0:0:0:0:
200,270,157087,1,0,0:0:0:0:
205,269,157164,1,0,0:0:0:0:
205,269,157241,1,0,0:0:0:0:
205,269,157318,1,0,0:0:0:0:
205,269,157395,1,0,0:0:0:0:
244,275,157472,5,0,0:0:0:0:
244,275,157549,1,0,0:0:0:0:
244,275,157626,1,0,0:0:0:0:
244,275,157703,1,0,0:0:0:0:
244,275,157780,1,0,0:0:0:0:
244,275,157857,1,0,0:0:0:0:
244,275,157934,1,0,0:0:0:0:
244,275,158010,1,0,0:0:0:0:
244,275,158087,1,0,0:0:0:0:
244,275,158164,5,0,0:0:0:0:
252,235,158241,1,0,0:0:0:0:
251,236,158318,1,0,0:0:0:0:
251,236,158395,1,0,0:0:0:0:
251,236,158472,1,0,0:0:0:0:
251,236,158549,1,0,0:0:0:0:
251,236,158626,1,0,0:0:0:0:
251,236,158703,1,0,0:0:0:0:
251,236,158780,1,0,0:0:0:0:
251,236,158857,1,0,0:0:0:0:
251,236,158934,1,0,0:0:0:0:
270,238,159010,6,0,L|289:264,1,30.0000002980232
319,286,159395,6,0,L|345:266,1,30.0000002980232
367,235,159780,6,0,L|339:222,1,30.0000002980232
303,205,160164,6,0,L|286:222,1,25.0000002483527
309,69,162010,6,0,B|374:66|374:66|377:72|377:72|379:65|379:65|381:72|381:72|383:66|383:66|384:71|384:71|388:66|388:66|388:71|388:71|393:66|393:66|392:71|392:71|397:66|397:66|397:72|397:72|400:66|400:66|401:73|401:73|404:67|404:67|412:71,1,160.000001589457
453,323,162780,1,0,0:0:0:0:
53,309,163164,1,0,0:0:0:0:
186,159,163357,1,0,0:0:0:0:
453,64,163703,1,0,0:0:0:0:
54,93,164087,1,0,0:0:0:0:
175,252,164280,1,0,0:0:0:0:
256,191,164664,5,0,0:0:0:0:
166,70,165010,6,0,B|101:67|101:67|98:73|98:73|96:66|96:66|94:73|94:73|92:67|92:67|91:72|91:72|87:67|87:67|87:72|87:72|82:67|82:67|83:72|83:72|78:67|78:67|78:73|78:73|75:67|75:67|74:74|74:74|71:68|71:68|63:72,1,160.000001589457
337,143,165587,2,0,L|350:248,1,100.000000993411
459,333,166164,1,0,0:0:0:0:
259,308,166357,1,0,0:0:0:0:
44,216,166703,6,0,L|150:192,1,100.000000993411
313,93,167087,1,0,0:0:0:0:
353,289,167280,1,0,0:0:0:0:
182,121,167472,1,0,0:0:0:0:
182,121,167511,1,0,0:0:0:0:
182,121,167549,1,0,0:0:0:0:
182,121,167588,1,0,0:0:0:0:
182,121,167626,1,0,0:0:0:0:
182,121,167665,1,0,0:0:0:0:
182,121,167703,1,0,0:0:0:0:
280,188,167818,1,0,0:0:0:0:
280,188,167857,1,0,0:0:0:0:
125,225,168010,6,0,B|94:282|94:282|98:287|98:287|91:286|91:286|97:291|97:291|91:290|91:290|95:293|95:293|88:295|88:295|93:297|93:297|86:299|86:299|91:301|91:301|85:303|85:303|90:306|90:306|83:306|83:306|89:310|89:310|83:310|83:310|83:319,1,160.000001589457
350,230,168587,2,0,L|363:335,1,100.000000993411
436,87,169164,1,0,0:0:0:0:
452,287,169357,1,0,0:0:0:0:
148,92,169703,6,0,L|42:68,1,100.000000993411
196,205,170087,1,0,0:0:0:0:
362,93,170280,2,0,P|381:148|316:274,1,200.000001986821
359,335,171010,6,0,B|423:338|423:338|426:332|426:332|429:339|429:339|431:332|431:332|433:338|433:338|433:333|433:333|437:338|437:338|437:332|437:332|443:338|443:338|441:333|441:333|446:338|446:338|446:332|446:332|450:338|450:338|450:331|450:331|454:337|454:337|461:333,1,160.000001589457
236,162,171587,2,0,L|249:267,1,100.000000993411
429,90,172164,1,0,0:0:0:0:
225,167,174010,6,0,B|270:213|270:213|268:219|268:219|274:216|274:216|270:222|270:222|276:219|276:219|273:224|273:224|280:223|280:223|276:227|276:227|283:227|283:227|279:230|279:230|286:230|286:230|281:234|281:234|288:232|288:232|283:238|283:238|290:236|290:236|292:244,1,160.000001589457
231,135,174434,1,0,0:0:0:0:
231,135,174587,2,0,L|244:240,1,100.000000993411
456,53,175164,1,0,0:0:0:0:
364,231,175357,1,0,0:0:0:0:
263,339,175703,6,0,L|369:315,1,100.000000993411
190,212,176087,1,0,0:0:0:0:
375,134,176280,1,0,0:0:0:0:
102,91,176664,1,0,0:0:0:0:
200,231,177010,6,0,B|218:293|218:293|224:294|224:294|219:298|219:298|226:298|226:298|221:301|221:301|226:301|226:301|222:306|222:306|227:305|227:305|224:311|224:311|228:308|228:308|225:315|225:315|231:313|231:313|226:318|226:318|233:316|233:316|229:321|229:321|235:327,1,160.000001589457
273,47,177587,2,0,L|286:152,1,100.000000993411
429,215,178164,1,0,0:0:0:0:
234,164,178357,1,0,0:0:0:0:
56,330,178703,6,0,L|162:306,1,100.000000993411
131,109,179087,1,0,0:0:0:0:
252,268,179280,1,0,0:0:0:0:
345,91,179472,2,0,L|356:108,5,20.0000001986821
322,87,179856,1,0,0:0:0:0:
322,87,179895,1,0,0:0:0:0:
357,201,180010,6,0,B|375:138|375:138|381:137|381:137|376:133|376:133|383:133|383:133|378:130|378:130|383:130|383:130|379:125|379:125|384:126|384:126|381:120|381:120|385:123|385:123|382:116|382:116|388:118|388:118|383:113|383:113|390:115|390:115|386:110|386:110|392:104,1,160.000001589457
90,128,180780,1,0,0:0:0:0:
434,330,181164,1,0,0:0:0:0:
68,294,181703,6,0,L|174:270,1,100.000000993411
169,140,182280,1,0,0:0:0:0:
395,270,183010,5,0,0:0:0:0:
86,71,183587,2,0,L|169:126,1,100.000000993411
439,111,184164,1,0,0:0:0:0:
91,308,184703,6,0,L|197:284,1,100.000000993411
322,92,185280,1,0,0:0:0:0:
426,303,186010,6,0,P|405:248|391:203,1,100.000000993411
425,302,186586,2,0,P|406:280|411:260,1,50.0000004967054
268,119,187163,1,0,0:0:0:0:
67,127,187548,1,0,0:0:0:0:
121,210,187740,1,0,0:0:0:0:
198,274,187933,1,0,0:0:0:0:
137,222,188086,6,0,L|176:190,1,50.0000004967053
257,132,188471,1,0,0:0:0:0:
355,113,188663,1,0,0:0:0:0:
270,59,188856,1,0,0:0:0:0:
270,59,188933,1,0,0:0:0:0:
270,59,189048,1,0,0:0:0:0:
79,121,189433,5,0,0:0:0:0:
96,219,189625,2,0,P|104:239|104:267,1,50.0000004967054
282,290,190163,2,0,P|342:274|366:242,1,100.000000993411
264,234,190740,2,0,L|280:186,1,50.0000004967054
358,198,191086,2,0,L|302:182,1,50.0000004967054
362,98,191471,2,0,L|378:98,6,10.0000000993411
303,152,191856,2,0,L|299:100,1,50.0000004967053
241,85,192164,5,0,0:0:0:0:
203,70,192241,1,0,0:0:0:0:
164,59,192318,1,0,0:0:0:0:
123,59,192395,1,0,0:0:0:0:
89,80,192472,1,0,0:0:0:0:
63,110,192549,1,0,0:0:0:0:
50,148,192626,1,0,0:0:0:0:
44,187,192703,1,0,0:0:0:0:
44,227,192780,1,0,0:0:0:0:
51,266,192857,1,0,0:0:0:0:
91,266,192934,5,0,0:0:0:0:
89,305,193010,1,0,0:0:0:0:
85,344,193087,1,0,0:0:0:0:
124,348,193164,1,0,0:0:0:0:
136,309,193241,1,0,0:0:0:0:
145,270,193318,1,0,0:0:0:0:
184,262,193395,1,0,0:0:0:0:
191,301,193472,1,0,0:0:0:0:
184,340,193549,1,0,0:0:0:0:
222,349,193626,1,0,0:0:0:0:
260,336,193703,5,0,0:0:0:0:
297,323,193780,1,0,0:0:0:0:
331,303,193857,1,0,0:0:0:0:
358,274,193934,1,0,0:0:0:0:
380,241,194010,1,0,0:0:0:0:
392,203,194087,1,0,0:0:0:0:
366,172,194164,1,0,0:0:0:0:
346,137,194241,1,0,0:0:0:0:
321,105,194318,1,0,0:0:0:0:
283,90,194395,1,0,0:0:0:0:
255,119,194472,5,0,0:0:0:0:
280,149,194549,1,0,0:0:0:0:
303,181,194626,1,0,0:0:0:0:
321,216,194703,1,0,0:0:0:0:
302,251,194780,1,0,0:0:0:0:
262,259,194857,1,0,0:0:0:0:
185,235,195010,2,0,L|197:227,3,10.0000000993411
161,205,195202,5,0,0:0:0:0:
234,137,195394,2,0,L|218:129,3,10.0000000993411
200,99,195587,1,0,0:0:0:0:
101,116,195779,2,0,P|89:120|85:120,3,10.0000000993411
99,159,195972,1,0,0:0:0:0:
77,256,196164,2,0,L|81:272,3,10.0000000993411
113,286,196356,1,0,0:0:0:0:
277,202,196548,6,0,P|228:236|214:238,1,70.0000006953875
277,202,196894,2,0,P|255:227|207:234,1,80.0000007947285
277,202,197279,2,0,P|252:234|225:239,1,70.0000006953875
224,239,197647,2,0,P|252:187|283:43,1,200.000001986821
411,84,198040,5,0,0:0:0:0:
47,60,198771,5,0,0:0:0:0:
166,60,198886,1,0,0:0:0:0:
245,68,198963,1,0,0:0:0:0:
323,85,199040,1,0,0:0:0:0:
222,152,199156,1,0,0:0:0:0:
298,175,199233,1,0,0:0:0:0:
375,194,199310,1,0,0:0:0:0:
446,229,199387,1,0,0:0:0:0:
433,308,199464,1,0,0:0:0:0:
357,332,199540,1,0,0:0:0:0:
275,331,199618,1,0,0:0:0:0:
262,251,199695,1,0,0:0:0:0:
160,313,199810,1,0,0:0:0:0:
121,242,199887,1,0,0:0:0:0:
239,222,200002,5,0,0:0:0:0:
306,265,200079,1,0,0:0:0:0:
385,229,200156,1,0,0:0:0:0:
302,142,200271,1,0,0:0:0:0:
222,152,200348,2,0,L|219:174,3,20.0000001986821
139,166,200540,5,0,0:0:0:0:
65,133,200617,1,0,0:0:0:0:
130,87,200694,1,0,0:0:0:0:
209,75,200771,1,0,0:0:0:0:
288,66,200848,1,0,0:0:0:0:
365,86,200925,1,0,0:0:0:0:
315,194,201040,1,0,0:0:0:0:
452,286,201387,5,0,0:0:0:0:
380,321,201464,1,0,0:0:0:0:
422,209,201579,1,0,0:0:0:0:
310,253,201694,1,0,0:0:0:0:
229,253,201771,1,0,0:0:0:0:
314,167,201887,5,0,0:0:0:0:
235,161,201963,1,0,0:0:0:0:
156,175,202040,1,0,0:0:0:0:
236,85,202156,1,0,0:0:0:0:
157,98,202233,1,0,0:0:0:0:
92,144,202310,1,0,0:0:0:0:
96,223,202387,1,0,0:0:0:0:
149,282,202464,1,0,0:0:0:0:
228,292,202541,1,0,0:0:0:0:
307,297,202618,1,0,0:0:0:0:
298,217,202695,5,0,0:0:0:0:
422,209,202810,1,0,0:0:0:0:
423,128,202887,1,0,0:0:0:0:
306,102,203002,2,0,L|290:125,3,20.0000001986821
248,52,203194,1,0,0:0:0:0:
208,52,203271,1,0,0:0:0:0:
208,172,203387,5,0,0:0:0:0:
228,204,203463,1,0,0:0:0:0:
264,216,203540,1,0,0:0:0:0:
372,164,203656,1,0,0:0:0:0:
372,164,203733,1,0,0:0:0:0:
448,256,203848,1,0,0:0:0:0:
448,256,203925,1,0,0:0:0:0:
348,320,204040,2,0,L|237:336,1,100.000000993411
172,192,204387,2,0,L|192:256,1,60.0000005960464
132,192,204579,2,0,L|152:260,1,60.0000005960464
148,249,204771,5,0,0:0:0:0:
244,176,204887,1,0,0:0:0:0:
280,192,204963,1,0,0:0:0:0:
316,176,205040,1,0,0:0:0:0:
412,104,205156,1,0,0:0:0:0:
464,212,205271,1,0,0:0:0:0:
412,272,205348,1,0,0:0:0:0:
340,308,205425,1,0,0:0:0:0:
260,312,205502,1,0,0:0:0:0:
184,284,205579,1,0,0:0:0:0:
276,208,205694,5,0,0:0:0:0:
160,176,205810,1,0,0:0:0:0:
244,92,205925,1,0,0:0:0:0:
244,92,206002,2,0,L|228:116,3,20.0000001986821
264,84,206194,5,0,0:0:0:0:
232,60,206271,1,0,0:0:0:0:
172,56,206387,1,0,0:0:0:0:
140,76,206463,1,0,0:0:0:0:
120,108,206540,1,0,0:0:0:0:
76,220,206656,1,0,0:0:0:0:
76,220,206733,1,0,0:0:0:0:
152,312,206848,1,0,0:0:0:0:
152,312,206925,1,0,0:0:0:0:
204,204,207040,1,0,0:0:0:0:
