osu file format v9

[General]
AudioFilename: Flobots_-_Handlebars_ALBUMRADIO_VERSION_HQ.mp3
AudioLeadIn: 0
PreviewTime: 13875
Countdown: 0
SampleSet: Soft
StackLeniency: 0.7
Mode: 0
LetterboxInBreaks: 0

[Editor]
DistanceSpacing: 1
BeatDivisor: 4
GridSize: 16

[Metadata]
Title:Handlebars
Artist:Flobots
Creator:Odaril
Version:Normal
Source:
Tags:fight with tools

[Difficulty]
HPDrainRate:3
CircleSize:3
OverallDifficulty:3
ApproachRate:4
SliderMultiplier:1.2
SliderTickRate:1

[Events]
//Background and Video events
0,0,"background.png"
//Break Periods
2,54675,66677
2,108760,120780
//Storyboard Layer 0 (Background)
//Storyboard Layer 1 (Fail)
//Storyboard Layer 2 (Pass)
//Storyboard Layer 3 (Foreground)
//Storyboard Sound Samples
//Background Colour Transformations
3,100,163,162,255

[TimingPoints]
382,422.535211267606,4,2,1,80,1,0
13094,-133.333333333333,4,2,1,45,0,0
13939,-133.333333333333,4,2,1,45,0,0
15582,-133.333333333333,4,2,1,45,0,0
17318,422.535211267606,4,2,1,45,1,0
17318,-133.333333333333,4,2,1,45,0,0
19035,-133.333333333333,4,2,1,45,0,0
20297,-133.333333333333,4,2,1,45,0,0
20694,-133.333333333333,4,2,1,45,0,0
22404,-133.333333333333,4,2,1,45,0,0
23659,-133.333333333333,4,2,1,45,0,0
24081,-133.333333333333,4,2,1,45,0,0
25760,-114.942528735632,4,1,2,45,0,0
27143,-100,4,1,2,80,0,0
27403,422.535211267606,4,1,2,80,1,0
30814,422.535211267606,4,1,2,80,1,0
31014,-100,4,1,2,80,0,0
93754,-100,4,1,2,63,0,0
93860,-100,4,1,2,66,0,0
93965,-100,4,1,2,69,0,0
94071,-100,4,1,2,72,0,0
94177,-100,4,1,2,75,0,0
94282,-100,4,1,2,78,0,0
94388,-100,4,1,2,81,0,0
94599,-100,4,1,2,84,0,0
94758,-100,4,1,2,87,0,0
95039,-100,4,1,1,90,0,1
108470,-100,4,1,1,90,0,1
108560,-100,4,1,1,90,0,0
110270,422.535211267606,4,1,1,80,1,0
122090,-133.333333333333,4,1,2,90,0,0
123470,-133.333333333333,4,2,2,70,0,0
124104,-133.333333333333,4,1,2,70,0,0
125160,-133.333333333333,4,2,2,70,0,0
125794,-133.333333333333,4,1,2,70,0,0
126850,-133.333333333333,4,2,2,70,0,0
127484,-133.333333333333,4,1,2,70,0,0
128752,-105.263157894737,4,1,2,80,0,0
130231,-105.263157894737,4,2,2,90,0,0
130864,-105.263157894737,4,1,2,90,0,0
131921,-105.263157894737,4,2,2,90,0,0
132238,-95.2380952380952,4,2,2,95,0,0
132555,-95.2380952380952,4,1,2,95,0,0
133611,-95.2380952380952,4,2,2,95,0,0
133911,422.535211267606,4,1,1,80,1,0
133911,-86.9565217391304,4,2,2,100,0,0
134667,-86.9565217391304,4,1,2,100,0,0
134878,-86.9565217391304,4,1,1,80,0,0
135565,-86.9565217391304,4,1,1,80,0,0
138981,-86.9565217391304,4,1,1,80,0,0
140671,-86.9565217391304,4,1,1,80,0,0
142329,-86.9565217391304,4,1,1,80,0,0
142788,-86.9565217391304,4,1,1,80,0,0
144055,-86.9565217391304,4,1,1,80,0,0
147449,-86.9565217391304,4,1,1,80,0,0
149129,-86.9565217391304,4,1,1,80,0,0
152495,-86.9565217391304,4,1,1,80,0,0
154213,-86.9565217391304,4,1,1,80,0,0
155013,-86.9565217391304,4,1,1,80,0,0
155852,-86.9565217391304,4,1,1,80,0,0
157591,-86.9565217391304,4,1,1,80,0,0
159261,-86.9565217391304,4,1,1,80,0,0
160961,-86.9565217391304,4,1,1,80,0,0
162643,-86.9565217391304,4,1,1,80,0,0
176164,-76.9230769230769,4,1,1,80,0,1
177834,422.535211267606,4,1,1,80,1,1
177834,-76.9230769230769,4,1,1,80,0,1
189714,422.535211267606,4,1,1,80,1,0
193124,422.535211267606,4,1,1,80,1,0
198194,447.761194029851,4,1,1,80,1,0
199985,461.538461538462,4,1,1,80,1,0
201831,600,4,1,1,80,1,0
202431,666.666666666667,4,1,1,80,1,0
203097,750,4,1,1,80,1,0
203847,857.142857142857,4,1,1,80,1,0

[Colours]
Combo1 : 252,206,120
Combo2 : 83,0,0
Combo3 : 148,56,1

[HitObjects]
75,85,13903,1,0
437,85,15593,1,0
92,190,17318,5,0
451,190,19008,1,0
107,298,20698,5,0
386,70,22388,1,0
34,147,24078,5,0
155,279,24923,1,0
361,309,25768,6,0,B|423:256|420:165,1,156.600002613545,8|8
414,117,26613,1,2
320,71,27036,1,0
208,73,27403,6,0,B|143:90|123:152,1,120,12|0
236,190,28248,1,2
455,285,29093,6,0,B|412:239|418:174,1,120,8|0
445,57,29938,1,2
286,237,30814,6,0,B|214:296|114:269,1,180,8|8
64,238,31659,1,2
289,156,32504,6,0,B|274:55|171:38,1,180,8|8
111,43,33349,1,2
116,282,34194,5,8
232,254,34616,2,0,B|257:312,2,60,0|8|2
463,191,35884,5,8
353,142,36306,2,0,B|388:83,2,60,0|8|2
125,219,37574,6,0,B|122:265|98:305,2,60,8|8|8
120,99,38419,1,10
238,79,38842,1,0
357,87,39264,6,8,B|393:66|443:66,2,60
282,181,40109,2,0,B|218:156,2,60,10|8|12
211,278,40954,6,0,B|260:312|328:307,1,120,8|0
440,274,41799,1,2
365,180,42222,1,0
421,73,42644,6,0,B|364:52|303:74,1,120,8|0
187,104,43490,1,2
281,177,43912,1,0
156,193,44335,5,8
224,291,44757,2,0,B|177:333,2,60,0|8|2
342,269,45602,1,0
365,151,46025,6,8,B|419:150|444:197,2,90
304,152,46870,2,0,B|238:153|194:114,1,120,10|0
73,124,47715,6,0,B|56:186|85:240,1,120,8|0
130,280,48349,1,8
188,292,48560,1,2
185,172,48983,1,0
276,249,49405,6,0,B|276:182|333:151,1,120,8|0
393,144,50039,1,8
448,165,50250,1,2
403,276,50673,1,0
293,323,51095,6,8,B|250:344|200:324,2,90
283,263,51940,2,8,B|233:244|220:195,2,90,10|8|8
340,245,52785,6,8,B|320:204|339:157,2,90
391,276,53630,2,0,B|396:243|431:232,2,60,2|0|12
307,361,54475,1,8
417,220,67997,6,0,B|438:279,2,60,8|0|8
398,101,68842,2,0,B|455:70,2,60,2|0|0
280,126,69687,6,0,B|218:135|160:121,1,120,8|0
103,102,70321,1,8
46,81,70532,2,0,B|15:133|28:200,1,120,2|0
147,203,71377,6,0,B|236:172|322:212,1,180,8|8
374,241,72222,1,2
415,128,72644,1,0
298,100,73067,6,0,B|206:73|121:106,1,180,8|8
67,132,73912,1,2
63,252,74335,1,0
179,279,74757,6,0,B|179:344,2,60,8|0|8
181,158,75602,1,2
283,221,76025,1,0
361,130,76447,6,0,B|362:68,2,60,8|0|8
364,250,77292,1,2
467,188,77715,1,0
413,80,78137,6,8,B|384:36|335:38,2,90
374,126,78983,2,8,B|322:109|282:137,2,90,10|8|8
393,182,79828,6,8,B|345:203|342:253,2,90
451,196,80673,2,0,B|452:232|472:252,2,60,2|0|12
388,93,81518,5,8
148,81,83208,5,8
366,180,84898,5,8
126,167,86588,5,8
308,323,88278,6,0,B|374:307|400:249,1,120,8|0
433,136,89123,1,2
237,275,89968,6,0,B|174:288|121:252,1,120,8|0
78,141,90814,1,2
303,57,91659,6,0,B|414:106,1,120,8|0
397,224,92504,1,2
285,179,92926,1,0
170,121,93349,6,0,B|89:213,1,120,8|0
199,262,94194,1,2
285,179,94616,1,0
397,155,95039,5,8
365,104,95250,2,0,B|319:66|255:55,1,120,8|8
196,52,95884,1,2
76,65,96306,1,0
44,181,96729,6,0,B|147:114,1,120,8|8
263,100,97574,1,2
77,252,98419,6,0,B|180:185,1,120,8|8
296,171,99264,1,2
111,324,100109,6,0,B|214:257,1,120,8|8
330,243,100954,1,2
141,94,101799,5,8
100,138,102011,2,0,B|64:184|77:253,1,120,8|8
87,311,102644,1,2
203,340,103067,1,0
199,220,103490,6,8,B|304:278,1,120
423,288,104335,1,2
229,146,105180,6,8,B|334:204,1,120
453,214,106025,1,2
259,71,106870,6,8,B|364:129,1,120
483,139,107715,1,2
432,30,108137,1,2
364,129,108560,1,12
85,84,122100,6,2,B|174:55|266:74,1,179.999994635582,0|2
340,117,123368,1,0
397,186,123791,6,0,B|427:225|479:226,2,89.9999973177911,2|0|2
219,218,125481,6,0,B|186:252|196:300,2,89.9999973177911,10|8|2
142,54,127171,6,0,B|90:51|64:89,2,89.9999973177911,10|8|2
164,280,128861,6,2,B|277:240|389:274,1,227.999991846085,8|2
460,185,130129,1,0
363,124,130551,6,0,B|311:104|252:124,2,113.999995923042,10|8|2
320,229,132241,6,0,B|350:277|337:356,2,125.999999624491,10|8|2
195,246,133911,6,0,B|139:200|65:228,2,138.000004523993,10|8|2
427,97,135601,5,12
291,124,136023,1,0
184,35,136446,2,0,B|99:147,1,138.000004523993,2|0
176,260,137291,6,0,B|233:199|367:198|423:272,1,276.000009047985,8|8
160,189,138981,5,12
270,106,139403,1,0
360,210,139826,2,0,B|388:71,1,138.000004523993
254,36,140671,6,8,B|84:71|106:231,1,276.000009047985
374,242,142361,5,12
188,125,142995,1,8
132,167,143206,1,2
364,315,144051,6,0,B|460:267|477:146,1,207.000006785989,8|8
472,82,144896,1,2
196,87,145741,6,8,B|159:84|136:56,2,69.0000022619963
326,132,146587,1,2
56,191,147432,5,8
192,175,147854,1,8
284,277,148277,2,0,B|245:335,2,69.0000022619963,2|8|8
376,174,149122,5,12
277,76,149544,1,12
139,79,149967,2,0,B|76:124|83:199,1,138.000004523993,2|0
105,263,150601,1,8
135,324,150812,5,8
273,326,151234,1,8
198,210,151657,2,0,B|192:136|257:93,1,138.000004523993,2|0
398,90,152502,5,8
363,223,152925,1,8
471,308,153347,2,0,B|420:368|346:357,1,138.000004523993,2|0
280,345,153981,1,8
222,307,154192,6,0,B|161:253|200:183,1,138.000004523993,8|8
71,234,155037,2,0,B|79:120|172:59,1,207.000006785989,2|8
238,52,155882,5,8
375,54,156305,1,0
472,151,156727,2,0,B|473:294,1,138.000004523993,2|0
334,289,157572,5,8
236,191,157995,1,0
97,191,158418,2,0,B|97:335,1,138.000004523993,2|0
232,300,159263,5,8
326,199,159685,1,0
461,226,160108,2,0,B|416:95,1,138.000004523993,2|0
284,54,160953,5,8
179,144,161375,1,0
44,113,161798,2,0,B|88:248,1,138.000004523993,2|0
224,229,162643,5,8
248,293,162854,2,0,B|320:292|368:236,1,138.000004523993,8|8
380,167,163488,1,2
310,46,163911,1,0
175,72,164333,6,8,B|213:135|275:164,1,138.000004523993
401,108,165178,1,2
126,140,166023,6,8,B|164:203|226:232,1,138.000004523993
352,176,166868,1,2
78,213,167713,6,8,B|116:276|178:305,1,138.000004523993
304,249,168558,1,2
482,38,169403,5,8
422,72,169615,1,8
353,78,169826,2,0,B|285:74|216:105,1,138.000004523993,12|2
80,103,170671,1,0
136,229,171094,6,0,B|204:220|273:200,1,138.000004523993,8|0
399,148,171939,1,2
168,300,172784,6,0,B|236:291|305:271,1,138.000004523993,8|0
431,219,173629,1,2
200,371,174474,6,0,B|268:362|337:342,1,138.000004523993,8|0
463,290,175319,1,2
158,272,176164,6,0,B|79:288,2,77.9999986052513,12|8|0
80,136,177009,1,2
222,73,177432,1,0
373,109,177834,6,0,B|417:96|434:60,2,77.9999986052513,8|8|0
224,156,178679,1,2
338,261,179524,6,0,B|371:292|410:289,2,77.9999986052513,8|8|0
223,156,180369,1,2
189,308,181214,6,0,B|178:352|200:385,2,77.9999986052513,8|8|0
223,156,182059,1,2
338,261,182904,5,8
409,230,183115,1,8
439,157,183326,2,0,B|452:74|389:17,1,155.999997210503,0|2
379,328,184594,5,8
338,261,184805,1,8
297,194,185017,2,0,B|233:146|158:127,1,155.999997210503,0|2
434,270,186284,5,8
379,328,186495,1,8
301,339,186707,1,0
256,192,187024,12,4,189714
