osu file format v9

[General]
AudioFilename: Flobots_-_Handlebars_ALBUMRADIO_VERSION_HQ.mp3
AudioLeadIn: 0
PreviewTime: 13875
Countdown: 0
SampleSet: Normal
StackLeniency: 0.7
Mode: 0
LetterboxInBreaks: 0

[Editor]
DistanceSpacing: 1
BeatDivisor: 3
GridSize: 16

[Metadata]
Title:Handlebars
Artist:Flobots
Creator:Odaril
Version:Insane
Source:
Tags:fight with tools

[Difficulty]
HPDrainRate:6
CircleSize:4
OverallDifficulty:7
ApproachRate:8
SliderMultiplier:1.6
SliderTickRate:1

[Events]
//Background and Video events
0,0,"background.png"
//Break Periods
2,54675,67247
2,108760,121350
//Storyboard Layer 0 (Background)
//Storyboard Layer 1 (Fail)
//Storyboard Layer 2 (Pass)
//Storyboard Layer 3 (Foreground)
//Storyboard Sound Samples
//Background Colour Transformations
3,100,163,162,255

[TimingPoints]
382,422.535211267606,4,2,1,80,1,0
13094,-133.333333333333,4,2,1,45,0,0
13939,-133.333333333333,4,2,1,45,0,0
15582,-133.333333333333,4,2,1,45,0,0
17318,422.535211267606,4,2,1,45,1,0
17318,-133.333333333333,4,2,1,45,0,0
19035,-133.333333333333,4,2,1,45,0,0
20297,-133.333333333333,4,2,1,45,0,0
20694,-133.333333333333,4,2,1,45,0,0
22404,-133.333333333333,4,2,1,45,0,0
23659,-133.333333333333,4,2,1,45,0,0
24081,-133.333333333333,4,2,1,45,0,0
25760,-114.942528735632,4,1,2,45,0,0
27143,-100,4,1,2,80,0,0
27403,422.535211267606,4,1,2,80,1,0
30814,422.535211267606,4,1,2,80,1,0
31014,-100,4,1,2,80,0,0
93754,-100,4,1,2,63,0,0
93860,-100,4,1,2,66,0,0
93965,-100,4,1,2,69,0,0
94071,-100,4,1,2,72,0,0
94177,-100,4,1,2,75,0,0
94282,-100,4,1,2,78,0,0
94388,-100,4,1,2,81,0,0
94599,-100,4,1,2,84,0,0
94758,-100,4,1,2,87,0,0
95039,-100,4,1,1,90,0,1
108470,-100,4,1,1,90,0,1
108560,-100,4,1,1,90,0,0
110270,422.535211267606,4,1,1,80,1,0
122090,-133.333333333333,4,1,2,90,0,0
123470,-133.333333333333,4,2,2,70,0,0
124104,-133.333333333333,4,1,2,70,0,0
125160,-133.333333333333,4,2,2,70,0,0
125794,-133.333333333333,4,1,2,70,0,0
126850,-133.333333333333,4,2,2,70,0,0
127484,-133.333333333333,4,1,2,70,0,0
128752,-105.263157894737,4,1,2,80,0,0
130231,-105.263157894737,4,2,2,90,0,0
130864,-105.263157894737,4,1,2,90,0,0
131921,-105.263157894737,4,2,2,90,0,0
132238,-95.2380952380952,4,2,2,95,0,0
132555,-95.2380952380952,4,1,2,95,0,0
133611,-95.2380952380952,4,2,2,95,0,0
133911,422.535211267606,4,1,1,80,1,0
133911,-86.9565217391304,4,2,2,100,0,0
134667,-86.9565217391304,4,1,2,100,0,0
134878,-86.9565217391304,4,1,1,80,0,0
135565,-86.9565217391304,4,1,1,80,0,0
138981,-86.9565217391304,4,1,1,80,0,0
140671,-86.9565217391304,4,1,1,80,0,0
142329,-86.9565217391304,4,1,1,80,0,0
142788,-86.9565217391304,4,1,1,80,0,0
144055,-86.9565217391304,4,1,1,80,0,0
147449,-86.9565217391304,4,1,1,80,0,0
149129,-86.9565217391304,4,1,1,80,0,0
152495,-86.9565217391304,4,1,1,80,0,0
154213,-86.9565217391304,4,1,1,80,0,0
155013,-86.9565217391304,4,1,1,80,0,0
155852,-86.9565217391304,4,1,1,80,0,0
157591,-86.9565217391304,4,1,1,80,0,0
159261,-86.9565217391304,4,1,1,80,0,0
160961,-86.9565217391304,4,1,1,80,0,0
162643,-86.9565217391304,4,1,1,80,0,0
176164,-76.9230769230769,4,1,1,80,0,1
177834,422.535211267606,4,1,1,80,1,1
177834,-76.9230769230769,4,1,1,80,0,1
189714,422.535211267606,4,1,1,80,1,0
193124,422.535211267606,4,1,1,80,1,0
198194,447.761194029851,4,1,1,80,1,0
199985,461.538461538462,4,1,1,80,1,0
201831,600,4,1,1,80,1,0
202431,666.666666666667,4,1,1,80,1,0
203097,750,4,1,1,80,1,0
203847,857.142857142857,4,1,1,80,1,0

[Colours]
Combo1 : 252,206,120
Combo2 : 83,0,0
Combo3 : 148,56,1

[HitObjects]
34,72,13903,6,0,B|154:72,1,119.999996423721
274,72,14748,1,2
393,72,15170,1,0
482,152,15593,6,0,B|354:152,1,119.999996423721
241,152,16438,1,2
121,152,16860,1,0
30,232,17318,6,0,B|158:232,1,119.999996423721
271,232,18163,1,0
391,232,18585,1,2
478,312,19008,6,0,B|358:312,1,119.999996423721
238,312,19853,1,2
119,312,20275,1,0
43,218,20698,6,0,B|164:211,1,119.999996423721
282,205,21543,1,0
401,199,21965,1,2
488,117,22388,5,0
367,119,22810,1,0
247,119,23233,1,2
120,147,23656,1,0
72,254,24078,6,0,B|216:254,1,119.999996423721
312,254,24923,1,2
431,254,25346,1,0
391,140,25768,5,8
338,94,25979,2,8,B|361:61,2,34.8000005807877,8|8|8
270,76,26402,1,8
200,71,26613,1,2
78,138,27036,1,8
67,297,27403,6,0,B|98:272|144:273,1,80,12|0
221,276,27825,1,8
370,218,28248,2,0,B|348:186|300:192,1,80,2|0
219,189,28670,1,0
78,111,29093,6,0,B|106:84|149:81,1,80,8|0
190,80,29410,1,0
229,83,29515,1,8
307,99,29726,1,8
380,129,29938,2,0,B|417:134|436:182,1,80,2|0
451,259,30360,1,0
457,98,30814,6,0,B|377:114|321:180,1,160,8|8
294,207,31342,1,0
264,233,31447,1,8
230,254,31553,1,0
190,263,31659,2,0,B|170:289|171:325,2,60,2|0|0
156,242,32081,2,0,B|133:211|122:168,1,80
111,131,32398,1,0
109,90,32504,6,0,B|144:50|177:91,1,80,8|0
216,90,32821,2,0,B|250:48|281:88,1,80,8|0
321,89,33137,1,8
329,167,33349,2,0,B|244:168,1,80,2|0
208,168,33666,1,0
168,177,33771,2,0,B|129:200|134:245,1,80
186,304,34194,6,0,B|182:344,2,40,8|0|0
256,266,34616,1,8
326,304,34828,2,0,B|330:344,2,40,8|0|2
256,266,35250,1,0
256,226,35356,1,0
256,185,35461,1,0
189,39,35884,6,0,B|164:69,2,40,8|0|0
256,82,36306,1,8
323,39,36518,2,0,B|348:69,2,40,8|0|2
256,82,36940,1,0
256,121,37046,1,0
256,161,37152,1,0
122,249,37574,5,8
150,220,37680,1,0
190,221,37785,1,0
227,236,37891,1,8
259,258,37997,1,0
328,297,38208,2,0,B|366:313,2,40,8|0|10
361,223,38630,2,0,B|399:237,2,40,0|8|0
390,148,39053,1,8
348,79,39264,5,8
320,50,39370,1,0
280,51,39475,1,0
243,66,39581,1,8
211,88,39687,1,0
151,141,39898,2,0,B|112:107,2,40,8|0|2
103,205,40321,2,0,B|43:153,2,80,8|12|0
182,214,40954,5,8
221,209,41060,1,0
258,196,41166,2,0,B|315:136,2,80,0|0|8
317,249,41799,1,2
346,222,41905,2,0,B|399:160,1,80
395,281,42433,5,0
365,307,42539,1,0
333,331,42644,2,0,B|298:354|255:344,1,80,8|0
216,337,42961,1,8
178,321,43067,2,0,B|145:298|132:258,1,80,0|8
186,199,43490,2,0,B|211:188|256:207|274:194,1,80,2|0
305,197,43806,1,0
381,173,44018,1,0
418,156,44123,1,0
384,83,44335,5,8
305,67,44546,1,0
268,83,44652,1,0
232,102,44757,2,0,B|196:119|152:96,1,80,0|8
128,172,45180,2,0,B|161:192|206:186,1,80,2|0
245,184,45497,1,0
324,181,45708,2,0,B|367:183|403:205,1,80
430,229,46025,6,0,B|373:285,1,80,8|0
343,312,46342,2,0,B|372:341,2,40,8|0|0
304,322,46659,1,8
224,323,46870,2,0,B|182:320|147:298,1,80,2|0
115,276,47187,1,0
86,248,47292,1,0
158,215,47504,1,0
209,153,47715,5,8
285,128,47926,2,0,B|320:108,2,40
327,195,48349,2,0,B|341:180|388:203|408:188,2,80,8|2|0
289,208,48877,1,0
170,227,49194,1,0
95,257,49405,5,8
159,304,49616,2,0,B|126:335,2,40,0|8|0
238,304,50039,2,0,B|236:344,2,40,8|0|2
318,299,50461,1,0
358,297,50567,2,0,B|436:289,1,80
411,171,51095,5,8
331,171,51306,2,0,B|331:123,2,40,0|8|0
250,171,51729,1,8
279,245,51940,2,0,B|183:245,1,80,10|0
160,233,52257,1,8
125,212,52363,2,0,B|102:176|100:136,1,80,0|8
148,73,52785,6,0,B|104:60,2,40,8|0|0
185,58,53102,1,8
221,73,53208,2,0,B|257:90|298:71,1,80,0|8
337,61,53525,1,0
377,53,53630,1,2
456,64,53842,1,8
489,136,54053,1,12
458,209,54264,1,0
408,271,54475,1,8
401,84,67997,6,0,B|360:75|322:82,1,80,8|0
432,173,68419,2,0,B|397:152|357:151,1,80,0|8
380,232,68842,2,0,B|337:217|299:229,1,80,2|0
433,174,69264,2,0,B|375:139|311:157,1,120
277,167,69687,5,8
242,186,69792,2,0,B|208:210|164:187,1,80,0|8
138,158,70109,1,0
205,115,70321,2,0,B|205:73,2,40,8|0|2
242,186,70743,1,0
262,220,70849,1,0
291,247,70954,2,0,B|317:279|364:284,1,80
424,154,71377,6,0,B|396:68|305:62,1,160,8|0
225,63,72011,1,8
145,73,72222,2,0,B|110:96|100:136,1,80,2|0
111,175,72539,1,0
142,198,72644,1,0
195,138,72856,1,0
234,140,72961,1,0
273,147,73067,5,8
416,136,73278,1,0
432,278,73490,1,0
288,291,73701,1,8
248,290,73806,1,0
208,281,73912,2,0,B|168:263|129:276,1,80,2|0
89,275,74229,2,0,B|59:218|76:156,1,120
204,93,74757,6,0,B|204:46,2,40,8|0|0
284,95,75180,2,0,B|284:47,2,40,0|0|8
286,135,75497,1,0
288,174,75602,2,0,B|295:217|336:232,2,80,2|0|0
236,235,76236,1,0
181,294,76447,6,0,B|165:336,2,40,8|0|0
164,257,76764,1,8
141,223,76870,2,0,B|100:235,2,40,0|0|8
149,183,77187,1,0
161,145,77292,2,0,B|175:107|216:92,1,80,2|0
253,75,77609,2,0,B|292:51|337:106|368:82,1,120
414,147,78137,5,8
348,194,78349,2,0,B|323:155,2,40,0|8|0
274,225,78771,1,8
234,230,78877,1,0
194,227,78983,1,10
154,221,79088,2,0,B|136:172|93:171,2,80,0|8|0
155,261,79616,1,8
220,306,79828,5,8
300,301,80039,2,0,B|311:351,2,40,0|8|0
373,270,80461,2,0,B|400:306,2,40,8|0|2
416,202,80884,1,8
416,162,80990,1,0
416,121,81095,2,0,B|416:40,1,80,12|0
96,41,81518,5,8
79,77,81623,1,0
72,116,81729,2,0,B|60:163|96:191,1,80
150,133,82152,1,8
202,72,82363,2,0,B|232:102|228:147,1,80,2|0
226,184,82680,2,0,B|219:224,2,40
321,111,83208,5,8
347,140,83314,1,0
361,177,83419,1,0
356,216,83525,1,8
331,246,83630,2,0,B|295:280|264:290,1,80,0|8
224,289,83947,1,0
186,274,84053,1,2
223,203,84264,2,0,B|187:175|146:186,2,80
255,226,84792,1,0
273,261,84898,6,0,B|291:302|328:320,1,80,8|0
402,295,85321,2,0,B|424:332,2,40,0|0|8
394,255,85637,1,0
394,214,85743,2,0,B|393:167|408:133,1,80,2|0
393,97,86060,2,0,B|354:86|310:110,1,80
234,195,86588,6,0,B|151:179,1,80,8|0
167,141,86905,1,8
178,102,87011,1,0
256,118,87222,2,0,B|261:72,2,40,8|0|2
234,195,87644,1,0
229,234,87750,2,0,B|232:280|274:292,1,80
156,311,88278,6,0,B|114:318|76:296,1,80,8|0
219,264,88701,2,0,B|187:230|147:236,1,80,0|8
264,319,89123,1,2
395,258,89335,1,0
361,237,89440,2,0,B|338:202|292:203,1,80
177,168,89968,6,0,B|176:117,2,40,8|0|0
151,199,90285,1,8
123,228,90391,1,0
99,151,90602,2,0,B|70:122,2,40,8|0|2
177,168,91025,1,0
216,174,91130,2,0,B|256:185|296:168,1,80
402,221,91659,5,8
365,238,91764,2,0,B|325:254|285:246,1,80,0|8
246,246,92081,1,0
172,278,92292,2,0,B|132:280,2,40,8|0|10
243,314,92715,1,0
282,318,92821,2,0,B|328:325|367:312,1,80,8|0
400,307,93137,1,8
442,225,93349,5,8
411,199,93454,1,0
372,186,93560,1,0
332,187,93666,1,8
294,201,93771,2,0,B|260:229,2,40,0|0|8
294,160,94088,2,0,B|264:120,2,40,0|2|0
330,183,94405,2,0,B|392:132,1,80,8|12
326,86,94828,1,0
255,47,95039,5,8
200,105,95250,1,8
56,113,95461,1,0
113,168,95673,1,8
257,176,95884,1,2
206,237,96095,1,0
63,259,96306,1,0
122,313,96518,1,0
265,327,96729,5,8
337,292,96940,1,8
386,229,97152,2,0,B|414:190|388:156,2,80,8|0|2
112,320,97997,1,0
69,253,98208,1,0
212,267,98419,5,8
284,232,98630,1,8
333,169,98842,2,0,B|346:131|338:88,2,80,8|0|2
68,252,99687,1,0
25,185,99898,1,0
168,199,100109,5,8
240,164,100321,1,8
289,101,100532,2,0,B|302:63|294:20,2,80,8|0|2
444,142,101377,1,0
404,211,101588,1,0
361,278,101799,5,8
305,220,102011,1,8
164,255,102222,1,8
223,201,102433,1,0
358,151,102644,1,2
296,99,102856,1,0
161,151,103067,1,0
216,93,103278,1,0
350,41,103490,5,8
412,90,103701,1,8
455,157,103912,2,0,B|476:192|474:233,2,80,8|0|2
175,86,104757,1,0
176,165,104968,1,0
310,109,105180,5,8
372,158,105391,1,8
415,225,105602,2,0,B|436:260|434:301,2,80,8|0|2
135,154,106447,1,0
137,233,106659,1,0
270,177,106870,5,8
332,226,107081,1,8
375,293,107292,2,0,B|396:328|394:369,1,80,8|0
273,289,107715,2,0,B|209:242,1,80,2|0
239,95,108137,2,0,B|303:142,1,80,2|0
256,192,108560,1,4
174,128,122100,6,2,B|232:113,3,59.9999982118607,12|0|0|8
290,97,122946,2,2,B|347:77|412:99,1,119.999996423721,2|0
457,131,123579,1,2
472,188,123791,6,0,B|488:216|481:245,1,59.9999982118607,10|10
422,230,124213,2,2,B|392:220|364:229,1,59.9999982118607,8|0
307,253,124636,1,2
189,227,125058,1,0
146,185,125269,1,2
204,172,125481,6,0,B|240:163|252:131,1,59.9999982118607,10|10
192,117,125903,2,2,B|169:97|136:103,1,59.9999982118607,8|0
76,112,126326,1,2
78,232,126748,1,0
113,280,126960,1,2
171,293,127171,6,0,B|203:304|232:292,1,59.9999982118607,10|10
200,240,127593,2,2,B|199:207|223:184,1,59.9999982118607,8|0
270,151,128016,1,2
270,151,128439,1,0
319,116,128650,1,0
331,57,128861,6,2,B|292:44|250:60,3,75.9999972820283,8|8|8|0
182,77,129706,2,2,B|104:109|93:192,1,151.999994564057,2|0
98,266,130340,1,2
162,306,130551,6,0,B|200:328|232:296,1,75.9999972820283,10|10
187,236,130974,2,2,B|222:211|260:230,1,75.9999972820283,8|0
306,289,131396,1,2
422,191,131819,1,0
422,115,132030,1,2
356,75,132241,6,0,B|322:49|276:56,1,83.9999997496605,10|10
297,137,132664,2,2,B|271:174|228:184,1,83.9999997496605,8|0
200,104,133086,1,2
67,207,133509,1,0
81,289,133720,1,2
158,321,133911,6,0,B|229:342|298:316,1,138.000004523993,10|2
336,295,134333,2,0,B|378:268|389:220,1,92.0000030159951,8|8
402,131,134756,1,2
353,52,134967,1,2
339,52,135072,1,2
325,52,135178,1,2
311,52,135284,1,2
297,52,135389,1,2
283,52,135495,1,2
269,52,135601,6,0,B|221:56|180:78,1,92.0000030159951,12|0
335,137,136023,2,0,B|286:141|248:163,1,92.0000030159951,8|8
394,239,136446,2,0,B|314:230|294:295|218:289,1,184.00000603199,2|0
129,275,137080,1,0
63,210,137291,6,0,B|53:161|79:121,1,92.0000030159951,2|2
87,111,137608,1,2
98,103,137713,1,2
110,96,137819,1,2
123,92,137925,1,2
136,87,138030,1,2
149,86,138136,1,8
162,86,138981,6,0,B|211:84|246:49,2,92.0000030159951,12|0|0
232,145,139615,1,8
322,129,139826,2,0,B|397:191,1,92.0000030159951,2|0
232,145,140249,2,0,B|308:204,1,92.0000030159951,2|0
143,163,140671,6,0,B|198:202,1,61.3333353439967,2|8
136,299,140953,2,0,B|207:280,1,61.3333353439967,2|8
296,240,141234,2,0,B|368:239,2,61.3333353439967,2|2|8
296,240,142361,6,0,B|250:157,1,92.0000030159951,12|0
178,216,142784,2,0,B|188:122,1,92.0000030159951,0|8
95,127,143206,1,2
160,62,143418,1,0
249,82,143629,2,0,B|332:117,1,92.0000030159951,0|8
339,209,144051,6,0,B|268:272,1,92.0000030159951,8|8
222,191,144474,2,0,B|193:283,1,92.0000030159951,0|0
111,237,144896,1,2
140,324,145108,1,0
226,353,145319,2,0,B|320:352,1,92.0000030159951,0|8
349,265,145741,6,0,B|376:176,1,92.0000030159951,8|8
293,218,146164,2,0,B|288:123,1,92.0000030159951,8|0
222,191,146587,1,2
189,104,146798,1,0
133,177,147009,2,0,B|164:264,1,92.0000030159951,0|8
215,340,147432,6,0,B|310:289,1,92.0000030159951,8|8
353,368,147854,2,0,B|369:274,1,92.0000030159951,0|8
455,306,148277,1,2
420,220,148488,1,8
328,208,148699,2,0,B|298:118,1,92.0000030159951,8|8
268,86,149016,1,0
227,63,149122,6,0,B|140:101,1,92.0000030159951,12|0
100,118,149439,1,0
58,137,149544,2,0,B|120:206,1,92.0000030159951,12|8
69,281,149967,2,0,B|87:308|136:272|161:296,1,92.0000030159951,2|0
190,262,150284,2,0,B|208:289|257:253|282:277,1,92.0000030159951,0|0
323,265,150601,1,8
364,244,150706,1,0
402,219,150812,6,0,B|452:221,2,46.0000015079976,8|0|8
391,127,151234,2,0,B|348:98|304:120,1,92.0000030159951,8|0
262,139,151551,1,0
220,157,151657,2,0,B|172:180|135:149,1,92.0000030159951,2|0
89,135,151974,2,0,B|46:168|53:215,1,92.0000030159951
345,264,152502,6,0,B|356:316,2,46.0000015079976,8|0|0
252,264,152925,1,0
161,248,153136,2,0,B|137:296,2,46.0000015079976,8|0|2
227,184,153558,1,0
265,159,153664,2,0,B|276:130|248:96|263:67,1,92.0000030159951
397,98,154192,6,0,B|439:70,2,46.0000015079976,8|0|0
392,330,154615,1,8
436,249,154826,1,8
374,180,155037,2,0,B|328:198,2,46.0000015079976,2|0|8
401,143,155354,2,0,B|453:152,2,46.0000015079976
356,130,155671,1,0
312,116,155777,1,0
278,85,155882,6,0,B|268:30,2,46.0000015079976,8|0|0
186,95,156305,1,0
151,125,156411,1,0
145,170,156516,1,8
157,214,156622,1,0
195,239,156727,2,0,B|240:264|284:232,1,92.0000030159951,2|0
322,212,157044,2,0,B|372:192|412:222,1,92.0000030159951
444,249,157361,1,8
390,323,157572,5,8
231,336,157784,1,0
268,308,157889,1,0
109,333,158101,1,0
144,304,158206,1,8
256,192,158418,1,2
321,146,158629,2,0,B|347:109|404:116,2,92.0000030159951,8|8|0
248,110,159263,6,0,B|216:66,2,46.0000015079976,8|0|8
327,224,159685,2,0,B|363:269,2,46.0000015079976,8|0|0
290,206,160002,1,0
245,219,160108,2,0,B|197:229|157:201,1,92.0000030159951,2|0
126,166,160425,2,0,B|106:121|118:75,1,92.0000030159951
156,51,160741,1,8
256,69,160953,6,0,B|307:75|335:111,1,92.0000030159951,8|0
355,151,161270,1,0
358,197,161375,2,0,B|360:248|330:283,1,92.0000030159951,8|8
286,295,161692,1,0
240,303,161798,2,0,B|189:301|160:260,1,92.0000030159951,2|8
133,225,162115,1,0
119,180,162220,1,8
109,88,162432,1,8
187,39,162643,5,12
110,88,162854,1,8
274,66,163065,1,0
195,121,163277,1,8
359,101,163488,1,2
283,153,163699,1,0
448,135,163911,1,0
371,186,164122,1,0
205,265,164333,5,8
270,329,164544,1,8
360,343,164756,2,0,B|412:352|446:319,2,92.0000030159951,8|0|2
360,101,165601,1,0
283,152,165812,1,0
117,231,166023,5,8
182,295,166234,1,8
272,309,166446,2,0,B|324:318|358:285,2,92.0000030159951,8|0|2
273,67,167291,1,0
196,118,167502,1,0
30,197,167713,5,8
95,261,167925,1,8
185,275,168136,2,0,B|237:284|271:251,2,92.0000030159951,8|0|2
187,39,168981,1,0
110,88,169192,1,0
34,141,169403,5,8
123,159,169615,1,8
101,322,169826,1,0
172,265,170037,1,8
294,376,170249,1,2
295,284,170460,1,0
460,274,170671,1,0
390,214,170882,1,0
251,92,171094,5,8
183,29,171305,1,8
342,71,171516,2,0,B|388:72|432:55,2,92.0000030159951,8|0|2
294,376,172361,1,0
295,284,172572,1,0
299,99,172784,5,8
303,6,172995,1,8
373,155,173206,2,0,B|401:190|443:213,2,92.0000030159951,8|0|2
100,323,174051,1,0
172,265,174263,1,0
316,149,174474,5,8
390,92,174685,1,8
320,241,174896,2,0,B|311:286|320:332,2,92.0000030159951,8|0|2
34,141,175741,1,0
123,160,175953,1,0
306,193,176164,5,12
379,119,176375,1,8
207,194,176587,1,0
197,91,176798,1,8
205,276,177009,1,2
119,217,177220,1,0
276,317,177432,1,0
176,345,177643,1,0
124,144,177834,5,8
274,103,178045,1,8
394,203,178256,2,0,B|428:246|411:304,2,103.999998140335,8|0|2
205,275,179101,1,0
119,216,179312,1,0
239,47,179524,5,8
367,135,179735,1,8
369,291,179946,2,0,B|367:343|312:375,2,103.999998140335,8|0|2
207,195,180791,1,0
196,91,181003,1,0
403,74,181214,5,8
418,229,181425,1,8
299,330,181636,2,0,B|260:364|199:349,2,103.999998140335,8|0|2
82,268,182481,1,0
216,190,182693,1,0
371,180,182904,5,8
269,298,183115,1,8
139,209,183326,2,0,B|97:172|103:113,2,103.999998140335,8|0|2
257,37,184172,1,0
396,107,184383,1,0
389,262,184594,5,8
233,269,184805,1,8
102,182,185017,2,0,B|58:152|56:92,2,103.999998140335,8|0|2
303,131,185862,1,0
389,260,186073,1,0
233,268,186284,5,8
146,137,186495,1,8
303,131,186707,1,8
256,192,186918,12,4,189714
