osu file format v9

[General]
AudioFilename: Flobots_-_Handlebars_ALBUMRADIO_VERSION_HQ.mp3
AudioLeadIn: 0
PreviewTime: 13875
Countdown: 0
SampleSet: Normal
StackLeniency: 0.4
Mode: 0
LetterboxInBreaks: 0

[Editor]
DistanceSpacing: 1
BeatDivisor: 3
GridSize: 16

[Metadata]
Title:Handlebars
Artist:Flobots
Creator:Odaril
Version:Hard
Source:
Tags:fight with tools

[Difficulty]
HPDrainRate:5
CircleSize:4
OverallDifficulty:6
ApproachRate:6
SliderMultiplier:1.44
SliderTickRate:1

[Events]
//Background and Video events
0,0,"background.png"
//Break Periods
2,54675,66947
2,108759,121050
//Storyboard Layer 0 (Background)
//Storyboard Layer 1 (Fail)
//Storyboard Layer 2 (Pass)
//Storyboard Layer 3 (Foreground)
//Storyboard Sound Samples
//Background Colour Transformations
3,100,163,162,255

[TimingPoints]
382,422.535211267606,4,2,1,80,1,0
13094,-133.333333333333,4,2,1,45,0,0
13939,-133.333333333333,4,2,1,45,0,0
15582,-133.333333333333,4,2,1,45,0,0
17318,422.535211267606,4,2,1,45,1,0
17318,-133.333333333333,4,2,1,45,0,0
19035,-133.333333333333,4,2,1,45,0,0
20297,-133.333333333333,4,2,1,45,0,0
20694,-133.333333333333,4,2,1,45,0,0
22404,-133.333333333333,4,2,1,45,0,0
23659,-133.333333333333,4,2,1,45,0,0
24081,-133.333333333333,4,2,1,45,0,0
25760,-114.942528735632,4,1,2,45,0,0
27143,-100,4,1,2,80,0,0
27403,422.535211267606,4,1,2,80,1,0
30814,422.535211267606,4,1,2,80,1,0
31014,-100,4,1,2,80,0,0
93754,-100,4,1,2,63,0,0
93860,-100,4,1,2,66,0,0
93965,-100,4,1,2,69,0,0
94071,-100,4,1,2,72,0,0
94177,-100,4,1,2,75,0,0
94282,-100,4,1,2,78,0,0
94388,-100,4,1,2,81,0,0
94599,-100,4,1,2,84,0,0
94758,-100,4,1,2,87,0,0
95039,-100,4,1,1,90,0,1
108470,-100,4,1,1,90,0,1
108560,-100,4,1,1,90,0,0
110270,422.535211267606,4,1,1,80,1,0
122090,-133.333333333333,4,1,2,90,0,0
123470,-133.333333333333,4,2,2,70,0,0
124104,-133.333333333333,4,1,2,70,0,0
125160,-133.333333333333,4,2,2,70,0,0
125794,-133.333333333333,4,1,2,70,0,0
126850,-133.333333333333,4,2,2,70,0,0
127484,-133.333333333333,4,1,2,70,0,0
128752,-105.263157894737,4,1,2,80,0,0
130231,-105.263157894737,4,2,2,90,0,0
130864,-105.263157894737,4,1,2,90,0,0
131921,-105.263157894737,4,2,2,90,0,0
132238,-95.2380952380952,4,2,2,95,0,0
132555,-95.2380952380952,4,1,2,95,0,0
133611,-95.2380952380952,4,2,2,95,0,0
133911,422.535211267606,4,1,1,80,1,0
133911,-86.9565217391304,4,2,2,100,0,0
134667,-86.9565217391304,4,1,2,100,0,0
134878,-86.9565217391304,4,1,1,80,0,0
135565,-86.9565217391304,4,1,1,80,0,0
138981,-86.9565217391304,4,1,1,80,0,0
140671,-86.9565217391304,4,1,1,80,0,0
142329,-86.9565217391304,4,1,1,80,0,0
142788,-86.9565217391304,4,1,1,80,0,0
144055,-86.9565217391304,4,1,1,80,0,0
147449,-86.9565217391304,4,1,1,80,0,0
149129,-86.9565217391304,4,1,1,80,0,0
152495,-86.9565217391304,4,1,1,80,0,0
154213,-86.9565217391304,4,1,1,80,0,0
155013,-86.9565217391304,4,1,1,80,0,0
155852,-86.9565217391304,4,1,1,80,0,0
157591,-86.9565217391304,4,1,1,80,0,0
159261,-86.9565217391304,4,1,1,80,0,0
160961,-86.9565217391304,4,1,1,80,0,0
162643,-86.9565217391304,4,1,1,80,0,0
176164,-76.9230769230769,4,1,1,80,0,1
177834,422.535211267606,4,1,1,80,1,1
177834,-76.9230769230769,4,1,1,80,0,1
189714,422.535211267606,4,1,1,80,1,0
193124,422.535211267606,4,1,1,80,1,0
198194,447.761194029851,4,1,1,80,1,0
199985,461.538461538462,4,1,1,80,1,0
201831,600,4,1,1,80,1,0
202431,666.666666666667,4,1,1,80,1,0
203097,750,4,1,1,80,1,0
203847,857.142857142857,4,1,1,80,1,0

[Colours]
Combo1 : 252,206,120
Combo2 : 83,0,0
Combo3 : 148,56,1

[HitObjects]
62,275,13903,2,0,B|141:199,1,107.999996781349
225,134,14748,1,2
328,103,15170,1,0
393,189,15593,6,0,B|292:232,1,107.999996781349
187,251,16438,1,2
93,198,16860,1,0
84,305,17318,6,0,B|190:328,1,107.999996781349
287,281,18163,1,0
342,188,18585,1,2
433,245,19008,6,0,B|409:136,1,107.999996781349
333,63,19853,1,2
225,50,20275,1,0
117,55,20698,6,0,B|88:162,1,107.999996781349
193,186,21543,1,0
297,213,21965,1,2
269,317,22388,6,0,B|166:282,1,107.999996781349
193,186,23233,1,2
225,83,23656,1,0
117,88,24078,6,0,B|85:192,1,107.999996781349
193,186,24923,1,2
300,176,25346,1,0
305,301,25768,5,8
242,299,25979,1,8
181,285,26191,2,0,B|124:248|116:184,1,125.280002090836,8|2
196,86,27036,1,8
336,117,27403,6,0,B|376:58,2,72,8|0|0
375,255,28248,2,0,B|447:272,2,72,2|0|0
231,271,29093,6,8,B|216:332|160:349,2,108
217,200,29938,2,0,B|206:158|166:154,2,72,2|0|0
370,199,30814,6,0,B|369:118|299:82,1,144,8|0
234,53,31447,1,8
163,67,31659,2,0,B|114:93|57:78,2,108,2|0|0
211,120,32504,5,8
169,219,32821,1,8
262,273,33137,1,8
321,232,33349,2,0,B|335:191|372:183,2,72,2|0|0
188,288,34194,6,0,B|160:318,2,36,8|0|0
217,222,34616,2,0,B|235:186|216:154,1,72,0|8
153,188,35039,1,2
297,186,35461,1,0
395,81,35884,6,0,B|427:69,2,36,8|0|0
357,143,36306,2,0,B|380:176|365:212,1,72,0|8
297,186,36729,1,2
441,179,37152,1,0
362,58,37574,5,8
290,70,37785,2,0,B|263:44,2,36,0|8|0
237,119,38208,1,8
229,190,38419,1,10
208,259,38630,2,0,B|237:284,2,36,0|8|0
142,288,39053,1,8
76,257,39264,5,8
51,188,39475,2,0,B|9:185,2,36,0|8|0
98,133,39898,2,0,B|120:104|124:68,2,72,8|2|8
120,201,40532,1,12
252,258,40954,6,8,B|244:316|186:339,2,108,8|0|8
252,185,41799,1,2
252,113,42011,1,0
252,41,42222,1,0
322,166,42644,6,8,B|374:143|430:167,2,108,8|0|8
252,185,43490,1,2
182,202,43701,1,0
112,221,43912,1,0
229,315,44335,5,8
298,333,44546,2,0,B|337:333|368:319,2,72,0|0|8
282,262,45180,1,2
359,140,45602,1,0
222,185,46025,5,8
151,172,46236,2,0,B|132:204,2,36,0|8|0
196,116,46659,1,8
161,52,46870,2,0,B|83:80|75:159,1,144,2|0
114,295,47715,5,8
185,300,47926,2,0,B|228:360,2,72,0|0|8
233,246,48560,1,2
376,246,48983,1,0
397,103,49405,6,0,B|368:84|326:84,1,72,8|0
292,84,49722,2,0,B|212:84,1,72,8|0
183,84,50039,2,0,B|144:84|115:103,1,72,8|2
137,171,50461,1,0
103,235,50673,1,0
228,305,51095,5,8
295,272,51306,2,0,B|324:297,2,36,0|8|0
291,199,51729,1,8
221,185,51940,1,10
217,112,52152,2,0,B|188:87,2,36,0|8|0
284,79,52574,1,8
327,136,52785,5,8
350,241,53102,1,8
251,284,53419,1,8
182,262,53630,2,0,B|148:246|110:255,2,72,2|8|12
163,119,54475,1,8
153,121,67997,6,0,B|92:77,2,72,8|0|0
161,192,68630,1,8
153,263,68842,2,0,B|216:305|292:290,1,144,2|0
358,267,69475,1,0
401,209,69687,6,0,B|402:150|354:114,2,108,8|8|8
429,275,70532,1,2
358,267,70743,2,0,B|287:249,1,72
151,202,71377,6,0,B|125:128|184:69,1,144,8|0
236,118,72011,1,8
289,69,72222,2,0,B|346:126|320:200,1,108,2|0
208,290,73067,5,8
308,329,73384,1,8
410,296,73701,1,8
428,226,73912,2,0,B|426:188|450:160,2,72,2|0|0
283,219,74757,6,0,B|229:210|175:231,1,108,8|8
83,284,75391,1,8
73,212,75602,2,0,B|71:135|144:95,1,144,2|0
212,221,76447,6,0,B|234:189|244:154,1,72,8|0
241,120,76764,2,0,B|276:103|313:108,1,72,8|0
346,110,77081,2,0,B|379:128|380:169,1,72,8|2
330,221,77504,1,0
271,262,77715,1,0
127,255,78137,6,8,B|69:270|45:322,2,108
196,233,78983,1,10
296,192,79299,1,8
196,151,79616,1,8
127,129,79828,6,8,B|69:114|45:62,2,108
196,151,80673,1,2
254,192,80884,1,0
196,233,81095,1,12
311,146,81518,6,0,B|383:116|450:152,1,144,8|0
461,222,82152,1,8
399,259,82363,1,2
311,146,82785,1,0
184,75,83208,6,0,B|154:100|145:138,1,72,8|0
140,170,83525,1,8
97,269,83842,1,8
162,238,84053,2,0,B|200:243|236:222,2,72,2|0|0
289,170,84898,5,8
289,170,85321,2,0,B|292:129|260:106,1,72,0|8
190,94,85743,2,0,B|153:94|120:72,2,72,2|0|0
133,226,86588,5,8
132,226,87011,2,0,B|145:255|192:263,1,72,0|8
262,260,87433,2,0,B|294:240|334:256,2,72,2|0|0
388,193,88278,5,8
388,193,88490,1,0
427,260,88701,1,0
427,260,88912,1,8
389,328,89123,2,0,B|349:331|314:318,1,72,2|0
287,300,89440,2,0,B|256:277|220:272,1,72
265,173,89968,5,8
210,125,90180,2,0,B|209:84,2,36,0|8|0
147,160,90602,2,0,B|115:145,2,36,8|0|2
200,208,91025,2,0,B|156:272,2,72
263,174,91659,6,8,B|308:144|311:80,1,108
203,92,92292,1,8
191,163,92504,2,8,B|143:199|142:256,1,108,10|8
249,244,93137,1,8
317,221,93349,6,0,B|325:164|385:137,1,108,8|8
469,200,93983,1,8
424,257,94194,2,0,B|419:296|390:320,1,72,10|0
322,296,94616,2,0,B|295:317|253:322,1,72,12|0
240,236,95039,5,8
167,245,95250,1,8
136,178,95461,1,8
189,128,95673,1,0
254,164,95884,2,0,B|327:183|397:156,1,144,2|0
459,189,96518,1,8
398,227,96729,5,8
395,156,96940,1,8
437,98,97152,2,0,B|388:30|308:62,1,144,8|2
335,195,97997,1,0
399,228,98208,1,8
338,266,98419,5,8
335,195,98630,1,8
377,137,98842,2,0,B|328:69|248:101,1,144,8|2
275,234,99687,1,0
339,267,99898,1,8
278,305,100109,5,8
275,234,100321,1,8
317,176,100532,2,0,B|268:108|188:140,2,144,8|2|0
335,318,101799,5,8
408,327,102011,1,8
439,260,102222,1,8
386,210,102433,1,0
321,246,102644,2,0,B|248:265|178:238,1,144,2|0
121,195,103278,1,8
80,135,103490,5,8
129,83,103701,1,8
194,53,103912,2,0,B|260:28|335:60,1,144,8|2
220,298,104757,1,0
162,255,104968,1,8
121,195,105180,5,8
170,143,105391,1,8
235,113,105602,2,0,B|301:88|376:120,1,144,8|2
261,357,106447,1,0
203,314,106659,1,8
162,254,106870,5,8
211,202,107081,1,8
276,172,107292,2,0,B|342:147|417:179,1,144,8|2
370,234,107926,1,0
416,288,108137,2,0,B|341:319|275:294,1,144,2|12
52,142,122100,6,2,B|124:54|248:88,1,215.999993562699,8|2
342,137,123368,1,0
373,181,123579,1,10
385,233,123791,6,8,B|400:265|385:290,1,53.9999983906746,10|10
334,295,124213,2,2,B|280:272|228:291,1,107.999996781349,8|2
253,185,125058,1,0
216,224,125269,1,2
169,250,125481,6,0,B|140:264|114:251,1,53.9999983906746,10|10
81,211,125903,2,2,B|119:163|87:111,1,107.999996781349,8|2
187,71,126748,1,0
232,99,126960,1,2
280,74,127171,6,0,B|304:61|334:68,1,53.9999983906746,10|10
373,101,127593,2,2,B|361:158|405:202,1,107.999996781349,8|2
467,112,128439,1,0
442,246,128861,6,2,B|430:280|396:292,1,68.3999975538255,8|8
374,226,129284,2,2,B|309:197|240:222,1,136.799995107651,8|2
142,316,130129,1,0
97,264,130340,1,2
109,196,130551,6,0,B|106:158|132:133,1,68.3999975538255,10|10
79,88,130974,2,2,B|139:48|211:61,1,136.799995107651,8|2
204,197,131819,1,0
206,128,132030,1,2
271,165,132241,6,0,B|310:161|333:128,1,75.5999997746944,10|10
397,167,132664,2,2,B|364:242|399:314,1,151.199999549389,8|2
247,321,133509,1,0
258,246,133720,1,0
189,273,133911,6,0,B|117:272|100:191,1,124.200004071593,10|2
96,158,134333,1,8
256,115,134756,1,2
416,158,135178,1,2
340,192,135389,1,2
267,231,135601,6,0,B|183:232,2,82.8000027143956,12|0|0
337,274,136234,1,8
413,241,136446,2,0,B|461:317,2,82.8000027143956,2|0|0
348,88,137291,6,0,B|180:89,1,165.600005428791,8|2
55,195,138136,1,14
364,312,138981,6,0,B|279:308|217:245,1,165.600005428791,12|0
290,205,139615,1,8
367,176,139826,2,0,B|316:108|228:94,1,165.600005428791,2|2
117,217,140671,6,0,B|219:264,1,110.400003619194,2|2
313,270,141234,2,0,B|374:268,2,55.2000018095971,2|2|8
47,95,142361,6,0,B|211:75,1,165.600005428791,12|0
294,78,142995,1,8
377,80,143206,1,2
211,74,143629,1,0
171,147,143840,1,8
137,222,144051,6,0,B|301:202,1,165.600005428791,8|0
384,205,144685,1,8
467,207,144896,1,2
381,65,145319,1,0
298,69,145530,1,8
238,126,145741,5,8
159,153,145953,1,8
81,181,146164,2,0,B|24:246|27:336,2,165.600005428791,0|2|0
145,232,147220,1,0
226,245,147432,5,8
229,250,147854,1,8
312,247,148065,2,0,B|329:284,2,41.4000013571978,8|0|2
391,223,148488,1,8
331,165,148699,1,8
169,125,149122,5,12
172,128,149544,2,0,B|190:171|158:206,1,82.8000027143956,12|0
93,154,149967,2,0,B|75:89|131:31|189:48,1,165.600005428791,2|0
257,78,150601,1,0
334,105,150812,6,0,B|374:120|416:104,1,82.8000027143956,8|8
410,187,151234,2,0,B|397:276|312:313,1,165.600005428791,8|2
148,323,152080,1,0
285,230,152502,6,0,B|194:217|154:140,1,165.600005428791,8|0
207,76,153136,1,8
257,141,153347,2,0,B|333:97|418:106,1,165.600005428791,2|0
321,242,154192,5,8
398,271,154403,1,8
332,321,154615,2,0,B|279:329|255:298|225:266|247:214,1,165.600005428791,8|2
299,152,155249,1,0
333,128,155354,1,0
335,86,155460,1,0
252,87,155671,1,0
170,105,155882,6,0,B|148:69,2,41.4000013571978,8|0|0
116,168,156305,2,0,B|100:208|115:251,1,82.8000027143956,0|8
192,220,156727,2,0,B|275:244|357:214,1,165.600005428791,2|0
436,203,157361,1,0
460,282,157572,6,0,B|428:310|384:309,1,82.8000027143956,8|0
345,292,157889,2,0,B|301:277|266:298,1,82.8000027143956
232,324,158206,2,0,B|196:342|151:324,2,82.8000027143956,8|2|0
191,251,158840,1,0
147,180,159051,1,0
147,97,159263,6,8,B|234:93,1,82.8000027143956
281,157,159685,2,8,B|200:162,1,82.8000027143956
246,227,160108,2,0,B|412:220,1,165.600005428791,2|0
381,297,160741,1,0
298,306,160953,6,0,B|216:301,1,82.8000027143956,8|0
246,227,161375,2,0,B|177:177,1,82.8000027143956,8|0
252,135,161798,2,0,B|229:55,1,82.8000027143956,10|0
311,65,162220,2,0,B|336:145,1,82.8000027143956,8|8
347,225,162643,5,12
288,283,162854,1,8
229,224,163065,1,0
170,165,163277,1,8
228,106,163488,1,2
286,47,163699,1,0
344,105,163911,1,0
402,163,164122,1,8
452,228,164333,6,0,B|466:267|453:309,1,82.8000027143956,8|8
452,228,164756,2,0,B|518:142|428:84,1,165.600005428791,8|2
346,225,165601,1,0
288,283,165812,1,8
223,333,166023,6,0,B|184:347|142:334,1,82.8000027143956,8|8
223,333,166446,2,0,B|309:399|367:309,1,165.600005428791,8|2
229,224,167291,1,0
171,166,167502,1,8
121,101,167713,6,0,B|107:62|120:20,1,82.8000027143956,8|8
121,101,168136,2,0,B|55:187|145:245,1,165.600005428791,8|2
228,106,168981,1,2
286,47,169192,1,8
368,51,169403,5,8
440,90,169615,1,8
368,131,169826,1,8
424,191,170037,1,0
343,207,170249,1,2
344,289,170460,1,0
271,249,170671,1,0
222,316,170882,1,8
271,249,171094,6,8,B|271:202|229:181,1,82.8000027143956
166,233,171516,2,0,B|123:175|166:107|213:101,1,165.600005428791,8|2
342,207,172361,1,0
344,289,172572,1,8
342,207,172784,6,8,B|313:169|267:179,1,82.8000027143956
249,258,173206,2,0,B|179:238|171:158|204:125,1,165.600005428791,8|2
368,131,174051,1,0
422,190,174263,1,8
368,131,174474,6,8,B|321:122|293:159,1,82.8000027143956
329,229,174896,2,0,B|263:260|205:204|208:157,1,165.600005428791,8|2
368,131,175741,1,2
347,307,176164,5,12
260,343,176375,1,8
204,267,176587,1,0
110,271,176798,1,8
102,177,177009,1,2
12,149,177220,1,0
74,79,177432,1,0
1,22,177643,1,8
163,116,177834,6,8,B|210:134|256:132,1,93.5999983263016
440,115,178256,2,0,B|356:70|262:60,1,187.199996652603,8|2
102,177,179101,1,0
13,148,179312,1,8
198,181,179524,6,8,B|248:181|290:164,1,93.5999983263016
458,85,179946,2,0,B|363:71|271:94,1,187.199996652603,8|2
204,267,180791,1,0
110,270,181003,1,8
295,237,181214,6,8,B|342:220|376:189,1,93.5999983263016
507,58,181636,2,0,B|413:77|335:130,1,187.199996652603,8|2
161,200,182481,1,0
75,163,182693,1,8
212,289,182904,6,8,B|260:300|306:292,1,93.5999983263016
202,134,183326,2,0,B|294:115|388:136,1,187.199996652603,8|2
217,215,184172,1,0
310,219,184383,1,8
126,183,184594,6,8,B|120:133|136:89,1,93.5999983263016
153,277,185017,2,0,B|47:258|21:160,1,187.199996652603,8|2
382,60,185862,1,0
419,145,186073,1,8
337,313,186284,5,8
154,276,186495,1,8
175,90,186707,1,8
256,192,186918,12,4,189714
