osu file format v8

[General]
AudioFilename: Flobots_-_Handlebars_ALBUMRADIO_VERSION_HQ.mp3
AudioLeadIn: 0
PreviewTime: 52341
Countdown: 0
SampleSet: Normal
StackLeniency: 0.7
Mode: 0
LetterboxInBreaks: 1

[Editor]
Bookmarks: 135581,162623,189665
DistanceSpacing: 1
BeatDivisor: 4
GridSize: 16

[Metadata]
Title:Handlebars
Artist:Flobots
Creator:-Xero-
Version:Holocaust
Source:
Tags:Fight with Tools Indie

[Difficulty]
HPDrainRate:6
CircleSize:4
OverallDifficulty:7
ApproachRate:9
SliderMultiplier:2
SliderTickRate:1

[Events]
//Background and Video events
0,0,"handlebarsbg.png"
//Break Periods
2,108723,121338
//Storyboard Layer 0 (Background)
//Storyboard Layer 1 (Fail)
//Storyboard Layer 2 (Pass)
//Storyboard Layer 3 (Foreground)
Sprite,Foreground,Centre,"Are.png",320,240 F,0,130299,130722,0,1 M,0,130722,,326,296 S,0,130722,,1.0728 F,0,130722,133046,1 F,0,133046,133468,1,0
Sprite,Foreground,Centre,"33.png",320,240 F,0,135158,135370,1,0 M,0,135158,136848,320,240 F,0,135370,135581,0,1 F,0,135581,135792,1 F,0,135792,136003,1 F,0,136003,136215,1 F,0,136215,136426,1 F,0,136426,136637,1 F,0,136637,136848,1,0 M,0,136848,137060,320,240,254,241 F,0,136848,137060,0 F,0,137060,137271,0,1 F,0,137271,137693,1 F,0,137693,138116,1 F,0,138116,138539,1,0 F,0,138539,140229,0 F,0,140229,140651,0,1 F,0,140651,141496,1 F,0,141496,141919,1,0
Sprite,Foreground,Centre,"33.png",320,240 M,0,147412,,321,218 F,0,147412,147517,0,1 F,0,147517,147623,1,0 F,0,147623,147729,0,1 F,0,147729,147834,1,0 F,0,147834,147940,0,1 F,0,147940,148046,1,0 F,0,148046,148151,0,1 F,0,148151,148257,1,0 F,0,148257,148362,0,1 F,0,148362,148468,1,0 F,0,148468,148574,0,1 F,0,148574,148679,1,0 F,0,148679,148891,0,1 F,0,148891,161778,1 F,0,161778,162200,1,0
Sprite,Foreground,Centre,"33.png",320,240 F,0,177412,177623,0.96928,0 F,0,177623,177834,0,0.96928 M,0,177834,,459,248 F,0,177834,178046,0.96928,0 F,0,178046,178257,0,1 F,0,178257,178679,1 F,0,178679,179102,1,0
Sprite,Foreground,Centre,"33.png",320,240 F,0,179102,179313,1,0 F,0,179313,179524,0,1 M,0,179524,,460,248 F,0,179524,179736,1,0 F,0,179736,179947,0,1 F,0,179947,180370,1 F,0,180370,180792,1,0
Sprite,Foreground,Centre,"33.png",320,240 F,0,180792,181003,0.9488,0 F,0,181003,181215,0,0.9488 M,0,181215,,459,246 F,0,181215,181426,0.9488,0 F,0,181426,181637,0,0.9488 F,0,181637,182060,0.9488 F,0,182060,182482,0.9488,0
Sprite,Foreground,Centre,"33.png",320,240 F,0,182482,182693,1,0 F,0,182693,182905,0,1 M,0,182905,,180,247 F,0,182905,183116,1,0 F,0,183116,183327,0,1 F,0,183327,183750,1 F,0,183750,184172,1,0
Sprite,Foreground,Centre,"33.png",320,240 M,0,184172,,545,349 F,0,184172,184384,1,0 F,0,184384,184595,0,1 F,0,184595,184806,1,0 F,0,184806,185017,0,1 F,0,185017,185440,1 F,0,185440,185862,1,0
Sprite,Foreground,Centre,"33.png",320,240 F,0,185862,186074,0,0.908778 F,0,186074,187975,0.908778,1 F,0,187975,188186,1,0 F,0,188186,,1 F,0,188186,,0 F,0,188186,,0
//Storyboard Sound Samples
//Background Colour Transformations
3,100,163,162,255

[TimingPoints]
354,422.535211267606,4,2,0,100,1,0
13875,-100,4,2,0,50,0,0
26445,-100,4,2,0,80,0,0
52325,-100,4,2,0,0,0,0
54015,-100,4,2,0,80,0,0
94051,-100,4,2,0,0,0,0
94262,-100,4,2,0,30,0,0
94473,-100,4,2,0,60,0,0
94684,-100,4,2,0,100,0,0
94896,-100,4,2,0,72,0,0
95001,-100,4,2,0,81,0,1
108523,-100,4,2,0,80,0,0
128699,-100,4,1,0,80,0,0
138047,-200,4,1,0,80,0,0
138523,-100,4,1,0,0,0,0
138628,-100,4,1,0,80,0,0
141427,-200,4,1,0,81,0,0
141903,-100,4,1,0,0,0,0
142008,-100,4,1,0,80,0,0
148875,-66.6666666666667,4,1,0,80,0,1
162184,-100,4,1,0,80,0,0
162396,-100,4,1,0,80,0,1
175283,-100,4,1,0,80,0,0
175389,-100,4,2,0,80,0,0
176128,-100,4,1,0,80,0,1
177396,-66.6666666666667,4,1,0,80,0,1
189649,-100,4,1,0,80,0,0

[Colours]
Combo1 : 155,120,167
Combo2 : 255,128,128
Combo3 : 237,221,220

[HitObjects]
32,192,13875,2,0,B|160:192,1,100
256,256,14297,1,0
352,192,14508,1,0
256,128,14720,1,2
160,48,14931,1,0
288,32,15142,6,0,B|416:32,1,100
480,96,15565,1,0
480,224,15776,1,0
384,320,15987,1,2
224,32,16832,6,0,B|96:32,1,100
32,96,17255,1,0
32,224,17466,1,0
128,320,17677,1,2
448,192,18523,6,0,B|320:160,1,100
288,32,18945,1,0
192,128,19156,1,0
224,256,19368,1,2
32,32,20635,6,0,B|128:64,1,100
32,160,21058,1,0
128,256,21269,1,0
32,352,21480,1,2
128,256,21692,1,0
224,160,21903,6,0,B|320:192,1,100
352,320,22325,1,0
464,256,22537,1,0
448,128,22748,1,2
320,192,23593,6,0,B|224:160,1,100
192,32,24015,1,0
80,96,24227,1,0
96,224,24438,1,2
480,64,25283,6,0,B|480:192,1,100
352,192,25706,2,2,B|416:256,2,50
224,224,26128,2,2,B|160:288,2,50
256,64,26551,1,2
256,64,26973,5,2
256,320,27396,6,0,B|384:288,1,100
416,192,27818,1,2
256,64,28241,6,0,B|384:96,1,100
416,192,28663,1,2
160,128,29086,6,0,B|96:192|96:320,1,200,0|2
352,320,29931,2,0,B|416:256|416:128,1,200,0|2
160,128,30776,6,0,B|224:192|288:128|352:160,1,200,2|2
448,64,31410,1,0
480,192,31621,1,2
352,160,31832,1,2
384,288,32044,1,2
224,352,32255,5,2
224,352,32361,1,2
224,352,32466,2,0,B|160:384|64:352|64:256|96:224,1,200,2|0
160,160,33100,1,2
288,128,33311,2,0,B|352:192|416:128|480:160,1,200,0|2
256,32,34156,5,0
224,160,34368,2,0,B|160:224|96:160|32:192,1,200,2|0
96,320,35001,2,0,B|224:320,2,100,2|2|2
256,32,35846,5,0
288,160,36058,2,0,B|352:224|416:160|480:192,1,200,2|0
416,320,36692,2,0,B|288:320,2,100,2|2|2
224,160,37537,6,0,B|256:256,1,100
128,224,37959,2,0,B|64:224,2,50,2|0|2
112,64,38382,2,0,B|240:16|304:144,1,200,2|0
96,160,39227,6,0,B|192:128,1,100,2|0
160,256,39649,2,0,B|256:288,1,100,2|0
256,160,40072,2,0,B|352:128,1,100,2|0
320,256,40494,2,0,B|416:288,1,100,2|0
480,160,40917,5,0
416,32,41128,1,0
352,160,41339,1,2
96,96,41762,2,0,B|320:96,1,200,0|2
480,224,42607,5,0
416,352,42818,1,0
352,224,43030,1,2
96,288,43452,2,0,B|320:288,1,200,0|2
256,32,44297,5,0
160,96,44508,2,0,B|192:224|192:224,1,100,2|0
288,128,44931,2,0,B|320:256|320:256,1,100,2|0
416,160,45354,2,0,B|448:288|448:288,1,100,2|0
440,257,45776,5,2
320,320,45987,2,0,B|96:288,1,200
224,192,46621,1,2
160,64,46832,2,0,B|384:96,1,200,0|2
448,320,47677,5,0
448,192,47889,1,0
320,256,48100,2,0,B|96:256,1,200
32,160,48734,1,2
32,160,48945,1,2
448,64,49368,5,0
448,192,49579,1,0
320,128,49790,2,0,B|96:128,1,200
32,224,50424,1,2
32,224,50635,1,2
288,192,51058,6,0,B|192:160,1,100
192,32,51480,1,0
80,96,51692,1,2
32,224,51903,1,8
256,192,52325,12,4,54015
256,192,54438,5,4
160,96,54649,1,0
64,192,54861,1,0
320,96,55283,2,0,B|320:224,1,100
256,320,55706,1,0
128,320,55917,2,0,B|0:320,1,100
64,192,56339,1,2
160,96,56551,1,2
384,320,57396,6,0,B|512:320,1,100
448,192,57818,1,0
352,112,58030,1,2
288,224,58241,1,2
128,320,59086,6,0,B|0:320,1,100
64,192,59508,1,0
160,112,59720,1,2
224,224,59931,1,2
448,64,60987,5,0
448,64,61093,1,0
448,64,61199,2,0,B|384:64|320:0,1,100
224,32,61621,1,2
96,32,61832,2,0,B|96:96|160:160,1,100
256,128,62255,2,0,B|256:192|192:256,1,100,0|2
96,288,62677,2,0,B|192:352,1,100
320,320,63100,1,2
320,192,63311,1,2
32,32,64156,6,0,B|32:96|96:160,1,100,0|0
192,64,64579,1,2
320,64,64790,1,2
256,192,65001,1,2
480,32,65846,6,0,B|480:96|416:160,1,100,0|0
320,64,66269,1,2
192,64,66480,1,2
256,192,66692,1,2
256,192,67114,5,4
256,192,67537,5,4
32,320,67959,6,0,B|160:288,1,100,8|0
64,192,68382,1,2
64,192,68487,1,2
64,192,68593,1,2
32,64,68804,6,0,B|160:96,1,100,8|0
64,192,69227,1,2
64,192,69332,1,2
64,192,69438,1,2
192,192,69649,6,0,B|224:160|256:224|288:192,1,100,8|0
352,64,70072,1,0
448,160,70283,2,0,B|480:256,1,100,0|8
384,352,70706,1,2
384,352,70811,1,2
384,352,70917,1,2
320,96,71339,6,0,B|384:192|320:288,2,200,0|0|2
256,192,72396,1,2
192,288,72607,2,0,B|128:192|192:96,1,200,0|8
256,192,73241,5,2
256,192,73346,1,2
256,192,73452,1,2
288,64,73663,2,0,B|352:96|416:64,1,100,0|8
448,192,74086,1,2
448,192,74192,1,0
448,192,74297,1,0
448,192,74403,1,0
448,192,74508,1,2
288,288,74720,6,2,B|224:288,2,50,8|2|2
256,160,75142,2,0,B|256:96|224:64,1,100
128,128,75565,1,8
128,128,75670,1,2
128,128,75776,1,2
0,96,75987,2,0,B|0:160|32:192,1,100,0|2
96,288,76410,5,8
96,288,76515,1,2
96,288,76621,1,2
224,320,76832,1,0
352,288,77044,1,2
352,288,77149,1,2
352,288,77255,1,8
480,320,77466,2,0,B|480:96,1,200,0|2
320,64,78100,6,0,B|352:128,2,50,8|2|2
192,64,78523,1,0
192,64,78628,1,0
192,64,78734,2,0,B|240:160|128:160|192:272,1,200,0|2
288,192,79368,1,2
288,192,79473,1,2
288,192,79579,1,2
224,96,79790,6,0,B|128:128|128:128,2,100,8|0|0
160,192,80424,1,0
160,224,80530,1,0
160,256,80635,1,8
288,256,80846,1,2
288,224,80952,1,2
288,192,81058,1,4
96,32,81480,5,4
32,128,81692,2,0,B|448:64,1,400,2|0
352,160,82748,1,2
128,224,83170,6,0,B|128:288|160:320|224:352|288:320,1,200,8|2
352,288,83804,1,0
384,256,83910,1,0
416,224,84015,1,8
384,192,84121,1,2
352,160,84227,1,2
224,224,84438,2,0,B|96:224,1,100,2|2
64,128,84861,6,0,B|128:32|256:32,1,200,8|0
160,128,85494,1,2
192,128,85600,1,2
224,224,85811,1,2
256,224,85917,1,0
320,320,86128,1,0
352,320,86234,1,2
448,160,86551,5,8
320,160,86762,2,0,B|256:160|224:128,1,100,0|2
320,64,87184,2,0,B|384:64|416:96,1,100,0|8
416,224,87607,1,0
320,320,87818,2,0,B|192:320,1,100,2|0
256,192,88241,6,0,B|128:192,1,100,8|0
64,128,88663,2,0,B|192:128,1,100,10|0
160,256,89086,1,8
64,320,89297,2,0,B|192:320,2,100,2|8|2
256,320,89931,5,8
384,192,90142,1,2
256,64,90354,1,8
128,192,90565,1,2
160,192,90670,1,2
192,192,90776,1,8
256,64,90987,1,0
384,192,91199,1,8
384,192,91410,1,0
352,64,91621,5,8
384,64,91727,1,0
416,64,91832,1,0
480,160,92044,1,10
448,160,92149,1,2
416,160,92255,1,0
352,256,92466,1,10
384,256,92572,1,2
416,256,92677,1,2
480,352,92889,1,10
448,352,92994,1,2
416,352,93100,1,2
288,352,93311,5,8
32,352,93523,1,0
32,144,93734,1,8
288,144,93945,1,0
160,256,94156,1,2
160,256,94368,1,2
160,256,94579,1,2
160,256,94790,1,2
160,256,95001,6,0,B|224:224|288:192|288:192,1,100
192,128,95424,2,0,B|256:96|320:128|352:160|352:224,2,200,0|8|0
64,320,96692,6,0,B|288:288,2,200,0|8|8
128,96,97959,5,0
352,32,98382,6,0,B|384:256,2,200,0|8|8
128,96,99649,5,0
288,224,100072,6,0,B|384:288,4,100,8|0|8|0|8
96,64,101551,6,0,B|32:64,2,50
192,64,101973,1,0
96,64,102184,2,0,B|0:160|64:288,1,200,0|8
128,160,102818,1,0
256,112,103030,2,0,B|288:160|256:224,1,100
352,320,103452,2,0,B|288:384|224:288|160:352,2,200,0|8|8
96,224,104720,5,0
96,224,104931,1,0
224,160,105142,2,0,B|288:224|352:128|416:192,2,200,0|8|8
416,64,106410,5,0
448,96,106515,1,0
416,128,106621,1,0
320,96,106832,2,0,B|96:96,3,200,0|8|8|8
256,288,108523,5,4
224,64,121938,5,0
224,64,122044,2,2,B|288:144|160:224|224:352,1,300,2|0
288,240,122889,1,2
288,240,122994,1,0
288,240,123100,1,2
352,128,123311,1,2
352,128,123417,1,0
352,128,123523,1,2
224,64,123734,6,0,B|128:128,1,100,2|0
256,192,124156,1,2
160,288,124368,1,0
288,352,124579,1,2
288,352,124684,1,0
288,352,124790,1,2
384,256,125001,6,0,B|416:160,2,100,2|0|2
288,160,125635,1,2
288,160,125741,1,0
288,160,125846,1,2
192,256,126058,1,0
64,192,126269,1,2
64,192,126375,1,0
64,192,126480,1,2
160,96,126692,5,2
160,96,126903,1,0
288,64,127114,2,0,B|384:32,2,100,2|0|2
224,192,127748,1,2
224,192,127853,1,0
224,192,127959,1,2
224,192,128382,1,2
448,64,128804,5,2
384,192,129015,1,0
128,192,129227,1,2
384,128,129438,1,0
128,128,129649,1,2
256,64,129861,2,0,B|256:192,1,100,0|2
192,256,130283,6,0,B|256:352,1,100,0|2
352,256,130706,1,0
416,160,130917,2,0,B|448:64,1,100,2|0
320,64,131339,1,2
320,64,131445,1,0
320,64,131551,1,0
192,32,131762,6,0,B|128:128,2,100,2|0|2
192,160,132396,2,0,B|128:288,1,100,0|2
416,288,133030,1,2
256,192,133452,12,4,135142
192,32,135565,5,0
160,96,135670,1,0
192,160,135776,1,0
304,96,135987,1,4
400,192,136410,5,0
432,256,136515,1,0
400,320,136621,1,0
288,256,136832,1,4
320,128,137255,5,2
320,192,137361,1,2
288,256,137466,1,2
224,288,137572,1,0
160,288,137677,1,0
96,256,137783,1,0
64,192,137889,1,0
64,128,137994,1,0
96,64,138100,2,0,B|224:64,1,100
416,96,138945,6,0,B|320:128,1,100
416,192,139368,2,0,B|320:288,1,100
448,288,139790,2,0,B|416:384,2,100,2|0|2
224,288,140635,5,2
160,288,140741,1,2
96,256,140846,1,2
64,192,140952,1,0
64,128,141058,1,0
96,64,141163,1,0
160,32,141269,1,0
224,32,141375,1,0
288,64,141480,2,0,B|288:192,1,100
448,320,142325,6,0,B|320:288,1,100,0|0
96,256,142959,1,0
96,256,143170,2,0,B|64:352,2,100,2|2|2
448,64,144015,6,0,B|320:96,2,100,2|2|2
448,160,144649,1,0
448,160,144861,2,0,B|416:384,1,200,0|8
224,224,145706,6,0,B|0:256,1,200,0|8
256,64,146339,1,2
288,224,146551,2,0,B|512:256,1,200,0|8
480,32,147396,6,0,B|480:256,1,200,0|8
256,64,148030,1,2
32,32,148241,2,0,B|32:256,1,200,0|8
176,272,148875,5,0
176,272,148980,1,0
176,272,149086,2,0,B|336:288,2,149.999995529652,2|0|2
304,208,149720,2,0,B|144:192,2,149.999995529652,0|2|0
448,208,150354,1,2
368,80,150565,1,0
224,32,150776,5,2
224,32,150882,1,0
224,32,150987,2,0,B|48:16,1,149.999995529652,0|2
160,144,151410,1,0
64,256,151621,2,0,B|272:272,2,149.999995529652,2|0|2
352,176,152466,5,2
368,80,152677,2,0,B|272:80|176:144,1,149.999995529652,0|2
368,272,153100,2,0,B|272:272|176:208,1,149.999995529652,0|2
80,192,153523,1,0
80,192,153628,1,0
80,192,153734,1,2
80,48,153945,5,0
144,48,154051,1,0
144,112,154156,1,2
208,112,154262,1,0
464,128,154579,1,2
368,272,154790,1,0
368,272,154896,1,0
368,272,155001,1,2
368,272,155213,2,0,B|208:272,1,149.999995529652,0|2
240,128,155846,6,0,B|272:160|304:80|336:160,2,74.9999977648259,2|0|0
96,80,156269,1,2
48,128,156375,1,0
96,176,156480,1,0
176,320,156692,2,0,L|224:384|352:384,1,149.999995529652,2|0
384,384,157008,1,0
384,384,157114,1,6
96,64,157537,6,2,B|400:64,1,299.999991059304,0|2
384,208,158170,2,2,B|352:272|256:298|160:272|128:208,1,299.999991059304,0|4
368,64,159015,5,0
368,64,159121,1,0
368,64,159227,2,0,C|368:144|384:160|384:256,1,149.999995529652,2|0
272,304,159649,1,2
304,240,159755,1,0
272,176,159861,1,0
256,32,160072,1,2
176,32,160177,1,2
272,176,160389,1,2
352,176,160494,1,6
64,104,160917,6,0,B|432:104,1,299.999991059304,2|2
432,240,161551,2,0,B|512:240,2,74.9999977648259
288,288,161973,2,0,B|304:352|368:368|432:352|448:320,1,149.999995529652,0|6
416,64,162396,5,0
416,64,162501,1,0
416,64,162607,2,0,B|192:64,1,200
128,128,163241,1,2
64,224,163452,1,2
128,320,163663,2,0,B|256:320,1,100,0|2
128,320,164297,5,2
256,64,164508,1,2
384,320,164720,1,2
256,192,165142,5,8
256,192,165565,5,0
384,64,165987,1,2
256,320,166199,1,2
128,64,166410,1,2
256,192,166832,5,8
256,192,167255,5,0
448,192,167677,1,2
256,64,167889,1,2
256,320,168100,1,2
256,192,168523,5,8
480,32,169156,5,2
480,32,169262,1,2
480,32,169368,2,0,B|480:160|352:160,1,200
384,32,170001,1,2
256,64,170213,1,0
256,192,170424,1,0
352,288,170635,5,0
224,320,170846,2,2,B|96:320,3,100
32,96,171903,5,8
480,192,172325,5,0
352,192,172537,2,2,B|224:192,3,100
32,288,173593,5,8
256,192,174015,5,0
256,192,174227,1,0
160,128,174438,2,0,B|128:352,1,200,0|2
384,320,175283,5,8
384,192,175494,2,2,B|352:192,8,25
160,96,176128,5,2
64,160,176339,2,0,B|128:256,1,100
32,320,176762,1,2
160,320,176973,2,0,B|256:256,1,100,0|2
352,160,177396,5,2
144,160,177607,1,2
256,64,177818,2,0,B|256:128|224:160|224:160|288:208|288:208|256:256|256:352,2,299.999991059304,4|4|4
352,224,179086,5,2
144,224,179297,1,2
256,320,179508,2,0,B|256:256|224:224|224:224|288:176|288:176|256:128|256:32,2,299.999991059304,4|4|4
464,96,180776,5,2
464,304,180987,1,2
320,304,181199,2,0,B|160:304|160:304|144:288|144:256|160:240|160:240|256:240,2,299.999991059304,4|4|4
48,304,182466,5,2
48,96,182677,1,2
192,96,182889,2,0,B|352:96|352:96|368:112|368:144|352:160|352:160|256:160,2,299.999991059304,4|4|4
256,192,184156,5,2
256,192,184368,1,2
392,256,184579,2,0,L|304:256|288:272|216:272|208:256|88:256,2,299.999991059304,4|4|4
256,320,185846,5,2
256,320,186058,1,2
256,32,186269,1,0
160,224,186480,1,0
384,96,186692,1,0
128,96,186903,1,0
352,224,187114,1,4
256,32,187325,5,0
96,320,187537,1,4
480,96,187748,1,0
32,96,187959,1,4
416,320,188170,1,0
256,32,188382,1,4
256,160,188593,5,0
256,192,188699,1,0
256,224,188804,1,4
256,256,188910,1,0
256,288,189015,1,0
256,320,189121,1,0
256,352,189227,1,4
256,32,189649,5,4
