osu file format v14

[General]
AudioFilename: 06..mp3
AudioLeadIn: 0
PreviewTime: 11886
Countdown: 0
SampleSet: Soft
StackLeniency: 0.7
Mode: 0
LetterboxInBreaks: 0
WidescreenStoryboard: 0

[Editor]
DistanceSpacing: 1.2
BeatDivisor: 4
GridSize: 4
TimelineZoom: 1.4

[Metadata]
Title:Makuai ~Amefuru Mori~
TitleUnicode:幕間 ~雨降る森~
Artist:Floating Cloud
ArtistUnicode:Floating Cloud
Creator:Ekoro
Version:Rain
Source:東方Project
Tags:toshimasa irish The Gods Give Us Blessed Rain Sylphid Dream staff roll theme zun arrangement remix instrumental touhou intermission ~rainy forest~ c79 comiket 東方アイリッシュ 東方風神録 ~ Mountain of Faith
BeatmapID:464644
BeatmapSetID:195888

[Difficulty]
HPDrainRate:4
CircleSize:5
OverallDifficulty:4.5
ApproachRate:5.5
SliderMultiplier:0.9
SliderTickRate:1

[Events]
//Background and Video events
0,0,"279307.jpg",0,0
//Break Periods
//Storyboard Layer 0 (Background)
//Storyboard Layer 1 (Fail)
//Storyboard Layer 2 (Pass)
//Storyboard Layer 3 (Foreground)
//Storyboard Sound Samples

[TimingPoints]
11887,612.244897959184,4,2,1,50,1,0
13111,652.173913043478,4,2,1,50,1,0
15067,652.173913043478,4,2,1,50,1,0
15719,666.666666666667,4,2,1,50,1,0
17719,612.244897959184,4,2,1,50,1,0
18331,652.173913043478,4,2,1,50,1,0
22244,631.578947368421,4,2,1,50,1,0
22875,618.556701030928,4,2,1,50,1,0
23184,722.89156626506,4,2,1,50,1,0
23545,659.340659340659,4,2,1,50,1,0
25523,652.173913043478,4,2,1,50,1,0
26175,652.173913043478,4,2,1,50,1,0
28783,631.578947368421,4,2,1,50,1,0
32572,779.220779220779,4,2,1,10,1,0
33351,652.173913043478,4,2,1,50,1,0
41829,666.666666666667,4,2,1,50,1,0
43162,625,4,2,1,50,1,0
43787,652.173913043478,4,2,1,50,1,0
44439,652.173913043478,4,2,1,50,1,0
47047,666.666666666667,4,2,1,50,1,0
48047,638.297872340426,4,2,1,50,1,0
49004,652.173913043478,4,2,1,50,1,0
49656,645.161290322581,4,2,1,50,1,0
53204,779.220779220779,4,2,1,10,1,0
53593,652.173913043478,4,2,1,50,1,0
54897,652.173913043478,4,2,1,50,1,0
70508,652.173913043478,4,2,1,50,1,0
78375,652.173913043478,4,2,1,50,1,0
82940,610.376398779247,4,2,1,50,1,0
83537,674.157303370787,4,2,1,50,1,0
84885,652.173913043478,4,2,1,50,1,0
94993,-100,4,2,1,10,0,0

[Colours]
Combo1 : 128,128,192
Combo2 : 0,128,255
Combo3 : 55,109,136

[HitObjects]
0,20,11886,6,0,P|40:44|88:52,1,90
184,40,13111,6,0,P|240:32|400:152,1,270,2|2,0:0|0:0,0:0:0:0:
496,196,15719,2,0,L|504:60,2,135,2|2|0,0:0|0:0|0:0,0:0:0:0:
412,256,18331,6,0,P|344:264|284:236,2,135,0|2|0,0:0|0:0|0:0,0:0:0:0:
468,348,20939,2,0,L|288:364,1,180,2|0,0:0|0:0,0:0:0:0:
188,328,22875,5,0,0:0:0:0:
188,328,23184,1,0,0:0:0:0:
188,328,23545,2,0,P|164:272|56:244,1,180,2|0,0:0|0:0,0:0:0:0:
8,148,25523,1,2,0:0:0:0:
8,148,26175,2,0,L|0:12,2,135,2|2|0,0:0|0:0|0:0,0:0:0:0:
120,152,28783,6,0,P|384:80|500:280,1,540,2|0,0:0|0:0,0:0:0:0:
396,356,33351,1,0,0:0:0:0:
288,372,34003,6,0,L|104:352,1,180,2|0,0:0|0:0,0:0:0:0:
12,308,35959,1,2,0:0:0:0:
100,248,36611,2,0,P|104:184|84:112,2,135,2|2|0,0:0|0:0|0:0,0:0:0:0:
196,292,39220,5,0,0:0:0:0:
320,188,40198,2,0,L|456:176,1,135,2|0,0:0|0:0,0:0:0:0:
508,84,41829,2,0,P|416:96|336:68,1,180,2|0,0:0|0:0,0:0:0:0:
248,12,43787,5,2,0:0:0:0:
248,12,44113,1,0,0:0:0:0:
248,12,44439,2,0,P|228:68|44:112,1,270,2|2,0:0|0:0,0:0:0:0:
8,212,47047,2,0,L|76:220,1,67.5,2|0,0:0|0:0,0:0:0:0:
132,156,48047,2,0,L|268:144,1,135,2|2,0:0|0:0,0:0:0:0:
308,180,49330,1,0,0:0:0:0:
324,232,49656,6,0,P|324:260|72:184,1,495,2|0,0:0|0:0,0:0:0:0:
108,136,53593,6,0,L|204:128,1,90,0|2,0:0|0:0,0:0:0:0:
288,184,54897,6,0,L|472:200,1,180,2|0,0:0|0:0,0:0:0:0:
504,100,56853,1,2,0:0:0:0:
416,40,57505,2,0,P|360:60|284:52,1,135,2|2,0:0|0:0,0:0:0:0:
132,4,59462,1,0,0:0:0:0:
32,48,60114,6,0,L|20:192,2,135,0|2|0,0:0|0:0|0:0,0:0:0:0:
120,112,62723,2,0,P|186:120|284:64,1,180,2|0,0:0|0:0,0:0:0:0:
380,24,64679,5,0,0:0:0:0:
364,76,65005,1,2,0:0:0:0:
372,128,65331,2,0,B|384:200|460:188|476:272,1,180,2|0,0:0|0:0,0:0:0:0:
420,364,67288,1,2,0:0:0:0:
328,308,67940,2,0,P|260:292|192:296,1,135,2|2,0:0|0:0,0:0:0:0:
44,352,69897,1,0,0:0:0:0:
44,352,70508,6,0,P|96:300|92:116,1,270,2|0,0:0|0:0,0:0:0:0:
40,52,72954,6,0,L|84:48,1,45,2|2,0:0|0:0,0:0:0:0:
104,28,73443,2,0,L|148:32,1,45,0|2,0:0|0:0,0:0:0:0:
192,64,74094,2,0,L|196:88,2,22.5,0|0|2,0:0|0:0|0:0,0:0:0:0:
216,52,74584,2,0,L|220:28,2,22.5,0|0|2,0:0|0:0|0:0,0:0:0:0:
244,60,75074,2,0,L|288:56,1,45,0|2,0:0|0:0,0:0:0:0:
336,84,75725,6,0,L|380:88,1,45,0|2,0:0|0:0,0:0:0:0:
428,64,76377,2,0,L|468:60,1,22.5,0|2,0:0|0:0,0:0:0:0:
492,96,76867,2,0,P|484:128|484:164,1,67.5,2|0,0:0|0:0,0:0:0:0:
508,212,77682,2,0,L|504:268,1,45,2|0,0:0|0:0,0:0:0:0:
468,304,78375,6,0,P|424:316|380:312,1,90,2|0,0:0|0:0,0:0:0:0:
336,280,79353,2,0,L|324:144,1,135,2|0,0:0|0:0,0:0:0:0:
360,44,80983,5,0,0:0:0:0:
211,108,81961,2,0,P|117:120|36:68,1,191.25,2|0,0:0|0:0,0:0:0:0:
24,44,83537,2,0,L|12:224,1,180,2|0,0:0|0:0,0:0:0:0:
36,272,85211,1,0,0:0:0:0:
80,304,85536,2,0,L|124:308,1,45,2|0,0:0|0:0,0:0:0:0:
172,280,86188,6,0,B|292:220|314:334|436:276,1,270,2|2,0:0|0:0,0:0:0:0:
496,192,88797,2,0,L|492:124,1,67.5
428,76,89775,2,0,P|363:95|296:91,1,135,2|2,0:0|0:0,0:0:0:0:
204,36,91406,6,0,P|64:200|228:196,1,495,2|0,0:0|0:0,0:0:0:0:
