osu file format v14

[General]
AudioFilename: 01. .mp3
AudioLeadIn: 0
PreviewTime: -1
Countdown: 1
SampleSet: None
StackLeniency: 0.7
Mode: 0
LetterboxInBreaks: 1
WidescreenStoryboard: 0

[Editor]
Bookmarks: 34683,105761,472150
DistanceSpacing: 1.6
BeatDivisor: 4
GridSize: 4
TimelineZoom: 2

[Metadata]
Title:Kyoukai-sen o meguru fesuta
TitleUnicode:境界線を巡るフェスタ
Artist:Floating Cloud
ArtistUnicode:Floating Cloud
Creator:Ekoro
Version:Moonlight Dance
Source:東方Project
Tags:phantasm festa yukari yakumo necrofantasia toshimasa irish folk arrange
BeatmapID:1169968
BeatmapSetID:552445

[Difficulty]
HPDrainRate:4
CircleSize:4.5
OverallDifficulty:4.5
ApproachRate:8.5
SliderMultiplier:2
SliderTickRate:1

[Events]
//Background and Video events
0,0,"161448.jpg",0,0
//Break Periods
2,395151,404654
//Storyboard Layer 0 (Background)
//Storyboard Layer 1 (Fail)
//Storyboard Layer 2 (Pass)
//Storyboard Layer 3 (Foreground)
//Storyboard Sound Samples

[TimingPoints]
15264,857.142857142857,4,2,1,60,1,0
15264,-200,4,2,1,60,0,0
15692,666.666666666667,4,2,1,60,1,0
15692,-200,4,2,1,60,0,0
20358,750,4,2,1,5,1,0
20358,-200,4,2,1,5,0,0
20545,-200,4,2,1,60,0,0
22566,600,4,2,1,60,1,0
22566,-200,4,2,1,60,0,0
23466,750,4,2,1,60,1,0
23466,-200,4,2,1,60,0,0
27966,652.173913043478,4,2,1,5,1,0
27966,-200,4,2,1,5,0,0
28129,-200,4,2,1,60,0,0
29922,857.142857142857,4,2,1,60,1,0
29922,-200,4,2,1,60,0,0
30350,666.666666666667,4,2,1,60,1,0
30350,-200,4,2,1,60,0,0
34683,-200,4,2,1,5,0,0
34850,-200,4,2,1,60,0,0
35683,857.142857142857,4,2,1,60,1,0
35683,-200,4,2,1,60,0,0
36111,600,4,2,1,60,1,0
36111,-200,4,2,1,60,0,0
37011,1000,4,2,1,60,1,0
37011,-200,4,2,1,60,0,0
38011,857.142857142857,4,2,1,60,1,0
38011,-200,4,2,1,60,0,0
40153,1000,4,2,1,60,1,0
40153,-200,4,2,1,60,0,0
44653,652.173913043478,4,2,1,5,1,0
44653,-200,4,2,1,5,0,0
44816,-200,4,2,1,60,0,0
47261,750,4,2,1,60,1,0
47261,-200,4,2,1,60,0,0
47636,666.666666666667,4,2,1,60,1,0
47636,-200,4,2,1,60,0,0
48969,750,4,2,1,60,1,0
48969,-200,4,2,1,60,0,0
53469,666.666666666667,4,2,1,5,1,0
53469,-200,4,2,1,5,0,0
53635,-200,4,2,1,60,0,0
55135,600,4,2,1,60,1,0
55135,-200,4,2,1,60,0,0
55735,800,4,2,1,60,1,0
55735,-200,4,2,1,60,0,0
56135,666.666666666667,4,2,1,60,1,0
56135,-200,4,2,1,60,0,0
61468,545.454545454546,4,2,1,5,1,0
61468,-200,4,2,1,5,0,0
61604,-200,4,2,1,60,0,0
62558,750,4,2,1,60,1,0
62558,-200,4,2,1,60,0,0
62933,545.454545454546,4,2,1,60,1,0
62933,-200,4,2,1,60,0,0
63205,631.578947368421,4,2,1,60,1,0
63205,-200,4,2,1,60,0,0
63520,545.454545454546,4,2,1,60,1,0
63520,-200,4,2,1,60,0,0
63792,500,4,2,1,60,1,0
63792,-200,4,2,1,60,0,0
64042,857.142857142857,4,2,1,60,1,0
64042,-200,4,2,1,60,0,0
64470,666.666666666667,4,2,1,60,1,0
64470,-200,4,2,1,60,0,0
65803,705.882352941176,4,2,1,60,1,0
65803,-200,4,2,1,60,0,0
66155,600,4,2,1,60,1,0
66155,-200,4,2,1,60,0,0
66455,779.220779220779,4,2,1,60,1,0
66455,-200,4,2,1,60,0,0
68403,800,4,2,1,60,1,0
68403,-200,4,2,1,60,0,0
68603,857.142857142857,4,2,1,60,1,0
68603,-200,4,2,1,60,0,0
68817,895.522388059701,4,2,1,60,1,0
68817,-200,4,2,1,60,0,0
69712,923.076923076923,4,2,1,60,1,0
69712,-200,4,2,1,60,0,0
70635,600,4,2,1,60,1,0
70635,-200,4,2,1,60,0,0
74835,689.655172413793,4,2,1,5,1,0
74835,-200,4,2,1,5,0,0
75007,-200,4,2,1,60,0,0
77593,857.142857142857,4,2,1,60,1,0
77593,-200,4,2,1,60,0,0
78021,545.454545454546,4,2,1,60,1,0
78021,-200,4,2,1,60,0,0
78293,600,4,2,1,60,1,0
78293,-200,4,2,1,60,0,0
78893,500,4,2,1,60,1,0
78893,-200,4,2,1,60,0,0
79143,857.142857142857,4,2,1,60,1,0
79143,-200,4,2,1,60,0,0
83428,666.666666666667,4,2,1,5,1,0
83428,-200,4,2,1,5,0,0
83594,-200,4,2,1,60,0,0
84094,857.142857142857,4,2,1,60,1,0
84094,-200,4,2,1,60,0,0
84522,600,4,2,1,60,1,0
84522,-200,4,2,1,60,0,0
85122,545.454545454546,4,2,1,60,1,0
85122,-200,4,2,1,60,0,0
85394,500,4,2,1,60,1,0
85394,-200,4,2,1,60,0,0
85644,857.142857142857,4,2,1,60,1,0
85644,-200,4,2,1,60,0,0
86072,689.655172413793,4,2,1,60,1,0
86072,-200,4,2,1,60,0,0
87451,600,4,2,1,60,1,0
87451,-200,4,2,1,60,0,0
87601,500,4,2,1,60,1,0
87601,-200,4,2,1,60,0,0
91101,967.741935483871,4,2,1,5,1,0
91101,-200,4,2,1,5,0,0
91342,-200,4,2,1,60,0,0
92068,779.220779220779,4,2,1,60,1,0
92068,-200,4,2,1,60,0,0
92457,652.173913043478,4,2,1,60,1,0
92457,-200,4,2,1,60,0,0
92783,560.747663551402,4,2,1,60,1,0
92783,-200,4,2,1,60,0,0
93343,731.707317073171,4,2,1,60,1,0
93343,-200,4,2,1,60,0,0
93708,895.522388059701,4,2,1,60,1,0
93708,-200,4,2,1,60,0,0
94603,560.747663551402,4,2,1,60,1,0
94603,-200,4,2,1,60,0,0
95724,666.666666666667,4,2,1,60,1,0
95724,-200,4,2,1,60,0,0
96057,923.076923076923,4,2,1,60,1,0
96057,-200,4,2,1,60,0,0
97903,631.578947368421,4,2,1,60,1,0
97903,-200,4,2,1,60,0,0
98218,545.454545454546,4,2,1,60,1,0
98218,-200,4,2,1,60,0,0
98627,600,4,2,1,60,1,0
98627,-200,4,2,1,60,0,0
99827,750,4,2,1,60,1,0
99827,-200,4,2,1,60,0,0
104889,810.810810810811,4,2,1,5,1,0
104889,-200,4,2,1,5,0,0
105091,-200,4,2,1,60,0,0
106510,666.666666666667,4,2,1,60,1,0
106510,-200,4,2,1,60,0,0
106843,600,4,2,1,60,1,0
106843,-200,4,2,1,60,0,0
107143,705.882352941176,4,2,1,60,1,0
107143,-200,4,2,1,60,0,0
108201,789.473684210526,4,2,1,60,1,0
108201,-200,4,2,1,60,0,0
109779,600,4,2,1,60,1,0
109779,-200,4,2,1,60,0,0
110079,638.297872340426,4,2,1,60,1,0
110079,-200,4,2,1,60,0,0
110398,681.818181818182,4,2,1,60,1,0
110398,-200,4,2,1,60,0,0
113807,857.142857142857,4,2,1,5,1,0
113807,-200,4,2,1,5,0,0
114021,-200,4,2,1,60,0,0
114235,666.666666666667,4,2,1,60,1,0
114235,-200,4,2,1,60,0,0
114568,857.142857142857,4,2,1,60,1,0
114568,-200,4,2,1,60,0,0
114782,566.037735849057,4,2,1,60,1,0
114782,-200,4,2,1,60,0,0
120442,705.882352941176,4,2,1,5,1,0
120442,-200,4,2,1,5,0,0
120618,-200,4,2,1,60,0,0
121147,689.655172413793,4,2,1,60,1,0
121147,-200,4,2,1,60,0,0
121491,722.89156626506,4,2,1,60,1,0
121491,-200,4,2,1,60,0,0
121852,652.173913043478,4,2,1,60,1,0
121852,-200,4,2,1,60,0,0
122178,750,4,2,1,60,1,0
122178,-200,4,2,1,60,0,0
125553,631.578947368421,4,2,1,60,1,0
125553,-200,4,2,1,60,0,0
126184,705.882352941176,4,2,1,60,1,0
126184,-200,4,2,1,60,0,0
127242,1000,4,2,1,60,1,0
127242,-200,4,2,1,60,0,0
128242,857.142857142857,4,2,1,60,1,0
128242,-200,4,2,1,60,0,0
131670,705.882352941176,4,2,1,5,1,0
131670,-200,4,2,1,5,0,0
131846,-200,4,2,1,60,0,0
132375,857.142857142857,4,2,1,60,1,0
132375,-200,4,2,1,60,0,0
132803,631.578947368421,4,2,1,60,1,0
132803,-200,4,2,1,60,0,0
134066,645.161290322581,4,2,1,60,1,0
134066,-200,4,2,1,60,0,0
135356,750,4,2,1,60,1,0
135356,-200,4,2,1,60,0,0
135731,666.666666666667,4,2,1,60,1,0
135731,-200,4,2,1,60,0,0
138731,545.454545454546,4,2,1,5,1,0
138731,-200,4,2,1,5,0,0
138867,-200,4,2,1,60,0,0
139549,571.428571428571,4,2,1,60,1,0
139549,-200,4,2,1,60,0,0
139834,750,4,2,1,60,1,0
139834,-200,4,2,1,60,0,0
145084,1200,4,2,1,5,1,0
145084,-200,4,2,1,5,0,0
145384,-200,4,2,1,60,0,0
145684,937.5,4,2,1,60,1,0
145684,-200,4,2,1,60,0,0
146621,857.142857142857,4,2,1,60,1,0
146621,-200,4,2,1,60,0,0
147049,800,4,2,1,60,1,0
147049,-200,4,2,1,60,0,0
147849,857.142857142857,4,2,1,60,1,0
147849,-200,4,2,1,60,0,0
148277,923.076923076923,4,2,1,60,1,0
148277,-200,4,2,1,60,0,0
148738,1000,4,2,1,60,1,0
148738,-200,4,2,1,60,0,0
149238,923.076923076923,4,2,1,60,1,0
149238,-200,4,2,1,60,0,0
151084,1090.90909090909,4,2,1,5,1,0
151084,-200,4,2,1,5,0,0
151356,-200,4,2,1,60,0,0
151629,1052.63157894737,4,2,1,60,1,0
151629,-200,4,2,1,60,0,0
153851,392.156862745098,4,2,1,60,1,0
153851,-200,4,2,1,60,0,0
153949,-200,4,2,1,30,0,0
158556,392.156862745098,3,2,1,60,1,0
158556,-200,3,2,1,60,0,0
233752,-200,3,2,1,30,0,0
234439,392.156862745098,3,2,1,60,1,0
234439,-200,3,2,1,60,0,0
253262,394.736842105263,3,2,1,60,1,0
253262,-200,3,2,1,60,0,0
269051,405.405405405405,4,2,1,60,1,0
269051,-200,4,2,1,60,0,0
269861,392.156862745098,4,2,1,60,1,0
269861,-200,4,2,1,60,0,0
270253,461.538461538462,4,2,1,60,1,0
270253,-200,4,2,1,60,0,0
270714,392.156862745098,4,2,1,60,1,0
270714,-200,4,2,1,60,0,0
271170,461.538461538462,4,2,1,60,1,0
271170,-200,4,2,1,60,0,0
271631,428.571428571429,4,2,1,60,1,0
271631,-200,4,2,1,60,0,0
271916,666.666666666667,4,2,1,60,1,0
271916,-200,4,2,1,60,0,0
272138,461.538461538462,4,2,1,60,1,0
272138,-200,4,2,1,60,0,0
272599,428.571428571429,4,2,1,60,1,0
272599,-200,4,2,1,60,0,0
274741,375,4,2,1,60,1,0
274741,-200,4,2,1,60,0,0
275116,352.941176470588,4,2,1,60,1,0
275116,-200,4,2,1,60,0,0
275351,300,4,2,1,60,1,0
275351,-200,4,2,1,60,0,0
275551,333.333333333333,4,2,1,60,1,0
275551,-200,4,2,1,60,0,0
276773,300,4,2,1,60,1,0
276773,-200,4,2,1,60,0,0
277551,333.333333333333,4,2,1,60,1,0
277551,-200,4,2,1,60,0,0
277828,300,4,2,1,60,1,0
277828,-200,4,2,1,60,0,0
278028,375,4,2,1,60,1,0
278028,-200,4,2,1,60,0,0
278153,333.333333333333,4,2,1,60,1,0
278153,-200,4,2,1,60,0,0
279041,300,4,2,1,60,1,0
279041,-200,4,2,1,60,0,0
279141,375,4,2,1,60,1,0
279141,-200,4,2,1,60,0,0
279453,300,4,2,1,60,1,0
279453,-200,4,2,1,60,0,0
279603,375,4,2,1,60,1,0
279603,-200,4,2,1,60,0,0
279978,375,4,2,1,60,1,0
279978,-200,4,2,1,60,0,0
281040,300,4,2,1,60,1,0
281340,-153.846153846154,4,2,1,60,0,0
281640,333.333333333333,4,2,1,60,1,0
281640,-153.846153846154,4,2,1,60,0,0
281973,319.148936170213,4,2,1,60,1,0
281973,-153.846153846154,4,2,1,60,0,0
282611,319.148936170213,4,2,1,80,1,0
282611,-153.846153846154,4,2,1,80,0,0
303036,-125,4,2,2,80,0,1
323462,-153.846153846154,4,2,1,80,0,0
343887,-125,4,2,2,80,0,1
346041,-125,4,2,2,80,0,0
346121,-125,4,2,2,80,0,1
356254,-125,4,2,2,80,0,0
356334,-125,4,2,2,80,0,1
364313,-153.846153846154,4,2,1,80,0,0
394951,324.324324324324,4,2,1,40,1,0
394951,-200,4,2,1,40,0,0
415383,-200,4,2,1,5,0,0
415707,309.278350515464,4,2,1,80,1,1
415707,-133.333333333333,4,2,1,80,0,1
435397,-133.333333333333,4,2,1,80,0,0
435500,-111.111111111111,4,2,2,80,0,1
437588,-111.111111111111,4,2,2,80,0,0
437665,-111.111111111111,4,2,2,80,0,1
447485,-111.111111111111,4,2,2,80,0,0
447562,-111.111111111111,4,2,2,80,0,1
465191,-111.111111111111,4,2,2,80,0,0
465810,-111.111111111111,4,2,2,73,0,0
466428,-111.111111111111,4,2,2,66,0,0
467047,-111.111111111111,4,2,2,59,0,0
467665,-111.111111111111,4,2,2,52,0,0
468284,-111.111111111111,4,2,2,45,0,0
468902,-111.111111111111,4,2,2,38,0,0
469521,-111.111111111111,4,2,2,31,0,0
470139,-111.111111111111,4,2,2,24,0,0
470758,-111.111111111111,4,2,2,17,0,0
471377,-111.111111111111,4,2,2,10,0,0
471995,-111.111111111111,4,2,2,7,0,0
472150,-111.111111111111,4,2,2,5,0,0

[Colours]
Combo1 : 185,139,205
Combo2 : 128,128,192
Combo3 : 65,39,88
Combo4 : 163,216,220
Combo5 : 60,87,132

[HitObjects]
288,140,15264,5,0,0:0:0:0:
228,164,15692,1,0,0:0:0:0:
196,204,16025,1,0,0:0:0:0:
184,252,16358,2,2,P|232:336|488:112,1,600,2|0,0:0|0:0,0:0:0:0:
312,24,21858,5,0,0:0:0:0:
264,20,22233,1,0,0:0:0:0:
212,36,22566,1,0,0:0:0:0:
176,72,22866,1,2,0:0:0:0:
172,120,23166,1,0,0:0:0:0:
180,160,23466,1,0,0:0:0:0:
216,192,23841,2,2,B|344:220|360:108|484:136|484:136|396:184|384:268|440:312|504:292|504:208,1,550,2|0,0:0|0:0,0:0:0:0:
392,28,29922,5,0,0:0:0:0:
332,52,30350,1,0,0:0:0:0:
312,96,30683,1,0,0:0:0:0:
316,144,31016,2,2,B|496:176|520:296|480:340|392:360|344:324|320:212|444:104,1,550,2|0,0:0|0:0,0:0:0:0:
504,204,35683,5,0,0:0:0:0:
500,276,36111,1,0,0:0:0:0:
472,316,36411,1,0,0:0:0:0:
428,344,36711,1,2,0:0:0:0:
380,352,37011,1,0,0:0:0:0:
312,328,37511,1,0,0:0:0:0:
280,264,38011,2,2,L|276:188,1,75,2|0,0:0|0:0,0:0:0:0:
288,168,38868,1,0,0:0:0:0:
332,144,39296,1,0,0:0:0:0:
380,148,39725,5,0,0:0:0:0:
420,176,40153,1,0,0:0:0:0:
436,224,40653,2,2,P|336:348|136:268,1,400,2|0,0:0|0:0,0:0:0:0:
137,271,47261,5,0,0:0:0:0:
188,252,47636,1,0,0:0:0:0:
236,260,47969,1,0,0:0:0:0:
276,292,48302,1,0,0:0:0:0:
316,324,48636,1,2,0:0:0:0:
360,332,48969,1,0,0:0:0:0:
408,312,49344,2,2,P|464:236|184:68,1,550,2|0,0:0|0:0,0:0:0:0:
260,136,54135,5,0,0:0:0:0:
292,176,54469,1,0,0:0:0:0:
300,224,54802,1,0,0:0:0:0:
284,276,55135,1,0,0:0:0:0:
244,308,55435,1,2,0:0:0:0:
196,316,55735,1,0,0:0:0:0:
140,300,56135,2,2,P|64:240|48:136,1,200,2|0,0:0|0:0,0:0:0:0:
56,120,57635,1,0,0:0:0:0:
68,100,57801,2,2,P|352:36|484:224,1,550,2|0,0:0|0:0,0:0:0:0:
464,364,62558,5,0,0:0:0:0:
396,380,62933,1,0,0:0:0:0:
356,368,63205,1,0,0:0:0:0:
316,328,63520,1,0,0:0:0:0:
304,276,63792,1,2,0:0:0:0:
312,248,64042,1,0,0:0:0:0:
364,212,64470,2,2,P|424:192|464:72,1,200
428,24,66155,1,0,0:0:0:0:
368,8,66455,2,2,L|164:20,1,200,2|0,0:0|0:0,0:0:0:0:
112,48,68403,1,0,0:0:0:0:
100,68,68603,1,0,0:0:0:0:
88,88,68817,2,0,P|80:132|88:188,1,100
212,280,70635,1,0,0:0:0:0:
212,280,70785,2,2,B|272:224|360:236|312:420|440:432|516:364|516:260|468:184|384:188|328:200|328:272|344:372|248:400|168:352,1,675,2|0,0:0|0:0,0:0:0:0:
170,353,77593,5,0,0:0:0:0:
100,320,78021,1,0,0:0:0:0:
80,280,78293,1,0,0:0:0:0:
84,228,78593,1,0,0:0:0:0:
112,184,78893,1,2,0:0:0:0:
152,168,79143,1,0,0:0:0:0:
212,168,79571,2,2,B|320:168|296:268|380:292|464:272|500:216|504:124|448:100|384:116|380:172,1,450,2|0,0:0|0:0,0:0:0:0:
380,168,84094,5,0,0:0:0:0:
396,236,84522,1,0,0:0:0:0:
392,284,84822,1,0,0:0:0:0:
372,328,85122,1,0,0:0:0:0:
340,348,85394,1,2,0:0:0:0:
304,356,85644,1,0,0:0:0:0:
240,360,86072,2,2,B|136:336|152:392|36:368,1,200,2|0,0:0|0:0,0:0:0:0:
20,352,87601,1,0,0:0:0:0:
0,336,87726,2,2,P|0:248|460:120,1,675,2|0,0:0|0:0,0:0:0:0:
480,232,92068,5,0,0:0:0:0:
472,292,92457,1,0,0:0:0:0:
432,332,92783,1,2,0:0:0:0:
384,344,93063,1,0,0:0:0:0:
336,336,93343,1,2,0:0:0:0:
292,300,93708,1,0,0:0:0:0:
224,280,94155,1,2,0:0:0:0:
148,296,94603,2,2,P|52:288|0:200,1,200,0|2,0:0|0:0,0:0:0:0:
8,172,96057,1,0,0:0:0:0:
24,152,96287,1,0,0:0:0:0:
44,140,96518,2,0,L|200:148,1,150
244,176,98218,1,0,0:0:0:0:
248,200,98353,1,0,0:0:0:0:
232,244,98627,2,0,P|228:300|244:352,1,100
296,372,99827,1,0,0:0:0:0:
320,376,100014,1,0,0:0:0:0:
368,364,100389,2,2,P|456:288|200:40,1,600,2|0,0:0|0:0,0:0:0:0:
24,196,106510,5,0,0:0:0:0:
16,252,106843,1,0,0:0:0:0:
28,292,107143,2,2,P|92:344|156:348,1,150
416,292,109779,5,0,0:0:0:0:
436,248,110079,1,0,0:0:0:0:
444,200,110398,2,2,B|420:104|256:48|156:176|308:320|424:224|376:56|272:32,1,500,2|0,0:0|0:0,0:0:0:0:
208,24,114235,5,0,0:0:0:0:
168,28,114568,1,0,0:0:0:0:
140,36,114782,2,2,P|68:112|76:208,1,200
176,312,116763,2,2,B|256:364|364:348|332:232|424:216|520:244|524:436|384:472|252:428|272:220|344:176|436:180|496:228,1,650,2|0,0:0|0:0,0:0:0:0:
504,316,121147,5,2,0:0:0:0:
484,360,121491,1,0,0:0:0:0:
432,380,121852,1,0,0:0:0:0:
388,372,122178,1,2,0:0:0:0:
388,372,122928,2,2,B|276:280|164:392|52:292,1,350,0|0,0:0|0:0,0:0:0:0:
20,216,126184,5,0,0:0:0:0:
16,168,126536,1,0,0:0:0:0:
32,120,126889,1,0,0:0:0:0:
68,88,127242,1,2,0:0:0:0:
68,88,128242,2,2,P|208:60|328:260,1,400,2|0,0:0|0:0,0:0:0:0:
284,324,132375,5,0,0:0:0:0:
220,348,132803,1,0,0:0:0:0:
172,340,133118,2,2,P|108:300|80:228,1,150
112,64,135356,5,0,0:0:0:0:
160,32,135731,1,0,0:0:0:0:
208,20,136064,2,2,P|336:32|448:264,1,400,2|0,0:0|0:0,0:0:0:0:
408,344,139276,5,0,0:0:0:0:
360,352,139549,1,0,0:0:0:0:
316,360,139834,1,2,0:0:0:0:
316,360,141334,2,2,P|108:324|32:68,1,500,2|0,0:0|0:0,0:0:0:0:
84,36,145684,5,2,0:0:0:0:
132,32,146152,1,0,0:0:0:0:
180,60,146621,1,0,0:0:0:0:
200,108,147049,1,0,0:0:0:0:
200,156,147449,1,2,0:0:0:0:
220,200,147849,1,0,0:0:0:0:
260,224,148277,1,0,0:0:0:0:
308,224,148738,1,0,0:0:0:0:
356,196,149238,2,2,P|348:96|264:40,1,200,2|0,0:0|0:0,0:0:0:0:
220,32,151629,6,2,L|116:40,1,100,2|0,0:0|0:0,0:0:0:0:
24,176,153851,6,0,L|20:232,1,50,2|0,0:0|0:0,0:0:0:0:
92,204,154243,2,0,L|88:260,1,50
144,152,154635,6,0,L|140:96,1,50
212,124,155027,2,0,L|208:68,1,50
272,172,155419,6,0,L|268:228,1,50
340,200,155811,2,0,L|336:256,1,50
392,148,156203,6,0,L|388:92,1,50
460,120,156595,2,0,L|456:64,1,50
512,176,156988,6,0,P|512:204|508:228,1,50
484,288,157380,2,0,P|466:309|447:325,1,50
343,249,157772,6,0,P|343:221|339:197,1,50
315,137,158164,2,0,P|297:115|278:99,1,50
174,176,158556,6,0,P|144:220|96:240,1,100,2|0,0:0|0:0,0:0:0:0:
32,232,159144,2,0,L|36:336,1,100,2|2,0:0|0:0,0:0:0:0:
35,331,160124,1,2,0:0:0:0:
104,352,160320,1,2,0:0:0:0:
168,320,160516,1,0,0:0:0:0:
236,340,160712,1,2,0:0:0:0:
300,308,160908,6,0,P|352:304|396:328,1,100,0|2,0:0|0:0,0:0:0:0:
393,325,161399,1,2,0:0:0:0:
393,325,161497,1,2,0:0:0:0:
496,228,161889,1,0,0:0:0:0:
436,192,162085,1,2,0:0:0:0:
408,128,162281,1,0,0:0:0:0:
416,60,162477,5,2,0:0:0:0:
352,92,162673,1,2,0:0:0:0:
284,88,162869,1,0,0:0:0:0:
224,56,163065,1,0,0:0:0:0:
176,4,163261,5,2,0:0:0:0:
52,64,163654,1,0,0:0:0:0:
52,64,163850,2,0,L|48:164,1,100,2|2,0:0|0:0,0:0:0:0:
48,163,164830,1,2,0:0:0:0:
112,195,165026,1,2,0:0:0:0:
180,191,165222,1,0,0:0:0:0:
240,159,165418,1,2,0:0:0:0:
288,107,165614,6,0,L|392:112,1,100
387,111,166105,1,0,0:0:0:0:
387,111,166203,1,2,0:0:0:0:
500,196,166595,1,0,0:0:0:0:
488,264,166791,1,2,0:0:0:0:
440,316,166987,1,0,0:0:0:0:
372,328,167183,5,2,0:0:0:0:
308,300,167379,1,2,0:0:0:0:
240,292,167575,1,0,0:0:0:0:
172,308,167771,1,2,0:0:0:0:
112,344,167967,6,0,L|56:348,1,50
0,316,168359,1,0,0:0:0:0:
60,276,168556,2,0,P|68:228|60:176,1,100,2|0,0:0|0:0,0:0:0:0:
8,132,169144,2,0,L|4:80,1,50,2|0,0:0|0:0,0:0:0:0:
52,32,169536,1,0,0:0:0:0:
116,56,169732,2,0,L|112:108,1,50,2|0,0:0|0:0,0:0:0:0:
160,156,170124,1,0,0:0:0:0:
228,176,170320,6,0,P|256:172|276:164,1,50,2|0,0:0|0:0,0:0:0:0:
332,120,170712,1,0,0:0:0:0:
400,104,170908,1,2,0:0:0:0:
468,128,171105,1,0,0:0:0:0:
508,184,171301,1,0,0:0:0:0:
512,252,171497,2,0,L|504:356,1,100,2|0,0:0|0:0,0:0:0:0:
436,368,172085,1,2,0:0:0:0:
372,336,172281,1,2,0:0:0:0:
304,352,172477,1,0,0:0:0:0:
244,312,172673,6,0,L|240:256,1,50
272,200,173065,1,0,0:0:0:0:
336,168,173261,2,0,P|388:164|436:184,1,100,2|0,0:0|0:0,0:0:0:0:
496,156,173850,2,0,L|500:104,1,50,2|0,0:0|0:0,0:0:0:0:
464,44,174242,1,2,0:0:0:0:
396,24,174438,2,0,L|348:46,1,50,0|2,0:0|0:0,0:0:0:0:
315,107,174830,1,0,0:0:0:0:
332,176,175026,6,0,L|375:205,1,50,2|0,0:0|0:0,0:0:0:0:
444,204,175418,1,0,0:0:0:0:
496,156,175614,2,0,L|500:104,1,50,2|0,0:0|0:0,0:0:0:0:
464,44,176006,1,0,0:0:0:0:
396,24,176202,2,0,P|344:24|300:40,1,100,2|0,0:0|0:0,0:0:0:0:
244,84,176791,1,2,0:0:0:0:
220,148,176987,1,2,0:0:0:0:
232,216,177183,1,0,0:0:0:0:
276,272,177379,6,0,L|328:280,1,50
376,328,177771,1,0,0:0:0:0:
312,352,177967,2,0,P|260:344|212:352,1,100,2|0,0:0|0:0,0:0:0:0:
148,372,178556,2,0,L|96:368,1,50,2|0,0:0|0:0,0:0:0:0:
40,328,178948,1,0,0:0:0:0:
104,296,179144,2,0,L|156:292,1,50,2|0,0:0|0:0,0:0:0:0:
212,252,179536,1,0,0:0:0:0:
152,220,179732,6,0,L|100:216,1,50,2|0,0:0|0:0,0:0:0:0:
44,176,180124,1,0,0:0:0:0:
28,108,180320,1,2,0:0:0:0:
60,44,180516,1,0,0:0:0:0:
124,12,180712,1,0,0:0:0:0:
192,20,180908,2,0,P|244:28|292:20,1,100,2|0,0:0|0:0,0:0:0:0:
360,12,181497,1,2,0:0:0:0:
424,44,181693,1,2,0:0:0:0:
456,108,181889,1,0,0:0:0:0:
440,176,182085,6,0,P|440:208|444:228,1,50
488,280,182477,1,0,0:0:0:0:
420,292,182673,2,0,P|380:316|352:368,1,100,2|0,0:0|0:0,0:0:0:0:
284,376,183261,2,0,L|232:372,1,50,2|0,0:0|0:0,0:0:0:0:
172,340,183654,1,2,0:0:0:0:
108,308,183850,2,0,L|56:312,2,50,0|2|0,0:0|0:0|0:0,0:0:0:0:
164,268,184438,6,0,P|168:240|168:216,1,50,2|0,0:0|0:0,0:0:0:0:
120,168,184830,1,0,0:0:0:0:
72,116,185026,2,0,P|68:88|68:64,2,50,2|0|0,0:0|0:0|0:0,0:0:0:0:
120,168,185614,2,0,P|172:172|220:156,1,100,2|0,0:0|0:0,0:0:0:0:
272,112,186203,1,2,0:0:0:0:
340,104,186399,1,2,0:0:0:0:
404,132,186595,1,0,0:0:0:0:
444,188,186791,6,0,L|448:240,2,50,2|0|0,0:0|0:0|0:0,0:0:0:0:
472,124,187379,1,2,0:0:0:0:
472,124,187575,2,0,L|476:92,2,25,2|2|2,0:0|0:0|0:0,0:0:0:0:
404,132,187967,5,2,0:0:0:0:
340,104,188163,1,0,0:0:0:0:
272,112,188359,1,0,0:0:0:0:
216,157,188556,2,0,P|212:208|224:256,1,100,2|0,0:0|0:0,0:0:0:0:
272,304,189144,6,0,L|324:312,2,50,2|0|0,0:0|0:0|0:0,0:0:0:0:
204,320,189732,1,2,0:0:0:0:
204,320,189928,2,0,L|176:324,2,25,2|2|2,0:0|0:0|0:0,0:0:0:0:
252,372,190320,5,2,0:0:0:0:
320,380,190516,1,0,0:0:0:0:
384,348,190712,1,0,0:0:0:0:
452,356,190908,2,0,P|476:312|484:256,1,100,2|0,0:0|0:0,0:0:0:0:
440,208,191497,6,0,L|388:200,1,50,2|0,0:0|0:0,0:0:0:0:
324,224,191889,1,0,0:0:0:0:
260,248,192085,2,0,L|208:240,2,50,0|2|0,0:0|0:0|0:0,0:0:0:0:
312,296,192673,6,0,P|304:320|288:344,1,50,2|0,0:0|0:0,0:0:0:0:
228,368,193065,1,0,0:0:0:0:
160,372,193261,2,0,P|137:359|116:340,2,50,2|0|0,0:0|0:0|0:0,0:0:0:0:
210,240,193850,6,0,P|202:216|186:192,1,50,2|0,0:0|0:0,0:0:0:0:
126,168,194242,1,0,0:0:0:0:
58,164,194438,2,0,P|35:176|14:195,2,50,2|0|0,0:0|0:0|0:0,0:0:0:0:
126,168,195026,6,0,L|152:64,1,100,2|0,0:0|0:0,0:0:0:0:
204,28,195614,1,2,0:0:0:0:
272,20,195810,1,2,0:0:0:0:
336,48,196006,1,0,0:0:0:0:
376,108,196203,6,0,L|384:164,2,50,2|0|0,0:0|0:0|0:0,0:0:0:0:
408,44,196791,1,2,0:0:0:0:
408,44,196987,2,0,L|412:12,2,25,2|2|2,0:0|0:0|0:0,0:0:0:0:
448,100,197379,5,2,0:0:0:0:
476,164,197575,1,0,0:0:0:0:
460,232,197771,1,0,0:0:0:0:
488,296,197967,2,0,P|472:344|428:376,1,100,2|0,0:0|0:0,0:0:0:0:
364,380,198556,6,0,L|308:372,2,50,2|0|0,0:0|0:0|0:0,0:0:0:0:
392,316,199144,2,0,P|384:280|356:248,1,75,2|0,0:0|0:0,0:0:0:0:
332,232,199536,1,2,0:0:0:0:
264,220,199732,5,2,0:0:0:0:
196,236,199928,1,0,0:0:0:0:
140,280,200124,1,0,0:0:0:0:
112,344,200320,5,2,0:0:0:0:
112,276,200516,5,0,0:0:0:0:
76,216,200712,1,0,0:0:0:0:
16,184,200908,6,0,L|12:132,1,50,2|0,0:0|0:0,0:0:0:0:
84,128,201301,2,0,L|80:76,1,50,2|0,0:0|0:0,0:0:0:0:
152,72,201693,2,0,L|148:20,1,50,2|0,0:0|0:0,0:0:0:0:
199,186,202085,6,0,L|195:238,1,50,2|0,0:0|0:0,0:0:0:0:
267,242,202478,2,0,L|263:294,1,50,2|0,0:0|0:0,0:0:0:0:
335,298,202869,2,0,L|332:344,2,33.3333333333333,2|0|0,0:0|0:0|0:0,0:0:0:0:
372,272,203261,6,0,P|396:268|428:268,1,50,2|0,0:0|0:0,0:0:0:0:
488,288,203654,1,0,0:0:0:0:
472,220,203850,2,0,P|456:201|440:173,1,50,2|0,0:0|0:0,0:0:0:0:
427,111,204243,1,0,0:0:0:0:
376,160,204438,6,0,P|367:182|316:236,1,100,2|0,0:0|0:0,0:0:0:0:
180,208,205222,1,0,0:0:0:0:
136,340,205614,6,0,P|256:372|376:340,1,250,2|2,0:0|0:0,0:0:0:0:
196,128,207379,2,0,L|36:144,2,150,2|2|2,0:0|0:0|0:0,0:0:0:0:
376,340,209144,6,0,P|256:372|136:340,1,250,2|2,0:0|0:0,0:0:0:0:
316,128,210908,2,0,L|476:144,2,150,2|2|2,0:0|0:0|0:0,0:0:0:0:
316,128,212673,6,0,L|156:112,2,150,2|2|2,0:0|0:0|0:0,0:0:0:0:
488,252,214438,1,0,0:0:0:0:
392,352,214830,1,2,0:0:0:0:
256,384,215222,1,0,0:0:0:0:
120,352,215614,1,2,0:0:0:0:
24,252,216006,1,0,0:0:0:0:
24,252,216203,2,0,L|12:0,1,250,2|2,0:0|0:0,0:0:0:0:
276,88,217967,2,0,L|264:340,1,250,2|2,0:0|0:0,0:0:0:0:
20,204,219732,6,0,P|36:64|124:20,1,250,2|2,0:0|0:0,0:0:0:0:
340,196,221497,2,0,L|352:352,2,150,2|2|2,0:0|0:0|0:0,0:0:0:0:
132,144,223261,6,0,P|148:284|236:328,1,250,2|2,0:0|0:0,0:0:0:0:
452,152,225026,2,0,L|464:-4,2,150,2|2|2,0:0|0:0|0:0,0:0:0:0:
452,152,226791,6,0,L|440:308,2,150,2|2|2,0:0|0:0|0:0,0:0:0:0:
296,12,228556,1,0,0:0:0:0:
156,28,228948,1,2,0:0:0:0:
124,164,229340,1,0,0:0:0:0:
248,232,229732,1,2,0:0:0:0:
356,140,230124,1,0,0:0:0:0:
356,140,230320,2,0,P|432:168|480:328,1,250,2|2,0:0|0:0,0:0:0:0:
208,376,232085,2,0,P|132:348|44:64,1,400,2|0,0:0|0:0,0:0:0:0:
100,36,233850,5,4,1:3:0:0:
168,32,234046,1,4,1:3:0:0:
236,28,234242,1,4,1:3:0:0:
304,24,234438,6,0,L|360:32,1,50
416,60,234831,1,0,0:0:0:0:
480,92,235027,2,0,P|488:140|480:192,1,100,2|0,0:0|0:0,0:0:0:0:
416,220,235615,2,0,L|366:227,1,50,2|0,0:0|0:0,0:0:0:0:
300,204,236007,1,0,0:0:0:0:
236,180,236203,2,0,L|180:172,1,50,2|0,0:0|0:0,0:0:0:0:
120,196,236595,1,0,0:0:0:0:
56,224,236791,5,2,0:0:0:0:
44,292,236988,1,0,0:0:0:0:
80,352,237184,1,0,0:0:0:0:
148,368,237380,1,2,0:0:0:0:
212,340,237576,1,0,0:0:0:0:
280,328,237772,1,0,0:0:0:0:
348,348,237968,2,0,P|400:356|448:340,1,100,2|0,0:0|0:0,0:0:0:0:
492,292,238556,2,0,L|496:240,2,50,2|2|0,0:0|0:0|0:0,0:0:0:0:
424,276,239144,6,0,L|420:224,1,50
380,168,239537,1,0,0:0:0:0:
316,140,239733,2,0,P|264:132|216:148,1,100,2|0,0:0|0:0,0:0:0:0:
160,184,240321,2,0,L|163:233,1,50,2|0,0:0|0:0,0:0:0:0:
208,288,240713,1,2,0:0:0:0:
276,312,240909,2,0,L|279:262,1,50,0|2,0:0|0:0,0:0:0:0:
324,208,241301,1,0,0:0:0:0:
392,184,241497,6,0,L|395:233,1,50,2|0,0:0|0:0,0:0:0:0:
440,288,241889,1,0,0:0:0:0:
440,288,242086,2,0,L|436:337,1,50,2|0,0:0|0:0,0:0:0:0:
376,376,242478,1,0,0:0:0:0:
376,376,242674,2,0,P|324:384|276:368,1,100,2|0,0:0|0:0,0:0:0:0:
228,320,243262,1,2,0:0:0:0:
164,292,243458,1,2,0:0:0:0:
96,296,243654,1,0,0:0:0:0:
32,324,243850,6,0,L|28:380,2,50
0,260,244439,2,0,L|8:156,1,100,2|0,0:0|0:0,0:0:0:0:
48,104,245027,2,0,L|44:48,1,50,2|0,0:0|0:0,0:0:0:0:
100,12,245419,1,0,0:0:0:0:
120,80,245615,2,0,L|116:136,1,50,2|0,0:0|0:0,0:0:0:0:
172,172,246007,1,0,0:0:0:0:
192,104,246203,6,0,L|188:48,1,50,2|0,0:0|0:0,0:0:0:0:
244,12,246595,1,0,0:0:0:0:
312,4,246791,1,2,0:0:0:0:
376,28,246988,1,0,0:0:0:0:
424,80,247184,1,0,0:0:0:0:
436,148,247380,2,0,L|432:248,1,100,2|0,0:0|0:0,0:0:0:0:
384,296,247968,2,0,L|388:348,2,50,2|2|0,0:0|0:0|0:0,0:0:0:0:
320,264,248556,6,0,P|296:260|268:260,1,50
204,280,248948,1,0,0:0:0:0:
136,300,249144,2,0,P|84:304|36:280,1,100,2|0,0:0|0:0,0:0:0:0:
4,224,249733,2,0,L|0:172,1,50,2|0,0:0|0:0,0:0:0:0:
48,124,250125,1,2,0:0:0:0:
96,72,250321,2,0,L|100:20,2,50,0|2|0,0:0|0:0|0:0,0:0:0:0:
160,100,250909,5,2,0:0:0:0:
228,104,251105,1,0,0:0:0:0:
292,80,251301,1,0,0:0:0:0:
356,56,251497,1,2,0:0:0:0:
424,60,251693,1,0,0:0:0:0:
484,96,251889,1,0,0:0:0:0:
508,164,252086,2,0,L|504:264,1,100,2|0,0:0|0:0,0:0:0:0:
472,328,252674,1,2,0:0:0:0:
408,356,252870,1,2,0:0:0:0:
340,344,253066,1,0,0:0:0:0:
288,300,253262,6,0,L|280:244,2,50,2|0|0,0:0|0:0|0:0,0:0:0:0:
240,352,253854,1,2,0:0:0:0:
172,368,254051,1,2,0:0:0:0:
172,368,254150,1,2,0:0:0:0:
172,368,254248,1,2,0:0:0:0:
112,332,254446,6,0,L|120:276,1,50,2|0,0:0|0:0,0:0:0:0:
64,240,254840,1,0,0:0:0:0:
128,208,255038,2,0,P|128:156|112:112,1,100,2|0,0:0|0:0,0:0:0:0:
52,76,255630,6,0,L|0:68,2,50,2|0|0,0:0|0:0|0:0,0:0:0:0:
112,40,256222,1,2,0:0:0:0:
172,4,256419,1,2,0:0:0:0:
172,4,256518,1,2,0:0:0:0:
172,4,256617,1,2,0:0:0:0:
236,32,256814,6,0,L|240:84,1,50,2|0,0:0|0:0,0:0:0:0:
276,144,257209,1,0,0:0:0:0:
340,168,257406,2,0,P|392:172|440:156,1,100,2|0,0:0|0:0,0:0:0:0:
492,112,257998,6,0,L|496:60,1,50,2|0,0:0|0:0,0:0:0:0:
495,62,258393,1,0,0:0:0:0:
424,88,258590,2,0,L|420:36,1,50,2|0,0:0|0:0,0:0:0:0:
420,38,258985,1,0,0:0:0:0:
340,168,259183,6,0,L|344:220,1,50,2|0,0:0|0:0,0:0:0:0:
343,217,259577,1,0,0:0:0:0:
272,192,259775,2,0,L|268:244,1,50,2|0,0:0|0:0,0:0:0:0:
268,241,260169,1,0,0:0:0:0:
188,112,260367,6,0,L|192:60,1,50,2|0,0:0|0:0,0:0:0:0:
191,62,260762,1,0,0:0:0:0:
120,88,260959,2,0,L|116:36,1,50,2|0,0:0|0:0,0:0:0:0:
116,38,261354,1,0,0:0:0:0:
36,168,261551,6,0,L|40:220,1,50,2|0,0:0|0:0,0:0:0:0:
140,192,261946,2,0,L|113:236,1,50,2|0,0:0|0:0,0:0:0:0:
211,271,262340,2,0,L|163:292,1,50,2|0,0:0|0:0,0:0:0:0:
223,376,262735,6,0,L|171:366,2,50,2|0|0,0:0|0:0|0:0,0:0:0:0:
288,352,263327,1,2,0:0:0:0:
356,328,263525,1,2,0:0:0:0:
356,328,263623,1,2,0:0:0:0:
356,328,263722,1,2,0:0:0:0:
424,304,263919,6,0,L|475:313,2,50,2|0|0,0:0|0:0|0:0,0:0:0:0:
368,260,264512,2,0,P|360:212|368:160,1,100,2|0,0:0|0:0,0:0:0:0:
424,120,265104,6,0,L|475:110,2,50,2|0|0,0:0|0:0|0:0,0:0:0:0:
359,96,265696,1,2,0:0:0:0:
291,72,265894,1,2,0:0:0:0:
291,72,265992,1,2,0:0:0:0:
291,72,266091,1,2,0:0:0:0:
223,48,266288,6,0,L|173:57,1,50,2|0,0:0|0:0,0:0:0:0:
116,96,266683,1,0,0:0:0:0:
60,136,266880,2,0,L|8:145,2,50,2|0|0,0:0|0:0|0:0,0:0:0:0:
120,172,267472,6,0,L|124:224,1,50,2|0,0:0|0:0,0:0:0:0:
192,204,267867,2,0,L|225:244,1,50,2|0,0:0|0:0,0:0:0:0:
269,188,268262,2,0,L|319:202,1,50,2|0,0:0|0:0,0:0:0:0:
496,248,268656,6,0,L|492:300,1,50,2|0,0:0|0:0,0:0:0:0:
424,280,269051,2,0,L|390:320,1,50,2|0,0:0|0:0,0:0:0:0:
347,264,269456,2,0,L|312:272,2,33.3333333333333,2|0|0,0:0|0:0|0:0,0:0:0:0:
372,232,269861,6,0,P|376:208|376:176,1,50,2|0,0:0|0:0,0:0:0:0:
340,76,270253,1,0,0:0:0:0:
272,240,270483,6,0,P|289:222|307:196,1,50,2|0,0:0|0:0,0:0:0:0:
335,92,270910,1,0,0:0:0:0:
233,175,271170,6,0,P|209:183|160:188,1,75,4|0,0:0|0:0,0:0:0:0:
128,172,271631,2,0,L|56:176,1,66.6666666666667,2|0,0:0|0:0,0:0:0:0:
12,224,272138,1,0,0:0:0:0:
12,224,272291,1,2,0:0:0:0:
36,324,272599,1,2,0:0:0:0:
120,364,272884,1,0,0:0:0:0:
120,364,273027,6,0,L|192:360,1,66.6666666666667,2|0,0:0|0:0,0:0:0:0:
228,336,273456,1,2,0:0:0:0:
304,284,273741,1,2,0:0:0:0:
304,284,273884,1,0,0:0:0:0:
304,284,274027,2,0,L|376:288,1,66.6666666666667,2|2,0:0|0:0,0:0:0:0:
456,328,274599,1,0,0:0:0:0:
456,328,274741,5,0,0:0:0:0:
496,244,274991,1,0,0:0:0:0:
496,244,275116,1,2,0:0:0:0:
408,204,275351,1,0,0:0:0:0:
408,204,275551,2,0,P|356:204|312:184,1,100,0|2,0:0|0:0,0:0:0:0:
248,116,276106,1,0,0:0:0:0:
248,116,276217,6,0,L|244:48,1,66.6666666666667
272,12,276551,1,2,0:0:0:0:
384,0,276773,2,0,L|444:8,1,50
468,88,277073,2,0,L|408:96,1,50,0|2,0:0|0:0,0:0:0:0:
384,176,277423,1,0,0:0:0:0:
384,176,277551,6,0,P|412:184|432:196,1,50,2|0,0:0|0:0,0:0:0:0:
460,236,277828,2,0,P|467:264|464:304,1,66.6666666666667,2|0,0:0|0:0,0:0:0:0:
440,340,278153,2,0,P|400:372|348:380,1,100,2|2,0:0|0:0,0:0:0:0:
268,344,278708,1,0,0:0:0:0:
268,344,278819,6,0,L|264:272,1,66.6666666666667,2|0,0:0|0:0,0:0:0:0:
292,252,279141,2,0,L|296:200,1,50,2|0,0:0|0:0,0:0:0:0:
256,156,279453,1,2,0:0:0:0:
256,156,279603,1,2,0:0:0:0:
256,156,279790,2,0,L|252:104,1,50,2|0,0:0|0:0,0:0:0:0:
284,72,280103,6,0,P|312:64|332:48,1,50
376,0,280415,2,0,P|392:24|413:38,1,50,2|0,0:0|0:0,0:0:0:0:
472,65,280728,2,0,P|454:87|447:112,1,50,2|0,0:0|0:0,0:0:0:0:
439,176,281040,1,0,0:0:0:0:
323,179,281340,5,2,1:2:0:0:
323,179,281642,2,0,L|192:184,1,129.999994049073,0|2,1:0|1:2,0:0:0:0:
80,220,282187,1,0,1:0:0:0:
80,220,282294,2,0,P|76:264|88:308,1,86.6666626993817,0|0,1:0|0:0,0:0:0:0:
136,352,282613,6,0,L|224:356,1,86.6666626993817,6|0,1:2|0:0,0:0:0:0:
276,312,282932,2,0,L|364:308,1,86.6666626993817,2|0,0:0|0:0,0:0:0:0:
420,348,283251,1,0,1:0:0:0:
484,224,283464,1,0,0:0:0:0:
452,212,283570,2,0,P|440:176|444:128,1,86.6666626993817,2|0,0:0|0:0,0:0:0:0:
468,60,283889,6,0,L|376:52,1,86.6666626993817,0|0,1:2|0:0,0:0:0:0:
320,84,284208,2,0,L|228:76,1,86.6666626993817,2|2,0:2|0:0,0:0:0:0:
217,195,284527,6,0,L|309:187,1,86.6666626993817,0|0,1:2|0:0,0:0:0:0:
365,219,284846,2,0,L|457:211,1,86.6666626993817,2|2,0:2|0:0,0:0:0:0:
468,330,285166,6,0,L|376:322,1,86.6666626993817,0|0,1:2|0:0,0:0:0:0:
320,354,285485,2,0,L|228:346,1,86.6666626993817,2|0,0:2|0:0,0:0:0:0:
176,304,285804,2,0,P|112:304|60:344,1,129.999994049073,0|2,1:0|0:0,0:0:0:0:
4,216,286336,1,0,0:0:0:0:
8,180,286442,6,0,L|16:92,1,86.6666626993817,0|0,1:0|0:0,0:0:0:0:
84,100,286761,2,0,L|141:32,1,86.6666626993817,2|2,0:0|0:0,0:0:0:0:
192,78,287081,2,0,L|277:55,1,86.6666626993817,0|0,1:0|0:0,0:0:0:0:
293,121,287400,2,0,L|375:151,1,86.6666626993817,2|2,0:0|0:0,0:0:0:0:
351,214,287719,6,0,L|401:286,1,86.6666626993817,0|0,1:0|0:0,0:0:0:0:
440,340,288038,1,2,0:0:0:0:
304,368,288251,1,0,0:0:0:0:
272,352,288357,2,0,P|208:336|144:344,1,129.999994049073,2|2,1:2|0:0,0:0:0:0:
12,380,288889,1,0,0:0:0:0:
44,368,288995,6,0,P|48:324|40:280,1,86.6666626993817,2|0,1:2|0:0,0:0:0:0:
8,220,289315,2,0,P|51:210|90:189,1,86.6666626993817,2|0,0:0|0:0,0:0:0:0:
137,139,289634,2,0,P|159:176|191:207,1,86.6666626993817,2|0,1:2|0:0,0:0:0:0:
252,236,289954,2,0,P|222:269|203:309,1,86.6666626993817,2|0,0:0|0:0,0:0:0:0:
195,375,290272,5,0,1:0:0:0:
328,332,290485,1,0,0:0:0:0:
332,296,290591,1,2,0:0:0:0:
280,148,290804,1,0,0:0:0:0:
246,162,290910,1,2,1:2:0:0:
144,281,291123,1,0,0:0:0:0:
173,304,291230,2,0,L|264:320,1,86.6666626993817,2|0,0:0|0:0,0:0:0:0:
328,332,291549,5,0,1:0:0:0:
421,228,291762,1,0,0:0:0:0:
407,195,291868,1,2,0:0:0:0:
288,92,292081,1,0,0:0:0:0:
265,122,292187,1,2,1:2:0:0:
236,276,292400,1,0,0:0:0:0:
273,281,292507,2,0,L|359:249,1,86.6666626993817,2|0,0:0|0:0,0:0:0:0:
421,228,292825,6,0,P|448:196|460:152,1,86.6666626993817,0|0,1:0|0:0,0:0:0:0:
408,296,293144,2,0,P|422:335|454:367,1,86.6666626993817,2|0,0:0|0:0,0:0:0:0:
354,251,293464,2,0,P|291:244|236:276,1,129.999994049073,2|2,1:2|0:0,0:0:0:0:
136,372,293995,1,0,0:0:0:0:
136,372,294102,6,0,L|48:364,1,86.6666626993817,2|0,1:2|0:0,0:0:0:0:
8,308,294421,2,0,P|4:264|16:220,1,86.6666626993817,2|2,0:0|0:0,0:0:0:0:
72,180,294740,6,0,L|160:172,1,86.6666626993817,0|0,1:0|0:0,0:0:0:0:
200,116,295059,2,0,P|204:72|192:28,1,86.6666626993817,2|2,0:0|0:0,0:0:0:0:
128,8,295378,5,0,1:0:0:0:
0,64,295591,1,0,0:0:0:0:
0,64,295698,2,0,P|-4:108|8:152,1,86.6666626993817,2|2,0:0|0:0,0:0:0:0:
72,180,296017,2,0,L|204:192,1,129.999994049073,0|2,1:0|0:0,0:0:0:0:
312,276,296549,1,2,0:0:0:0:
312,276,296655,6,0,P|316:320|304:364,1,86.6666626993817,0|0,1:0|0:0,0:0:0:0:
404,332,296974,2,0,P|400:288|412:244,1,86.6666626993817,2|2,0:0|0:0,0:0:0:0:
356,120,297293,6,0,P|360:164|348:208,1,86.6666626993817,0|0,1:0|0:0,0:0:0:0:
448,176,297612,2,0,P|444:132|456:88,1,86.6666626993817,2|2,0:0|0:0,0:0:0:0:
416,32,297932,6,0,L|328:24,1,86.6666626993817,0|0,1:0|0:0,0:0:0:0:
280,72,298251,2,0,L|192:80,1,86.6666626993817,2|0,0:0|0:0,0:0:0:0:
136,40,298570,2,0,P|80:48|28:104,1,129.999994049073,2|2,1:2|0:0,0:0:0:0:
76,228,299102,1,0,0:0:0:0:
104,244,299208,6,0,L|192:252,1,86.6666626993817,0|0,1:0|0:0,0:0:0:0:
240,204,299527,2,0,L|328:196,1,86.6666626993817,2|2,0:0|0:0,0:0:0:0:
280,72,299847,6,0,L|192:64,1,86.6666626993817,0|0,1:0|0:0,0:0:0:0:
144,112,300166,2,0,L|56:120,1,86.6666626993817,2|0,0:0|0:0,0:0:0:0:
24,180,300485,6,0,P|20:224|28:268,1,86.6666626993817,0|0,1:0|0:0,0:0:0:0:
104,244,300804,2,0,P|125:282|157:313,1,86.6666626993817,2|0,0:0|0:0,0:0:0:0:
206,250,301123,2,0,P|245:268|290:276,1,86.6666626993817,0|0,1:0|0:0,0:0:0:0:
292,196,301442,2,0,P|335:188|375:169,1,86.6666626993817,2|0,0:0|0:0,0:0:0:0:
331,102,301761,5,2,0:0:0:0:
331,102,302081,2,0,P|362:70|384:32,1,86.6666626993817,2|0,0:0|1:0,0:0:0:0:
476,76,302400,2,0,P|487:118|509:157,1,86.6666626993817,2|0,1:2|1:0,0:0:0:0:
426,214,302719,2,0,P|383:202|338:202,1,86.6666626993817,2|0,1:2|1:0,0:0:0:0:
216,272,303038,6,0,P|168:288|112:284,1,106.666666666667,4|0,1:2|0:0,0:0:0:0:
4,328,303357,2,0,P|14:278|45:231,1,106.666666666667,2|0,0:0|0:0,0:0:0:0:
13,94,303676,2,0,P|98:149|123:199,1,160,2|0,1:2|0:0,0:0:0:0:
284,144,304208,1,0,0:0:0:0:
284,144,304315,6,0,L|292:36,1,106.666666666667,0|0,1:2|0:0,0:0:0:0:
376,20,304634,2,0,L|484:28,1,106.666666666667,2|2,0:0|0:0,0:0:0:0:
500,112,304953,2,0,L|492:220,1,106.666666666667,0|0,1:2|0:0,0:0:0:0:
408,235,305272,2,0,L|300:227,1,106.666666666667,2|2,0:0|0:0,0:0:0:0:
220,200,305591,6,0,L|112:207,1,106.666666666667,0|0,1:0|0:0,0:0:0:0:
36,244,305910,1,2,0:0:0:0:
164,360,306123,1,0,0:0:0:0:
164,360,306230,2,0,L|324:372,1,160,2|0,1:2|0:0,0:0:0:0:
472,288,306761,1,0,0:0:0:0:
480,244,306868,5,2,1:2:0:0:
356,128,307081,2,0,P|284:116|216:64,1,160,2|0,0:2|0:0,0:0:0:0:
160,0,307506,2,0,L|48:8,1,106.666666666667,2|2,1:2|0:0,0:0:0:0:
32,112,307825,2,0,L|144:120,1,106.666666666667
224,192,308144,6,0,P|232:244|216:296,1,106.666666666667,2|2,1:2|0:0,0:0:0:0:
16,348,308464,2,0,P|8:296|24:244,1,106.666666666667,2|0,0:0|0:0,0:0:0:0:
198,374,308783,2,0,P|146:382|94:366,1,106.666666666667,2|2,1:2|0:0,0:0:0:0:
42,166,309103,2,0,P|94:158|146:174,1,106.666666666667,2|0,0:0|0:0,0:0:0:0:
308,252,309421,6,0,P|360:260|412:244,1,106.666666666667,2|2,1:2|0:0,0:0:0:0:
404,80,309740,2,0,P|371:121|358:174,1,106.666666666667,2|0,0:0|0:0,0:0:0:0:
505,250,310059,2,0,P|485:200|446:163,1,106.666666666667,2|0,1:2|0:0,0:0:0:0:
447,164,310378,1,2,0:0:0:0:
235,123,310698,6,0,P|184:137|144:173,1,106.666666666667,2|0,1:2|0:0,0:0:0:0:
220,319,311017,2,2,P|232:267|221:215,1,106.666666666667,2|0,0:2|0:0,0:0:0:0:
56,208,311336,2,0,P|94:244|144:260,1,106.666666666667,2|0,1:2|0:0,0:0:0:0:
144,260,311655,1,2,0:0:0:0:
308,176,311868,1,0,0:0:0:0:
308,176,311974,6,0,L|316:68,1,106.666666666667,2|0,1:2|0:0,0:0:0:0:
500,124,312293,2,0,L|507:230,1,106.666666666667,2|0,0:0|0:0,0:0:0:0:
292,192,312613,6,0,L|300:84,1,106.666666666667,2|0,1:0|0:0,0:0:0:0:
484,140,312932,2,0,L|491:246,1,106.666666666667,2|0,0:0|0:0,0:0:0:0:
500,364,313251,6,0,P|456:384|396:380,1,106.666666666667,0|0,1:0|0:0,0:0:0:0:
340,316,313570,2,0,P|296:296|236:300,1,106.666666666667,2|0,0:0|0:0,0:0:0:0:
172,352,313889,2,0,L|12:360,1,160,2|0,1:2|0:0,0:0:0:0:
40,192,314421,1,0,0:0:0:0:
40,192,314527,6,0,L|148:200,1,106.666666666667,0|0,1:0|0:0,0:0:0:0:
228,168,314847,2,0,L|336:176,1,106.666666666667,2|2,0:0|0:0,0:0:0:0:
356,260,315166,2,0,L|248:252,1,106.666666666667,0|0,1:2|0:0,0:0:0:0:
168,284,315486,2,0,L|60:276,1,106.666666666667,2|2,0:0|0:0,0:0:0:0:
84,360,315804,6,0,L|190:367,1,106.666666666667,0|0,1:0|0:0,0:0:0:0:
272,336,316124,2,0,L|378:343,1,106.666666666667,2|0,0:0|0:0,0:0:0:0:
456,308,316442,2,0,P|480:244|468:152,1,160,2|0,1:2|0:0,0:0:0:0:
340,44,316972,1,0,0:0:0:0:
296,40,317079,5,2,1:2:0:0:
132,76,317291,2,0,P|108:140|120:232,1,160,2|0,0:0|0:0,0:0:0:0:
172,296,317717,2,0,L|288:304,1,106.666666666667,2|2,1:2|0:0,0:0:0:0:
364,308,318036,2,0,L|480:316,1,106.666666666667
337,132,318355,6,0,P|285:116|229:128,1,106.666666666667,2|2,1:2|0:0,0:0:0:0:
353,252,318674,2,0,P|405:268|461:256,1,106.666666666667,2|0,0:0|0:0,0:0:0:0:
285,200,318993,2,0,P|269:252|281:308,1,106.666666666667,2|2,1:2|0:0,0:0:0:0:
405,184,319313,2,0,P|421:132|409:76,1,106.666666666667,2|0,0:0|0:0,0:0:0:0:
252,36,319632,6,0,L|144:28,1,106.666666666667,2|2,1:2|0:0,0:0:0:0:
20,112,319951,2,0,L|128:104,1,106.666666666667,2|0,0:0|0:0,0:0:0:0:
272,180,320270,2,0,L|164:172,1,106.666666666667,2|0,1:2|0:0,0:0:0:0:
40,256,320589,2,0,L|148:248,1,106.666666666667,2|2,0:0|0:0,0:0:0:0:
348,205,320908,6,0,P|352:161|316:113,1,106.666666666667,0|0,1:0|0:0,0:0:0:0:
288,257,321227,2,0,P|324:282|383:275,1,106.666666666667,0|0,0:0|1:0,0:0:0:0:
272,180,321546,2,0,P|231:198|224:305,1,160,0|0,0:0|1:0,0:0:0:0:
472,368,322185,6,0,L|480:244,1,106.666666666667,0|0,0:0|1:0,0:0:0:0:
484,176,322504,1,0,0:0:0:0:
284,332,322823,6,0,L|276:208,1,106.666666666667,2|2,1:2|0:0,0:0:0:0:
272,140,323142,1,0,0:0:0:0:
416,44,323355,1,0,1:0:0:0:
416,44,323462,6,0,P|452:68|476:108,1,86.6666626993817,4|0,1:2|0:0,0:0:0:0:
484,176,323781,2,0,P|477:218|451:257,1,86.6666626993817,2|0,0:0|0:0,0:0:0:0:
396,296,324100,2,0,P|354:308|272:284,1,129.999994049073,0|2,1:2|0:0,0:0:0:0:
176,184,324632,1,0,0:0:0:0:
176,184,324738,6,0,L|88:192,1,86.6666626993817,0|0,1:0|0:0,0:0:0:0:
28,224,325057,1,2,0:0:0:0:
60,360,325270,1,2,0:0:0:0:
92,372,325376,2,0,L|180:380,1,86.6666626993817,0|0,1:0|0:0,0:0:0:0:
232,332,325696,2,0,L|320:324,1,86.6666626993817,2|2,0:0|0:0,0:0:0:0:
380,360,326015,6,0,P|424:368|464:356,1,86.6666626993817,0|0,1:0|0:0,0:0:0:0:
504,300,326334,2,0,L|508:212,1,86.6666626993817,2|0,0:0|0:0,0:0:0:0:
456,168,326653,2,0,P|412:176|340:136,1,129.999994049073,0|2,1:0|0:0,0:0:0:0:
408,16,327185,1,0,0:0:0:0:
444,12,327291,6,0,P|472:36|492:80,1,86.6666626993817,0|0,1:0|0:0,0:0:0:0:
412,92,327611,2,0,P|421:127|412:175,1,86.6666626993817,2|2,0:0|0:0,0:0:0:0:
339,139,327930,2,0,P|326:173|291:207,1,86.6666626993817,0|0,1:0|0:0,0:0:0:0:
252,135,328249,2,0,P|221:155|173:163,1,86.6666626993817,2|2,0:0|0:0,0:0:0:0:
183,81,328568,6,0,P|146:80|102:59,1,86.6666626993817,0|0,1:0|0:0,0:0:0:0:
48,16,328887,1,2,0:0:0:0:
0,148,329100,1,0,0:0:0:0:
0,148,329206,2,0,L|8:284,1,129.999994049073,0|2,1:0|0:0,0:0:0:0:
128,348,329738,1,0,0:0:0:0:
128,348,329845,6,0,P|165:347|209:326,1,86.6666626993817,0|0,1:0|0:0,0:0:0:0:
260,372,330164,2,0,P|289:349|313:307,1,86.6666626993817,2|2,0:0|0:0,0:0:0:0:
381,315,330483,2,0,P|391:279|387:231,1,86.6666626993817,0|0,1:0|0:0,0:0:0:0:
448,199,330802,2,0,P|436:163|405:126,1,86.6666626993817,2|2,0:0|0:0,0:0:0:0:
435,65,331121,6,0,P|405:42|358:30,1,86.6666626993817,0|0,1:0|0:0,0:0:0:0:
296,64,331440,2,0,P|266:86|219:98,1,86.6666626993817,2|2,0:0|0:0,0:0:0:0:
156,68,331759,2,0,P|126:45|79:33,1,86.6666626993817,0|0,1:0|0:0,0:0:0:0:
20,72,332079,1,2,0:0:0:0:
8,280,332398,6,0,L|12:376,1,86.6666626993817,0|0,1:0|0:0,0:0:0:0:
100,232,332717,2,0,L|96:328,1,86.6666626993817,2|2,0:0|0:0,0:0:0:0:
184,276,333036,2,0,L|188:372,1,86.6666626993817,0|0,1:0|0:0,0:0:0:0:
276,228,333355,2,0,L|272:324,1,86.6666626993817,2|0,0:0|0:0,0:0:0:0:
320,364,333674,6,0,P|364:372|408:364,1,86.6666626993817,0|0,1:0|0:0,0:0:0:0:
468,332,333993,2,0,P|496:297|512:255,1,86.6666626993817,2|0,0:0|0:0,0:0:0:0:
512,188,334313,2,0,P|496:145|424:100,1,129.999994049073,0|2,1:2|0:0,0:0:0:0:
292,84,334845,1,0,0:0:0:0:
292,84,334951,6,0,P|252:68|220:36,1,86.6666626993817,0|0,1:0|0:0,0:0:0:0:
156,12,335270,2,0,L|68:16,1,86.6666626993817,2|2,0:0|0:0,0:0:0:0:
32,112,335589,6,0,P|72:128|104:160,1,86.6666626993817,0|0,1:0|0:0,0:0:0:0:
168,184,335908,2,0,L|256:180,1,86.6666626993817,2|2,0:0|0:0,0:0:0:0:
360,152,336228,6,0,L|448:156,1,86.6666626993817,0|0,1:0|0:0,0:0:0:0:
500,200,336547,1,2,0:0:0:0:
488,304,336759,1,0,0:0:0:0:
460,324,336866,2,0,L|372:328,1,86.6666626993817,0|0,1:2|0:0,0:0:0:0:
316,288,337185,2,0,L|228:284,1,86.6666626993817,2|2,0:2|0:0,0:0:0:0:
172,324,337504,6,0,P|124:328|84:312,1,86.6666626993817,0|0,1:0|0:0,0:0:0:0:
36,272,337823,2,0,P|8:232|2:189,1,86.6666626993817,2|2,0:0|0:0,0:0:0:0:
128,208,338142,6,0,P|176:212|216:196,1,86.6666626993817,0|0,1:0|0:0,0:0:0:0:
264,156,338461,2,0,P|291:116|297:73,1,86.6666626993817,2|2,0:0|0:0,0:0:0:0:
172,92,338781,6,0,P|124:96|84:80,1,86.6666626993817,0|0,1:0|0:0,0:0:0:0:
36,40,339100,1,2,0:0:0:0:
48,180,339313,1,0,0:0:0:0:
48,180,339419,2,0,P|96:176|136:192,1,86.6666626993817,0|0,1:0|0:0,0:0:0:0:
184,232,339738,2,0,L|188:324,1,86.6666626993817,2|2,0:0|0:0,0:0:0:0:
236,368,340057,6,0,P|276:381|319:377,1,86.6666626993817,0|0,1:0|0:0,0:0:0:0:
364,324,340376,2,0,P|404:310|447:314,1,86.6666626993817,2|2,0:0|0:0,0:0:0:0:
480,224,340696,6,0,P|439:237|396:233,1,86.6666626993817,0|0,1:0|0:0,0:0:0:0:
352,180,341015,2,0,P|311:166|268:170,1,86.6666626993817,2|0,0:0|0:0,0:0:0:0:
184,232,341334,6,0,L|188:320,1,86.6666626993817,0|0,1:0|0:0,0:0:0:0:
36,352,341653,2,0,L|32:264,1,86.6666626993817,2|0,0:0|0:0,0:0:0:0:
260,224,341972,6,0,L|264:312,1,86.6666626993817,0|0,1:0|0:0,0:0:0:0:
112,344,342291,2,0,L|108:256,1,86.6666626993817,2|0,0:0|0:0,0:0:0:0:
160,108,342611,5,2,0:2:0:0:
160,108,342930,2,0,P|204:104|240:84,1,86.6666626993817,2|0,0:0|1:0,0:0:0:0:
296,16,343249,2,0,P|327:47|365:61,1,86.6666626993817,2|0,1:2|1:0,0:0:0:0:
453,61,343568,2,0,P|449:105|462:143,1,86.6666626993817,2|0,1:2|0:0,0:0:0:0:
512,280,343887,6,0,L|404:288,1,106.666666666667,4|0,1:2|0:0,0:0:0:0:
328,328,344206,2,0,L|220:336,1,106.666666666667,2|0,0:0|0:0,0:0:0:0:
144,376,344525,2,0,P|76:360|32:276,1,160,2|0,1:0|0:0,0:0:0:0:
140,152,345057,1,0,0:0:0:0:
140,152,345164,6,0,P|192:152|244:136,1,106.666666666667,2|2,1:0|0:0,0:0:0:0:
360,80,345483,2,0,P|334:125|321:178,1,106.666666666667
313,307,345802,2,0,P|287:261|247:224,1,106.666666666667,2|0,1:0|0:0,0:0:0:0:
104,292,346121,6,0,P|84:316|124:300,1,106.666666666667,6|0,1:2|0:0,0:0:0:0:
16,276,346440,6,0,P|8:324|28:380,1,106.666666666667,0|0,1:0|0:0,0:0:0:0:
200,356,346759,2,0,P|208:308|188:252,1,106.666666666667,2|0,0:0|0:0,0:0:0:0:
36,196,347079,1,2,1:0:0:0:
36,196,347398,2,0,L|32:88,1,106.666666666667
56,8,347717,5,2,1:0:0:0:
216,72,347930,2,0,B|296:84|296:32|376:44,1,160,2|0,0:0|0:0,0:0:0:0:
452,68,348355,2,0,P|470:117|462:169,1,106.666666666667,2|2,1:0|0:0,0:0:0:0:
408,236,348674,2,0,P|358:254|306:246,1,106.666666666667
137,185,348993,6,0,P|84:177|35:195,1,106.666666666667,2|2,1:0|0:0,0:0:0:0:
220,228,349313,2,0,P|227:175|209:126,1,106.666666666667,2|0,0:0|0:0,0:0:0:0:
177,312,349632,2,0,P|229:319|278:301,1,106.666666666667,2|2,1:0|0:0,0:0:0:0:
93,268,349951,2,0,P|85:320|103:369,1,106.666666666667,2|0,0:0|0:0,0:0:0:0:
127,150,350270,6,0,P|75:160|34:194,1,106.666666666667,2|2,1:0|0:0,0:0:0:0:
254,218,350589,2,0,P|243:166|209:125,1,106.666666666667,2|0,0:0|0:0,0:0:0:0:
186,346,350908,2,0,P|237:335|278:301,1,106.666666666667,2|0,1:0|0:0,0:0:0:0:
59,278,351228,1,2,0:0:0:0:
59,278,351547,6,0,P|69:329|103:370,1,106.666666666667,2|2,1:0|0:0,0:0:0:0:
278,300,351866,2,0,P|317:265|335:215,1,106.666666666667
187,99,352185,2,0,P|137:82|36:128,1,160,0|2,1:0|0:0,0:0:0:0:
186,346,352823,6,0,L|294:358,1,106.666666666667,0|2,1:0|0:0,0:0:0:0:
456,268,353142,2,0,L|348:280,1,106.666666666667,2|0,0:0|0:0,0:0:0:0:
160,196,353462,2,0,L|268:208,1,106.666666666667,2|0,1:0|0:0,0:0:0:0:
482,118,353781,2,0,L|374:130,1,106.666666666667,2|0,0:0|0:0,0:0:0:0:
212,120,354100,6,0,P|172:100|140:48,1,106.666666666667,0|0,1:0|0:0,0:0:0:0:
296,92,354419,2,0,P|298:136|269:190,1,106.666666666667,2|0,0:0|0:0,0:0:0:0:
230,34,354738,2,0,P|267:9|374:42,1,160,2|0,1:0|0:0,0:0:0:0:
460,184,355270,1,0,0:0:0:0:
460,184,355376,6,0,L|464:296,1,106.666666666667,2|0,1:0|0:0,0:0:0:0:
270,189,355696,2,0,L|364:129,1,106.666666666667,2|2,0:0|0:0,0:0:0:0:
370,352,356015,2,0,L|271:299,1,106.666666666667,2|0,1:0|0:0,0:0:0:0:
372,218,356334,6,0,P|364:262|348:230,1,106.666666666667,4|0,1:2|0:0,0:0:0:0:
460,184,356653,6,0,P|474:236|462:288,1,106.666666666667,0|0,1:0|0:0,0:0:0:0:
270,188,356972,2,0,P|306:150|356:135,1,106.666666666667,2|0,0:0|0:0,0:0:0:0:
369,352,357291,2,0,P|318:338|279:303,1,106.666666666667,2|0,1:0|0:0,0:0:0:0:
279,303,357611,1,0,0:0:0:0:
112,340,357823,1,0,0:0:0:0:
112,340,357930,5,2,1:0:0:0:
32,188,358142,2,0,P|110:185|170:135,1,160,2|0,0:0|0:0,0:0:0:0:
196,56,358568,2,0,L|308:64,1,106.666666666667,2|2,1:0|0:0,0:0:0:0:
368,116,358887,2,0,L|480:108,1,106.666666666667
448,264,359206,6,0,P|392:260|344:280,1,106.666666666667,2|2,1:0|0:0,0:0:0:0:
332,196,359525,2,0,P|283:224|255:268,1,106.666666666667
200,200,359845,2,0,P|177:251|179:303,1,106.666666666667,2|2,1:0|0:0,0:0:0:0:
96,285,360164,2,0,P|106:340|138:381,1,106.666666666667
345,350,360483,6,0,P|367:298|365:246,1,106.666666666667,2|2,1:0|0:0,0:0:0:0:
448,264,360802,2,0,P|437:208|405:167,1,106.666666666667
489,138,361122,2,0,P|448:98|399:83,1,106.666666666667,2|0,1:0|0:0,0:0:0:0:
445,12,361441,2,0,P|389:3|340:18,1,106.666666666667,2|2,0:0|0:0,0:0:0:0:
272,68,361759,6,0,P|192:80|116:48,1,160,0|0,1:0|0:0,0:0:0:0:
16,188,362291,1,0,1:0:0:0:
44,220,362398,2,0,P|124:208|200:240,1,160,0|4,0:0|0:0,0:0:0:0:
444,164,363036,6,0,L|436:56,1,106.666666666667,0|0,0:0|1:0,0:0:0:0:
328,100,363355,2,0,L|320:208,1,106.666666666667,0|0,0:0|1:0,0:0:0:0:
336,220,363621,1,0,1:0:0:0:
352,236,363674,2,0,P|404:256|456:256,1,106.666666666667,0|0,1:0|0:0,0:0:0:0:
384,340,363993,2,0,P|332:320|280:320,1,106.666666666667
180,356,364313,6,0,L|84:360,1,86.6666626993817,6|0,1:2|0:0,0:0:0:0:
48,288,364632,2,0,L|144:284,1,86.6666626993817,0|2,0:0|0:0,0:0:0:0:
281,319,364951,6,0,L|377:323,1,86.6666626993817,0|0,1:0|0:0,0:0:0:0:
413,251,365270,2,0,L|317:247,1,86.6666626993817,2|0,0:0|0:0,0:0:0:0:
180,212,365589,6,0,L|84:216,1,86.6666626993817,0|2,1:0|0:0,0:0:0:0:
281,175,365908,2,0,L|367:178,1,86.6666626993817,2|0,0:0|0:0,0:0:0:0:
134,140,366228,6,0,L|48:144,1,86.6666626993817,2|0,1:2|0:0,0:0:0:0:
326,103,366547,2,0,L|413:107,1,86.6666626993817,2|2,0:0|0:0,0:0:0:0:
496,188,366866,6,0,P|500:232|496:276,1,86.6666626993817,0|0,1:0|0:0,0:0:0:0:
464,336,367185,2,0,P|427:361|387:380,1,86.6666626993817,2|0,0:0|0:0,0:0:0:0:
358,251,367504,6,0,P|362:207|358:163,1,86.6666626993817,0|2,1:0|0:0,0:0:0:0:
326,103,367823,2,0,P|289:77|249:59,1,86.6666626993817,2|0,0:0|0:0,0:0:0:0:
220,188,368142,6,0,P|224:232|204:320,1,129.999994049073,2|0,1:2|0:0,0:0:0:0:
80,368,368674,1,0,0:0:0:0:
64,364,368728,1,0,0:0:0:0:
48,360,368781,2,0,L|40:264,1,86.6666626993817,2|2,1:2|0:0,0:0:0:0:
92,224,369100,2,0,L|100:128,1,86.6666626993817,2|0,0:0|0:0,0:0:0:0:
52,88,369419,6,0,P|68:48|100:20,1,86.6666626993817,2|0,1:2|0:0,0:0:0:0:
168,8,369738,2,0,P|208:24|235:56,1,86.6666626993817,2|2,0:0|0:0,0:0:0:0:
248,124,370057,2,0,P|232:164|200:192,1,86.6666626993817,2|0,1:2|0:0,0:0:0:0:
132,204,370376,2,0,P|91:187|64:156,1,86.6666626993817,2|0,0:0|0:0,0:0:0:0:
100,19,370696,6,0,P|141:5|183:12,1,86.6666626993817,2|2,1:2|0:0,0:0:0:0:
236,56,371015,2,0,P|250:97|243:139,1,86.6666626993817,2|0,0:0|0:0,0:0:0:0:
199,192,371334,2,0,P|158:206|116:199,1,86.6666626993817,2|0,1:2|0:0,0:0:0:0:
63,155,371653,2,0,P|49:114|56:72,1,86.6666626993817,2|0,0:0|0:0,0:0:0:0:
184,12,371972,6,0,L|320:20,1,129.999994049073,2|0,1:2|0:0,0:0:0:0:
424,104,372504,1,0,0:0:0:0:
400,132,372611,2,0,L|264:140,1,129.999994049073,2|0,1:2|0:0,0:0:0:0:
172,236,373142,1,0,0:0:0:0:
196,264,373249,6,0,P|200:304|188:348,1,86.6666626993817,2|2,1:2|0:0,0:0:0:0:
124,376,373568,1,0,0:0:0:0:
4,204,373887,2,0,P|0:164|12:120,1,86.6666626993817,2|2,1:2|0:0,0:0:0:0:
76,92,374206,1,0,0:0:0:0:
275,146,374525,6,0,P|343:154|407:126,1,129.999994049073,2|0,1:2|0:0,0:0:0:0:
500,224,375057,1,0,0:0:0:0:
480,252,375164,2,0,P|412:244|348:272,1,129.999994049073,0|0,1:2|0:0,0:0:0:0:
276,332,375642,1,2,0:0:0:0:
276,332,375696,1,0,0:0:0:0:
276,332,375749,1,0,0:0:0:0:
276,332,375802,2,0,P|208:340|144:312,1,129.999994049073,2|0,1:2|0:0,0:0:0:0:
44,228,376334,1,0,0:0:0:0:
44,228,376440,2,0,L|40:140,1,86.6666626993817,0|0,1:0|0:0,0:0:0:0:
104,116,376759,2,0,L|108:28,1,86.6666626993817
172,4,377079,6,0,P|216:16|268:80,1,129.999994049073,2|0,1:2|0:0,0:0:0:0:
220,212,377611,1,0,0:0:0:0:
224,248,377717,2,0,P|259:300|319:323,1,129.999994049073,0|2,1:2|0:0,0:0:0:0:
480,192,378355,6,0,L|488:104,1,86.6666626993817,2|0,0:0|1:0,0:0:0:0:
496,36,378674,1,0,0:0:0:0:
296,96,378993,2,0,L|304:184,1,86.6666626993817,0|0,1:0|1:0,0:0:0:0:
312,252,379313,2,0,L|320:340,1,86.6666626993817,2|0,0:0|0:0,0:0:0:0:
256,372,379632,6,0,P|216:376|128:344,1,129.999994049073,2|0,1:2|0:0,0:0:0:0:
72,224,380164,1,0,0:0:0:0:
72,224,380270,2,0,P|112:228|200:196,1,129.999994049073,0|0,1:0|0:0,0:0:0:0:
316,28,380908,6,0,L|448:36,1,129.999994049073,2|0,1:2|0:0,0:0:0:0:
512,236,381547,2,0,L|380:228,1,129.999994049073,0|0,1:0|0:0,0:0:0:0:
300,164,382025,5,2,0:0:0:0:
300,164,382105,1,0,0:0:0:0:
300,164,382185,2,0,L|168:172,1,129.999994049073,2|2,1:2|0:0,0:0:0:0:
36,212,382717,1,0,0:0:0:0:
36,212,382823,2,0,P|32:256|44:304,1,86.6666626993817,2|0,1:2|0:0,0:0:0:0:
92,344,383142,2,0,P|136:348|183:336,1,86.6666626993817,2|0,0:2|0:0,0:0:0:0:
224,288,383462,5,2,0:0:0:0:
224,288,383781,2,0,P|268:284|315:296,1,86.6666626993817,0|0,0:2|1:0,0:0:0:0:
332,228,384100,2,0,P|370:249|402:287,1,86.6666626993817,0|0,1:2|1:0,0:0:0:0:
452,236,384419,2,0,P|470:275|475:325,1,86.6666626993817,0|0,0:2|0:0,0:0:0:0:
444,380,384738,5,6,1:2:0:0:
304,368,384951,1,0,0:0:0:0:
268,364,385057,2,0,L|176:372,1,86.6666626993817,2|2,0:0|0:0,0:0:0:0:
136,320,385376,2,0,L|44:312,1,86.6666626993817,0|0,1:0|0:0,0:0:0:0:
8,256,385696,2,0,P|4:208|16:172,1,86.6666626993817,2|2,0:0|0:0,0:0:0:0:
68,124,386015,5,0,1:2:0:0:
208,136,386228,1,0,0:0:0:0:
244,140,386334,2,0,L|336:132,1,86.6666626993817,2|2,0:0|0:0,0:0:0:0:
376,184,386653,2,0,L|468:192,1,86.6666626993817,0|0,1:0|0:0,0:0:0:0:
504,248,386973,2,0,P|508:296|496:332,1,86.6666626993817,2|0,0:0|0:0,0:0:0:0:
444,380,387291,6,0,L|352:372,1,86.6666626993817,2|0,1:2|0:0,0:0:0:0:
296,340,387611,1,0,0:0:0:0:
384,288,387770,2,0,P|428:260|464:192,1,129.999994049073,2|0,1:2|0:0,0:0:0:0:
432,92,388249,6,0,B|356:52|264:68|276:148|180:164|104:124,1,346.666650797527,6|2,1:2|0:0,0:0:0:0:
60,72,389206,1,2,1:2:0:0:
4,216,389419,1,0,0:0:0:0:
4,216,389525,2,0,L|8:316,1,86.6666626993817,2|0,0:0|0:0,0:0:0:0:
52,360,389845,6,0,P|104:368|140:356,1,86.6666626993817,2|0,1:2|0:0,0:0:0:0:
188,312,390164,2,0,L|280:320,1,86.6666626993817,2|2,0:0|0:0,0:0:0:0:
324,368,390483,1,0,1:0:0:0:
460,336,390696,1,0,0:0:0:0:
460,336,390802,1,2,0:0:0:0:
500,204,391015,1,0,0:0:0:0:
500,204,391121,6,0,P|448:212|412:200,1,86.6666626993817,2|0,1:2|0:0,0:0:0:0:
364,156,391440,2,0,L|272:164,1,86.6666626993817,2|2,0:0|0:0,0:0:0:0:
228,212,391759,1,0,1:0:0:0:
92,180,391972,1,0,0:0:0:0:
92,180,392079,1,2,0:0:0:0:
52,48,392291,1,2,0:0:0:0:
52,48,392398,6,0,P|92:32|136:28,1,86.6666626993817,0|0,1:0|0:0,0:0:0:0:
192,72,392717,2,0,P|232:88|276:92,1,86.6666626993817,2|2,0:0|0:0,0:0:0:0:
451,167,393036,6,0,P|411:151|367:147,1,86.6666626993817,0|0,1:0|0:0,0:0:0:0:
311,191,393355,2,0,P|271:207|227:211,1,86.6666626993817,2|0,0:0|0:0,0:0:0:0:
92,180,393674,6,0,L|24:184,1,64.9999970245363,2|0,1:2|0:0,0:0:0:0:
136,364,394153,2,0,L|204:368,1,64.9999970245363,2|0,1:2|0:0,0:0:0:0:
372,248,394632,2,0,P|392:212|392:168,1,86.6666626993817,2|0,1:2|1:0,0:0:0:0:
348,52,394951,5,4,0:0:0:0:
348,52,405329,6,0,L|292:44,2,50,0|0|2,0:0|0:0|0:0,0:0:0:0:
456,144,405978,2,0,P|460:172|456:196,1,50,2|0,0:0|0:0,0:0:0:0:
388,176,406302,2,0,P|375:201|358:218,1,50,2|0,0:0|0:0,0:0:0:0:
312,168,406626,6,0,P|287:181|263:185,1,50,2|0,0:0|0:0,0:0:0:0:
258,115,406950,2,0,P|229:111|207:101,1,50,2|0,0:0|0:0,0:0:0:0:
348,52,407275,6,0,P|372:38|396:34,1,50,2|0,0:0|0:0,0:0:0:0:
402,105,407599,2,0,P|430:108|452:118,1,50,2|0,0:0|0:0,0:0:0:0:
488,176,407923,5,0,0:0:0:0:
476,244,408086,1,0,0:0:0:0:
464,312,408248,1,2,0:0:0:0:
464,312,408572,2,0,P|412:320|368:348,1,100,2|2,0:0|0:0,0:0:0:0:
304,368,409059,1,0,0:0:0:0:
240,336,409221,5,2,0:0:0:0:
212,272,409383,2,0,L|216:172,1,100
184,108,409869,2,0,P|164:88|140:76,1,50,2|0,0:0|0:0,0:0:0:0:
76,64,410194,2,0,P|48:71|26:86,1,50,2|0,0:0|0:0,0:0:0:0:
4,208,410518,6,0,L|8:264,1,50,2|0,0:0|0:0,0:0:0:0:
76,240,410842,2,0,L|80:296,1,50,2|0,0:0|0:0,0:0:0:0:
112,140,411167,6,0,L|116:84,1,50,2|0,0:0|0:0,0:0:0:0:
184,108,411491,2,0,L|188:52,1,50,2|0,0:0|0:0,0:0:0:0:
220,248,411815,6,0,L|224:304,1,50,2|0,0:0|0:0,0:0:0:0:
292,280,412139,2,0,L|296:336,1,50,2|0,0:0|0:0,0:0:0:0:
328,100,412464,6,0,L|332:44,1,50,2|0,0:0|0:0,0:0:0:0:
400,68,412788,1,2,0:0:0:0:
400,68,412869,1,0,0:0:0:0:
400,68,412951,1,0,0:0:0:0:
508,160,413113,6,0,P|516:212|508:264,1,100,2|0,0:0|0:0,0:0:0:0:
464,312,413599,2,0,L|360:320,1,100,2|0,0:0|0:0,0:0:0:0:
292,324,414086,1,2,0:0:0:0:
192,224,414410,6,2,P|196:124|360:44,1,300,2|0,0:0|0:0,0:0:0:0:
492,220,415707,6,0,L|496:320,1,100.000003814697,6|0,1:2|0:0,0:0:0:0:
428,360,416016,2,0,P|384:360|332:340,1,100.000003814697,2|0,0:0|0:0,0:0:0:0:
280,280,416325,2,0,P|224:280|152:340,1,150.000005722046,2|2,1:2|0:0,0:0:0:0:
12,260,416841,1,0,0:0:0:0:
12,260,416944,6,0,L|8:160,1,100.000003814697,2|0,1:2|0:0,0:0:0:0:
4,80,417253,1,2,0:0:0:0:
152,20,417459,1,2,0:0:0:0:
152,20,417562,2,0,L|148:120,1,100.000003814697,0|0,1:0|0:0,0:0:0:0:
144,200,417871,2,0,L|140:300,1,100.000003814697,2|2,0:0|0:0,0:0:0:0:
200,356,418181,6,0,P|252:364|296:348,1,100.000003814697,0|0,1:0|0:0,0:0:0:0:
356,300,418490,2,0,P|408:292|452:308,1,100.000003814697,2|0,0:0|0:0,0:0:0:0:
480,208,418799,2,0,P|428:216|384:200,1,100.000003814697,2|0,1:2|0:0,0:0:0:0:
324,152,419108,2,0,P|272:144|228:160,1,100.000003814697,2|0,0:0|0:0,0:0:0:0:
112,268,419418,6,0,L|12:260,1,100.000003814697,2|0,1:2|0:0,0:0:0:0:
96,88,419727,2,0,L|196:80,1,100.000003814697,2|2,0:0|0:0,0:0:0:0:
304,272,420036,2,0,L|204:264,1,100.000003814697,0|0,1:2|0:0,0:0:0:0:
288,92,420345,2,0,L|388:84,1,100.000003814697,2|2,0:0|0:0,0:0:0:0:
480,208,420655,6,0,P|476:256|452:304,1,100.000003814697,0|0,1:0|0:0,0:0:0:0:
396,356,420964,2,0,P|349:368|296:362,1,100.000003814697,2|0,0:0|0:0,0:0:0:0:
228,324,421274,2,0,P|148:316|88:352,1,150.000005722046,2|2,1:2|0:0,0:0:0:0:
4,216,421789,1,0,0:0:0:0:
4,216,421892,6,0,L|0:112,1,100.000003814697,2|0,1:2|0:0,0:0:0:0:
88,172,422201,2,0,L|92:68,1,100.000003814697,2|2,0:0|0:0,0:0:0:0:
176,208,422511,2,0,L|172:104,1,100.000003814697,2|0,1:2|0:0,0:0:0:0:
260,164,422820,2,0,L|264:60,1,100.000003814697,2|0,0:0|0:0,0:0:0:0:
408,16,423129,6,0,P|448:40|476:84,1,100.000003814697,0|0,1:0|0:0,0:0:0:0:
400,100,423438,2,0,P|360:124|332:168,1,100.000003814697,2|0,0:0|0:0,0:0:0:0:
412,184,423748,2,0,P|452:208|480:252,1,100.000003814697,0|0,1:0|0:0,0:0:0:0:
404,268,424057,2,0,P|364:292|336:336,1,100.000003814697,2|0,0:0|0:0,0:0:0:0:
156,376,424366,6,0,P|108:368|68:336,1,100.000003814697,2|2,1:2|0:0,0:0:0:0:
152,248,424676,2,0,P|123:208|118:157,1,100.000003814697,2|0,0:0|0:0,0:0:0:0:
239,154,424985,2,0,P|247:106|279:66,1,100.000003814697,2|0,1:2|0:0,0:0:0:0:
366,149,425294,2,0,P|405:120|456:115,1,100.000003814697,2|2,0:0|0:0,0:0:0:0:
459,235,425603,6,0,L|448:340,1,100.000003814697,0|0,1:2|0:0,0:0:0:0:
384,284,425913,2,0,L|373:389,1,100.000003814697,2|0,0:0|0:0,0:0:0:0:
308,336,426222,2,0,P|244:328|164:372,1,150.000005722046,2|2,1:2|0:0,0:0:0:0:
88,228,426737,1,0,0:0:0:0:
68,192,426841,6,0,P|60:144|68:92,1,100.000003814697,2|0,1:2|0:0,0:0:0:0:
228,48,427150,2,0,P|234:96|224:147,1,100.000003814697,2|2,0:0|0:0,0:0:0:0:
44,224,427459,6,0,P|36:176|44:124,1,100.000003814697,0|0,1:2|0:0,0:0:0:0:
204,80,427768,2,0,P|210:128|200:179,1,100.000003814697,2|0,0:0|0:0,0:0:0:0:
20,256,428078,6,0,P|12:208|20:156,1,100.000003814697,0|0,1:0|0:0,0:0:0:0:
72,56,428387,2,0,P|109:25|158:6,1,100.000003814697,2|0,0:0|0:0,0:0:0:0:
288,28,428696,2,0,P|360:44|436:16,1,150.000005722046,2|2,1:2|0:0,0:0:0:0:
496,168,429212,1,0,0:0:0:0:
468,196,429315,6,0,L|464:296,1,100.000003814697,2|0,1:2|0:0,0:0:0:0:
392,212,429624,2,0,L|388:312,1,100.000003814697,2|2,0:0|0:0,0:0:0:0:
291,127,429933,6,0,L|287:27,1,100.000003814697,0|0,1:0|0:0,0:0:0:0:
215,111,430242,2,0,L|211:11,1,100.000003814697,2|2,0:0|0:0,0:0:0:0:
114,196,430552,6,0,P|72:224|16:232,1,100.000003814697,0|0,1:0|0:0,0:0:0:0:
16,312,430861,2,0,P|61:334|96:378,1,100.000003814697,2|0,0:0|0:0,0:0:0:0:
164,332,431170,2,0,P|160:281|224:196,1,150.000005722046,2|2,1:2|0:0,0:0:0:0:
372,180,431686,1,0,0:0:0:0:
372,180,431789,6,0,L|472:188,1,100.000003814697,2|2,1:2|0:0,0:0:0:0:
380,356,432098,2,0,L|280:348,1,100.000003814697,2|0,0:0|0:0,0:0:0:0:
464,264,432408,2,0,L|456:364,1,100.000003814697,2|0,1:2|0:0,0:0:0:0:
288,272,432717,2,0,L|296:172,1,100.000003814697,2|0,0:0|0:0,0:0:0:0:
396,64,433026,6,0,P|440:80|480:120,1,100.000003814697,2|0,1:2|0:0,0:0:0:0:
392,168,433335,2,0,P|418:206|428:262,1,100.000003814697,2|0,0:0|0:0,0:0:0:0:
329,250,433645,2,0,P|329:296|305:348,1,100.000003814697,2|0,1:2|0:0,0:0:0:0:
230,281,433954,2,0,P|203:319|154:347,1,100.000003814697,2|0,0:0|0:0,0:0:0:0:
131,249,434263,5,2,0:0:0:0:
131,249,434572,2,0,P|87:265|30:260,1,100.000003814697,0|2,0:0|0:0,0:0:0:0:
16,112,434882,2,0,P|24:65|56:19,1,100.000003814697,2|0,1:2|1:0,0:0:0:0:
192,80,435191,2,0,P|227:110|251:161,1,100.000003814697,2|0,0:0|0:0,0:0:0:0:
120,348,435500,6,0,P|60:356|4:340,1,119.999996337891,4|0,1:2|0:0,0:0:0:0:
16,112,435810,2,0,P|39:56|80:15,1,119.999996337891,2|0,0:0|0:0,0:0:0:0:
273,140,436119,2,0,P|309:187|324:244,1,119.999996337891,2|0,1:0|0:0,0:0:0:0:
324,244,436428,1,2,0:0:0:0:
500,164,436634,1,2,0:0:0:0:
500,164,436737,6,0,L|508:44,1,119.999996337891,0|0,1:0|0:0,0:0:0:0:
273,140,437047,2,0,L|265:20,1,119.999996337891,2|2,0:0|0:0,0:0:0:0:
384,200,437356,2,0,L|392:80,1,119.999996337891,0|0,1:0|0:0,0:0:0:0:
157,176,437666,6,0,P|124:148|172:152,1,119.999996337891,4|0,1:2|0:0,0:0:0:0:
112,248,437975,6,0,P|64:216|48:148,1,119.999996337891,0|0,1:0|0:0,0:0:0:0:
188,56,438284,2,0,P|236:88|252:156,1,119.999996337891,2|0,0:0|0:0,0:0:0:0:
54,114,438593,2,0,P|86:66|154:50,1,119.999996337891,2|0,1:0|0:0,0:0:0:0:
246,190,438902,2,0,P|214:238|146:253,1,119.999996337891,2|2,0:0|0:0,0:0:0:0:
280,20,439212,6,0,L|400:24,1,119.999996337891,0|2,1:0|0:0,0:0:0:0:
352,108,439521,2,0,L|472:112,1,119.999996337891
228,168,439830,6,0,L|108:172,1,119.999996337891,2|2,1:0|0:0,0:0:0:0:
156,255,440139,2,0,L|36:259,1,119.999996337891
280,344,440449,6,0,P|336:352|396:376,1,119.999996337891,2|2,1:0|0:0,0:0:0:0:
440,226,440758,2,0,P|448:170|472:110,1,119.999996337891,2|0,0:0|0:0,0:0:0:0:
322,66,441067,2,0,P|265:58|205:34,1,119.999996337891,2|2,1:0|0:0,0:0:0:0:
162,184,441377,2,0,P|154:240|130:300,1,119.999996337891,2|0,0:0|0:0,0:0:0:0:
328,328,441686,6,0,P|381:345|436:379,1,119.999996337891,2|2,1:0|0:0,0:0:0:0:
424,178,441995,2,0,P|441:124|475:69,1,119.999996337891,2|0,0:0|0:0,0:0:0:0:
273,82,442304,2,0,P|219:64|164:30,1,119.999996337891,2|0,1:0|0:0,0:0:0:0:
177,233,442614,2,0,P|159:286|125:341,1,119.999996337891,2|0,0:0|0:0,0:0:0:0:
4,224,442923,6,0,L|0:100,1,119.999996337891,2|2,1:0|0:0,0:0:0:0:
165,31,443232,2,0,L|161:155,1,119.999996337891
284,272,443542,2,0,P|376:280|444:224,1,179.999994506836,0|2,1:0|0:0,0:0:0:0:
320,68,444160,6,0,P|324:128|344:184,1,119.999996337891,0|2,1:0|0:0,0:0:0:0:
188,112,444469,2,0,P|184:172|164:228,1,119.999996337891,2|0,0:0|0:0,0:0:0:0:
316,304,444779,2,0,P|368:324|436:328,1,119.999996337891,2|0,1:0|0:0,0:0:0:0:
196,344,445088,2,0,P|144:364|76:368,1,119.999996337891,2|0,0:0|0:0,0:0:0:0:
4,224,445397,6,0,L|0:100,1,119.999996337891,0|0,1:0|0:0,0:0:0:0:
161,150,445707,2,0,L|165:26,1,119.999996337891,2|0,0:0|0:0,0:0:0:0:
316,200,446016,2,0,L|312:76,1,119.999996337891,2|0,1:0|0:0,0:0:0:0:
473,126,446325,1,2,0:0:0:0:
512,312,446531,1,2,0:0:0:0:
484,352,446634,6,0,P|428:368|364:364,1,119.999996337891,0|0,1:0|0:0,0:0:0:0:
252,332,446944,2,0,P|203:299|165:247,1,119.999996337891,2|2,0:0|0:0,0:0:0:0:
118,141,447253,2,0,P|111:83|127:20,1,119.999996337891,0|0,1:0|0:0,0:0:0:0:
348,160,447562,6,0,P|340:188|324:144,1,119.999996337891,4|0,1:2|0:0,0:0:0:0:
380,44,447871,6,0,L|500:52,1,119.999996337891,0|0,1:0|0:0,0:0:0:0:
404,277,448181,2,0,L|337:376,1,119.999996337891,2|0,0:0|0:0,0:0:0:0:
190,181,448490,2,0,L|136:73,1,119.999996337891,2|0,1:0|0:0,0:0:0:0:
137,73,448799,1,2,0:0:0:0:
395,63,449005,1,2,0:0:0:0:
395,63,449109,6,0,L|512:91,1,119.999996337891,0|2,1:0|0:0,0:0:0:0:
404,277,449418,2,0,L|287:305,1,119.999996337891
137,73,449727,2,0,L|253:101,1,119.999996337891,2|2,1:0|0:0,0:0:0:0:
145,286,450036,2,0,L|28:314,1,119.999996337891
24,136,450346,6,0,L|32:12,1,119.999996337891,2|2,1:0|0:0,0:0:0:0:
253,101,450655,2,0,L|245:225,1,119.999996337891,2|0,0:0|0:0,0:0:0:0:
121,4,450964,2,0,L|245:12,1,119.999996337891,2|2,1:0|0:0,0:0:0:0:
156,233,451273,2,0,L|32:225,1,119.999996337891,2|0,0:0|0:0,0:0:0:0:
253,101,451583,6,0,L|377:93,1,119.999996337891,2|2,1:0|0:0,0:0:0:0:
476,216,451892,2,0,L|352:208,1,119.999996337891,2|0,0:0|0:0,0:0:0:0:
256,308,452201,2,0,P|312:300|404:372,1,179.999994506836,0|2,1:0|0:0,0:0:0:0:
476,216,452717,1,2,0:0:0:0:
476,216,452820,6,0,P|464:156|468:96,1,119.999996337891,0|0,1:0|0:0,0:0:0:0:
300,16,453129,2,0,P|254:56|200:82,1,119.999996337891
214,268,453438,2,0,P|271:287|321:321,1,119.999996337891,0|0,1:0|0:0,0:0:0:0:
320,319,453748,1,0,0:0:0:0:
160,180,454057,6,0,L|40:192,1,119.999996337891,0|0,0:0|1:0,0:0:0:0:
8,284,454366,2,0,P|32:324|100:360,1,119.999996337891
255,140,454676,6,0,L|375:152,1,119.999996337891,0|0,1:0|1:0,0:0:0:0:
407,244,454985,2,0,P|383:284|315:320,1,119.999996337891
160,180,455294,6,0,L|148:60,1,119.999996337891,6|2,1:2|0:0,0:0:0:0:
352,148,455603,2,0,L|364:28,1,119.999996337891,2|0,0:0|0:0,0:0:0:0:
63,172,455913,6,0,L|51:52,1,119.999996337891,2|2,1:0|0:0,0:0:0:0:
255,140,456222,2,0,L|267:20,1,119.999996337891,2|0,0:0|0:0,0:0:0:0:
448,160,456531,6,0,P|460:220|456:280,1,119.999996337891,2|2,1:0|0:0,0:0:0:0:
412,72,456841,2,0,P|457:31|511:5,1,119.999996337891,2|0,0:0|0:0,0:0:0:0:
352,148,457150,2,0,P|294:128|208:48,1,179.999994506836,0|2,1:0|0:0,0:0:0:0:
28,112,457665,1,2,0:0:0:0:
28,112,457768,6,0,L|24:304,1,179.999994506836,0|0,1:0|0:0,0:0:0:0:
204,368,458284,1,0,0:0:0:0:
204,368,458387,2,0,L|200:176,1,179.999994506836,0|0,1:0|0:0,0:0:0:0:
448,44,459005,6,0,P|488:88|512:144,1,119.999996337891,2|0,1:0|0:0,0:0:0:0:
511,240,459315,2,0,P|488:295|448:340,1,119.999996337891
350,111,459624,6,0,P|362:169|356:229,1,119.999996337891,2|0,1:0|0:0,0:0:0:0:
308,314,459933,2,0,P|260:349|204:368,1,119.999996337891,2|0,0:0|0:0,0:0:0:0:
230,120,460243,6,0,P|212:177|177:225,1,119.999996337891,2|2,1:0|0:0,0:0:0:0:
40,92,460552,2,0,P|96:110|144:145,1,119.999996337891,2|0,0:0|0:0,0:0:0:0:
11,282,460861,2,0,P|29:225|64:177,1,119.999996337891,2|2,1:0|0:0,0:0:0:0:
201,311,461170,2,0,P|144:292|96:257,1,119.999996337891,2|0,0:0|0:0,0:0:0:0:
311,73,461480,6,0,P|367:91|415:126,1,119.999996337891,2|2,1:0|0:0,0:0:0:0:
501,102,461789,2,0,P|482:158|447:206,1,119.999996337891,2|0,0:0|0:0,0:0:0:0:
472,292,462098,2,0,P|415:273|367:238,1,119.999996337891,0|0,1:0|0:0,0:0:0:0:
281,263,462407,2,0,P|299:206|335:159,1,119.999996337891,2|2,0:0|0:0,0:0:0:0:
220,24,462717,6,0,L|96:32,1,119.999996337891,0|0,1:0|0:0,0:0:0:0:
335,159,463026,2,0,L|459:167,1,119.999996337891,0|0,0:0|1:0,0:0:0:0:
204,104,463335,2,0,L|80:112,1,119.999996337891,0|0,1:0|0:0,0:0:0:0:
319,239,463644,2,0,L|443:247,1,119.999996337891,4|0,1:2|0:0,0:0:0:0:
472,88,463954,5,0,0:0:0:0:
472,88,464263,2,0,P|428:48|372:28,1,119.999996337891,0|0,0:0|1:0,0:0:0:0:
192,36,464572,2,0,P|135:54|90:92,1,119.999996337891,0|0,1:0|1:0,0:0:0:0:
6,252,464882,2,0,P|-6:310|4:368,1,119.999996337891,0|4,1:0|1:2,0:0:0:0:
256,192,465191,12,0,472150,0:0:0:0:
