osu file format v13

[General]
AudioFilename: 04-.mp3
AudioLeadIn: 0
PreviewTime: -1
Countdown: 1
SampleSet: Soft
StackLeniency: 0.7
Mode: 0
LetterboxInBreaks: 1
WidescreenStoryboard: 0

[Editor]
Bookmarks: 31124,47676
DistanceSpacing: 1
BeatDivisor: 4
GridSize: 4
TimelineZoom: 1

[Metadata]
Title:Flower Village
TitleUnicode:フラワービレッジ
Artist:Floating Cloud
ArtistUnicode:Floating Cloud
Creator:Ekoro
Version:Flowery
Source:Touhou
Tags:Yu-ki flowering night sakuya izayoi irish instrumental arrange
BeatmapID:462764
BeatmapSetID:194937

[Difficulty]
HPDrainRate:5
CircleSize:5.8
OverallDifficulty:4.5
ApproachRate:7.5
SliderMultiplier:1.2
SliderTickRate:1

[Events]
//Background and Video events
0,0,"114929.jpg",0,0
//Break Periods
//Storyboard Layer 0 (Background)
//Storyboard Layer 1 (Fail)
//Storyboard Layer 2 (Pass)
//Storyboard Layer 3 (Foreground)
//Storyboard Sound Samples
//Background Colour Transformations
3,100,163,162,255

[TimingPoints]
2219,517.241379310345,4,2,1,70,1,0
11917,-100,4,2,2,70,0,0
12563,-100,4,2,2,70,0,1
14632,-100,4,2,2,70,0,0
29115,-100,4,2,2,70,0,1
31184,-100,4,2,2,70,0,0
45667,-100,4,2,2,70,0,1
47736,-100,4,2,2,70,0,0
58081,-100,4,2,2,70,0,1
60150,-100,4,2,2,70,0,0
66356,-100,4,2,2,70,0,1
68167,-100,4,2,2,70,0,0
68425,-100,4,2,2,70,0,1
68943,-100,4,2,2,70,0,0
70494,-100,4,2,2,70,0,1
71012,-100,4,2,2,70,0,0
72563,-100,4,2,2,70,0,1
73081,-100,4,2,2,70,0,0
74632,-100,4,2,2,70,0,1
76443,-100,4,2,2,70,0,0
76701,-100,4,2,2,70,0,1
77219,-100,4,2,2,70,0,0
78770,-100,4,2,2,70,0,1
79287,-100,4,2,2,70,0,0
80839,-100,4,2,2,70,0,1
81356,-100,4,2,2,70,0,0
82908,-100,4,2,2,70,0,1
84977,-100,4,2,2,70,0,0
85106,-100,4,2,2,70,0,0
101529,-125,4,2,2,70,0,0
109827,517.241379310345,4,2,2,70,1,0
109827,-125,4,2,2,70,0,0
110875,517.241379310345,4,2,2,70,1,0
110875,-125,4,2,2,70,0,0
114718,517.241379310345,4,2,2,70,1,0
114718,-125,4,2,2,70,0,0
116011,517.241379310345,4,2,2,70,1,1
116012,-100,4,2,2,70,0,1
118081,-100,4,2,2,70,0,0
132563,-100,4,2,2,70,0,1
134632,-100,4,2,2,70,0,0
173943,-100,4,2,2,70,0,1
176012,-100,4,2,2,70,0,0
182219,-100,4,2,2,70,0,1
184029,-100,4,2,2,70,0,0
184287,-100,4,2,2,70,0,1
184805,-100,4,3,2,40,0,0
186356,-100,4,2,2,70,0,1
186874,-100,4,3,2,40,0,0
188425,-100,4,2,2,70,0,1
188943,-100,4,3,2,40,0,0
190494,-100,4,2,2,70,0,1
191917,-100,4,2,2,70,0,0
192046,-100,4,2,2,70,0,1
192175,-100,4,2,2,70,0,0

[Colours]
Combo1 : 218,165,218
Combo2 : 0,128,255
Combo3 : 170,213,255
Combo4 : 255,213,255

[HitObjects]
64,36,2219,6,0,P|76:80|72:124,2,90,8|8|8,0:0|0:0|0:0,0:0:0:0:
64,36,3512,2,8,L|136:28,1,60,8|8,0:0|0:0,0:0:0:0:
216,108,4287,6,0,P|204:152|208:196,2,90,8|8|8,0:0|0:0|0:0,0:0:0:0:
216,108,5581,2,8,L|144:100,1,60,8|8,0:0|0:0,0:0:0:0:
52,160,6356,5,10,0:0:0:0:
32,248,6744,1,8,0:0:0:0:
72,328,7132,2,0,P|124:360|180:356,1,120,10|8,0:0|0:0,0:0:0:0:
232,324,7908,1,10,0:0:0:0:
296,220,8425,5,10,0:0:0:0:
316,132,8813,1,8,0:0:0:0:
276,52,9201,2,0,P|224:20|168:24,1,120,10|10,0:0|0:0,0:0:0:0:
116,56,9977,1,10,0:0:0:0:
52,160,10494,6,0,L|32:252,1,90,10|8,0:0|0:0,0:0:0:0:
72,332,11270,2,0,P|120:360|184:352,1,120,10|10,0:0|0:0,0:0:0:0:
224,312,12046,1,2,0:0:0:0:
244,288,12175,1,0,0:0:0:0:
272,276,12305,1,0,0:0:0:0:
300,280,12434,1,0,0:0:0:0:
328,296,12563,6,0,L|392:304,1,60,10|0,0:0|0:0,0:0:0:0:
416,292,12951,1,0,0:0:0:0:
444,284,13081,2,0,P|440:252|444:224,1,60,10|0,0:0|0:0,0:0:0:0:
504,120,13856,1,10,0:0:0:0:
504,120,14115,1,10,0:0:0:0:
420,32,14632,6,0,L|328:40,1,90,2|10,0:0|0:0,0:0:0:0:
300,32,15150,2,0,P|304:64|304:92,1,60,0|10,0:0|0:0,0:0:0:0:
248,116,15667,2,0,P|244:84|244:56,1,60,0|10,0:0|0:0,0:0:0:0:
196,24,16184,1,10,0:0:0:0:
172,44,16313,1,2,0:0:0:0:
144,52,16443,1,0,0:0:0:0:
116,48,16572,1,0,0:0:0:0:
88,32,16701,6,0,P|80:76|64:120,1,90,0|10,0:0|0:0,0:0:0:0:
44,140,17219,2,0,L|48:200,1,60,0|2,0:0|0:0,0:0:0:0:
68,224,17606,1,0,0:0:0:0:
96,236,17736,2,0,P|128:240|156:232,1,60,2|10,0:0|0:0,0:0:0:0:
192,184,18253,2,0,L|196:152,1,30,10|2,0:0|0:0,0:0:0:0:
176,132,18512,2,0,L|172:100,1,30,0|0,0:0|0:0,0:0:0:0:
188,76,18770,6,0,P|232:72|276:88,1,90,0|10,0:0|0:0,0:0:0:0:
296,108,19287,1,0,0:0:0:0:
296,108,19546,1,10,0:0:0:0:
320,164,19805,2,0,P|352:168|380:160,1,60,0|10,0:0|0:0,0:0:0:0:
436,140,20322,1,10,0:0:0:0:
436,140,20451,1,2,0:0:0:0:
436,140,20581,1,0,0:0:0:0:
436,140,20710,1,0,0:0:0:0:
436,140,20839,6,0,P|444:192|456:228,1,90,0|10,0:0|0:0,0:0:0:0:
472,252,21356,2,0,L|468:312,1,60,0|10,0:0|0:0,0:0:0:0:
428,356,21874,1,0,0:0:0:0:
368,344,22132,1,10,0:0:0:0:
332,296,22391,1,10,0:0:0:0:
332,296,22520,1,0,0:0:0:0:
332,296,22650,1,2,0:0:0:0:
336,236,22908,6,0,P|340:192|336:144,1,90,0|10,0:0|0:0,0:0:0:0:
316,124,23425,2,0,L|256:132,1,60,0|10,0:0|0:0,0:0:0:0:
212,172,23943,2,0,P|208:200|208:232,1,60,0|10,0:0|0:0,0:0:0:0:
248,276,24460,1,10,0:0:0:0:
252,304,24589,1,2,0:0:0:0:
244,332,24719,1,0,0:0:0:0:
224,352,24848,1,0,0:0:0:0:
196,360,24977,6,0,P|152:356|120:320,1,90,0|10,0:0|0:0,0:0:0:0:
116,296,25494,1,0,0:0:0:0:
148,244,25753,1,10,0:0:0:0:
208,232,26012,2,0,P|240:232|268:240,1,60,2|10,0:0|0:0,0:0:0:0:
300,292,26529,2,0,P|332:292|360:284,1,60,10|0,0:0|0:0,0:0:0:0:
380,228,27046,6,0,L|384:136,1,90,0|10,0:0|0:0,0:0:0:0:
404,116,27563,2,0,P|433:115|462:123,1,60,0|10,0:0|0:0,0:0:0:0:
320,168,28081,2,0,P|290:168|261:160,1,60,0|10,0:0|0:0,0:0:0:0:
328,28,28598,1,10,0:0:0:0:
356,24,28727,1,2,0:0:0:0:
384,28,28856,1,0,0:0:0:0:
412,40,28986,1,0,0:0:0:0:
440,44,29115,6,0,P|472:40|500:28,1,60,10|0,0:0|0:0,0:0:0:0:
452,108,29632,2,0,P|439:137|435:167,1,60,10|0,0:0|0:0,0:0:0:0:
392,88,30150,2,0,P|372:62|348:44,2,60,0|10|10,0:0|0:0|0:0,0:0:0:0:
456,224,31184,6,0,L|452:288,1,60,0|2,0:0|0:0,0:0:0:0:
420,336,31701,1,8,0:0:0:0:
420,336,31831,1,0,0:0:0:0:
420,336,31960,1,2,0:0:0:0:
360,352,32219,2,0,L|356:288,1,60,2|10,0:0|0:0,0:0:0:0:
324,240,32736,1,10,0:0:0:0:
324,240,32865,1,2,0:0:0:0:
324,240,32994,1,0,0:0:0:0:
324,240,33124,1,0,0:0:0:0:
324,240,33253,6,0,P|292:248|268:260,1,60,0|2,0:0|0:0,0:0:0:0:
224,300,33770,2,0,L|228:336,1,30,8|2,0:0|0:0,0:0:0:0:
200,316,34029,2,0,L|196:348,1,30,0|0,0:0|0:0,0:0:0:0:
172,328,34287,2,0,P|164:360|152:384,1,60,2|10,0:0|0:0,0:0:0:0:
52,364,34805,2,0,L|48:328,1,30,10|2,0:0|0:0,0:0:0:0:
76,348,35063,2,0,L|80:316,1,30
104,336,35322,6,0,P|112:304|124:280,1,60,0|2,0:0|0:0,0:0:0:0:
168,236,35839,1,8,0:0:0:0:
196,228,35969,1,2,0:0:0:0:
224,232,36098,1,0,0:0:0:0:
248,248,36227,1,0,0:0:0:0:
264,272,36356,2,0,L|268:340,1,60,2|8,0:0|0:0,0:0:0:0:
316,368,36874,1,10,0:0:0:0:
344,376,37003,1,2,0:0:0:0:
372,372,37132,1,0,0:0:0:0:
396,356,37262,1,0,0:0:0:0:
412,332,37391,6,0,L|416:264,1,60,0|2,0:0|0:0,0:0:0:0:
372,228,37908,1,8,0:0:0:0:
372,228,38037,1,2,0:0:0:0:
372,228,38167,1,0,0:0:0:0:
372,228,38296,1,0,0:0:0:0:
372,228,38425,2,0,L|368:160,1,60,2|10,0:0|0:0,0:0:0:0:
332,120,38943,2,0,L|336:88,2,30,8|0|2,0:0|0:0|0:0,0:0:0:0:
276,140,39460,6,0,P|244:144|216:144,1,60,0|2,0:0|0:0,0:0:0:0:
160,128,39977,2,0,L|152:100,4,30,8|2|0|0|2,0:0|0:0|0:0|0:0|0:0,0:0:0:0:
104,152,40753,1,8,0:0:0:0:
48,176,41012,2,0,L|40:204,4,30,10|2|0|0|0,0:0|0:0|0:0|0:0|0:0,0:0:0:0:
28,120,41787,5,2,0:0:0:0:
4,64,42046,2,0,L|0:32,1,30,8|2,0:0|0:0,0:0:0:0:
28,48,42305,2,0,L|40:20,1,30,0|0,0:0|0:0,0:0:0:0:
60,44,42563,2,0,P|80:20|104:4,1,60,2|10,0:0|0:0,0:0:0:0:
152,40,43081,2,0,L|148:72,1,30,10|2,0:0|0:0,0:0:0:0:
176,56,43339,2,0,L|188:84,1,30,0|0,0:0|0:0,0:0:0:0:
208,60,43598,6,0,P|228:84|252:100,1,60,0|2,0:0|0:0,0:0:0:0:
312,112,44115,2,0,L|316:144,4,30,8|2|0|0|2,0:0|0:0|0:0|0:0|0:0,0:0:0:0:
368,92,44891,1,8,0:0:0:0:
424,72,45150,2,0,L|428:40,3,30,10|0|0|2,0:0|0:0|0:0|0:0,0:0:0:0:
448,20,45667,5,10,0:0:0:0:
500,48,45925,1,0,0:0:0:0:
484,104,46184,1,10,0:0:0:0:
460,120,46313,1,0,0:0:0:0:
448,148,46443,1,0,0:0:0:0:
448,176,46572,1,0,0:0:0:0:
460,204,46701,2,0,L|452:272,2,60,0|10|10,0:0|0:0|0:0,0:0:0:0:
344,176,47736,5,2,0:0:0:0:
296,212,47994,2,0,L|300:248,2,30,10|0|2,0:0|0:0|0:0,0:0:0:0:
244,184,48512,1,8,0:0:0:0:
244,184,48641,2,0,P|216:192|184:196,1,60,2|0,0:0|0:0,0:0:0:0:
160,180,49029,2,0,L|164:144,2,30,10|0|10,0:0|0:0|0:0,0:0:0:0:
104,204,49546,1,2,0:0:0:0:
56,168,49805,5,2,0:0:0:0:
72,144,49934,1,0,0:0:0:0:
80,116,50063,1,10,0:0:0:0:
76,88,50193,1,0,0:0:0:0:
64,60,50322,2,0,L|124:52,1,60,2|8,0:0|0:0,0:0:0:0:
144,72,50710,2,0,L|236:84,1,90,2|8,0:0|0:0,0:0:0:0:
292,64,51356,2,0,L|352:56,1,60,8|0,0:0|0:0,0:0:0:0:
408,76,51874,5,2,0:0:0:0:
404,104,52003,1,0,0:0:0:0:
416,132,52132,1,10,0:0:0:0:
444,144,52262,1,0,0:0:0:0:
472,140,52391,2,0,L|476:204,1,60,2|8,0:0|0:0,0:0:0:0:
460,224,52779,2,0,P|416:220|368:232,1,90,2|8,0:0|0:0,0:0:0:0:
340,284,53425,1,8,0:0:0:0:
332,312,53555,2,0,L|356:332,2,30,0|2|0,0:0|0:0|0:0,0:0:0:0:
312,336,53943,5,2,0:0:0:0:
284,348,54072,1,0,0:0:0:0:
256,348,54201,1,10,0:0:0:0:
228,336,54331,1,0,0:0:0:0:
208,312,54460,2,0,L|148:320,1,60,2|8,0:0|0:0,0:0:0:0:
128,340,54848,2,0,L|32:328,1,90,2|8,0:0|0:0,0:0:0:0:
20,272,55494,1,8,0:0:0:0:
44,256,55624,1,2,0:0:0:0:
56,228,55753,1,0,0:0:0:0:
52,200,55882,1,0,0:0:0:0:
32,176,56012,6,0,L|28:140,1,30,2|0,0:0|0:0,0:0:0:0:
48,124,56270,2,0,L|52:88,2,30,10|0|2,0:0|0:0|0:0,0:0:0:0:
100,152,56787,1,8,0:0:0:0:
100,152,56917,2,0,P|144:156|188:148,1,90,2|8,0:0|0:0,0:0:0:0:
244,120,57563,2,0,L|252:184,1,60,8|2,0:0|0:0,0:0:0:0:
300,212,58081,5,10,0:0:0:0:
328,220,58210,1,0,0:0:0:0:
356,216,58339,1,0,0:0:0:0:
380,200,58469,1,0,0:0:0:0:
396,176,58598,2,0,L|404:112,1,60,10|0,0:0|0:0,0:0:0:0:
412,56,59115,5,0,0:0:0:0:
332,156,59374,1,10,0:0:0:0:
464,176,59632,1,10,0:0:0:0:
280,36,60150,5,2,0:0:0:0:
280,36,60279,1,0,0:0:0:0:
280,36,60408,1,10,0:0:0:0:
280,36,60537,1,0,0:0:0:0:
280,36,60667,2,0,L|216:44,1,60,2|8,0:0|0:0,0:0:0:0:
200,64,61055,2,0,P|208:108|200:152,1,90,2|8,0:0|0:0,0:0:0:0:
160,200,61701,1,8,0:0:0:0:
132,208,61831,1,2,0:0:0:0:
104,208,61960,1,0,0:0:0:0:
76,200,62089,1,0,0:0:0:0:
52,184,62219,6,0,L|48:152,4,30,2|0|10|0|2,0:0|0:0|0:0|0:0|0:0,0:0:0:0:
20,236,62994,2,0,L|16:268,1,30,8|2,0:0|0:0,0:0:0:0:
44,320,63382,2,0,L|48:352,1,30,0|8,0:0|0:0,0:0:0:0:
108,364,63770,1,8,0:0:0:0:
140,368,63900,1,2,0:0:0:0:
168,360,64029,1,0,0:0:0:0:
192,340,64158,1,0,0:0:0:0:
208,316,64287,6,0,L|212:284,1,30,2|0,0:0|0:0,0:0:0:0:
196,260,64546,2,0,L|192:228,1,30,10|0,0:0|0:0,0:0:0:0:
208,204,64805,2,0,L|216:144,1,60,2|8,0:0|0:0,0:0:0:0:
200,120,65193,2,0,L|188:28,1,90,2|8,0:0|0:0,0:0:0:0:
244,12,65839,1,8,0:0:0:0:
296,40,66098,1,2,0:0:0:0:
312,96,66356,6,0,L|304:160,1,60,10|0,0:0|0:0,0:0:0:0:
272,204,66874,2,0,L|264:268,1,60,10|0,0:0|0:0,0:0:0:0:
276,324,67391,2,0,L|268:388,2,60,0|10|10,0:0|0:0|0:0,0:0:0:0:
396,180,68425,5,10,0:0:0:0:
400,300,68684,1,10,0:0:0:0:
175,76,70494,5,10,0:0:0:0:
277,13,70753,1,10,0:0:0:0:
196,319,72563,5,10,0:0:0:0:
90,262,72822,1,10,0:0:0:0:
252,156,74632,5,10,0:0:0:0:
226,213,74891,1,0,0:0:0:0:
289,206,75150,1,10,0:0:0:0:
192,164,75408,5,0,0:0:0:0:
192,164,75537,1,0,0:0:0:0:
192,164,75667,1,0,0:0:0:0:
263,261,75925,1,10,0:0:0:0:
312,150,76184,1,10,0:0:0:0:
128,148,76701,5,10,0:0:0:0:
151,266,76960,1,10,0:0:0:0:
358,103,78770,5,10,0:0:0:0:
243,64,79029,1,10,0:0:0:0:
281,324,80839,5,10,0:0:0:0:
372,244,81098,1,10,0:0:0:0:
252,164,82908,5,10,0:0:0:0:
228,187,83037,1,0,0:0:0:0:
242,217,83167,1,0,0:0:0:0:
275,212,83296,1,0,0:0:0:0:
281,179,83425,1,10,0:0:0:0:
172,140,83684,5,0,0:0:0:0:
204,276,83943,1,0,0:0:0:0:
340,244,84201,1,10,0:0:0:0:
308,108,84460,1,10,0:0:0:0:
120,24,84977,6,0,L|60:32,1,60,0|10,0:0|0:0,0:0:0:0:
40,88,85494,2,0,L|100:96,1,60,0|10,0:0|0:0,0:0:0:0:
120,152,86012,5,0,0:0:0:0:
64,168,86270,1,10,0:0:0:0:
64,168,86400,1,2,0:0:0:0:
64,168,86529,2,0,L|24:180,2,30,0|0|10,0:0|0:0|0:0,0:0:0:0:
104,212,87046,6,0,P|108:244|108:272,1,60,0|10,0:0|0:0,0:0:0:0:
88,328,87563,2,0,L|152:336,1,60,0|10,0:0|0:0,0:0:0:0:
208,320,88081,5,0,0:0:0:0:
264,300,88339,2,0,L|272:336,1,30,10|2,0:0|0:0,0:0:0:0:
296,312,88598,2,0,L|318:341,1,30,0|2,0:0|0:0,0:0:0:0:
328,308,88856,1,10,0:0:0:0:
384,284,89115,6,0,L|392:224,1,60,0|10,0:0|0:0,0:0:0:0:
348,184,89632,2,0,L|340:124,1,60,0|10,0:0|0:0,0:0:0:0:
380,80,90150,5,0,0:0:0:0:
440,68,90408,2,0,L|472:72,4,30,10|2|0|0|10,0:0|0:0|0:0|0:0|0:0,0:0:0:0:
400,24,91184,5,0,0:0:0:0:
340,36,91443,2,0,L|280:28,1,60,10|0,0:0|0:0,0:0:0:0:
224,4,91960,2,0,L|164:12,1,60,10|0,0:0|0:0,0:0:0:0:
108,36,92477,5,10,0:0:0:0:
112,64,92606,1,2,0:0:0:0:
108,92,92736,1,0,0:0:0:0:
88,116,92865,1,2,0:0:0:0:
60,124,92994,1,10,0:0:0:0:
0,116,93253,6,0,L|4:176,1,60,0|2,0:0|0:0,0:0:0:0:
32,228,93770,1,8,0:0:0:0:
60,240,93900,1,2,0:0:0:0:
88,240,94029,1,0,0:0:0:0:
116,228,94158,1,0,0:0:0:0:
136,204,94287,2,0,L|140:144,1,60,2|8,0:0|0:0,0:0:0:0:
172,92,94805,1,10,0:0:0:0:
200,80,94934,1,2,0:0:0:0:
228,80,95063,1,0,0:0:0:0:
256,92,95193,1,0,0:0:0:0:
276,116,95322,6,0,L|280:176,1,60,0|2,0:0|0:0,0:0:0:0:
248,228,95839,1,8,0:0:0:0:
248,228,95969,1,2,0:0:0:0:
248,228,96098,1,0,0:0:0:0:
248,228,96227,1,0,0:0:0:0:
248,228,96356,2,0,L|244:288,1,60,2|10,0:0|0:0,0:0:0:0:
268,344,96874,2,0,L|300:352,3,30,10|2|0|0,0:0|0:0|0:0|0:0,0:0:0:0:
328,356,97391,6,0,P|356:348|392:344,1,60,0|2,0:0|0:0,0:0:0:0:
448,352,97908,2,0,L|480:360,4,30,8|2|0|0|2,0:0|0:0|0:0|0:0|0:0,0:0:0:0:
424,296,98684,1,8,0:0:0:0:
400,240,98943,2,0,L|368:232,4,30,10|2|0|0|0,0:0|0:0|0:0|0:0|0:0,0:0:0:0:
460,248,99719,5,2,0:0:0:0:
492,200,99977,1,8,0:0:0:0:
468,184,100106,1,2,0:0:0:0:
456,156,100236,1,0,0:0:0:0:
456,128,100365,1,0,0:0:0:0:
468,100,100494,2,0,L|476:40,1,60,2|10,0:0|0:0,0:0:0:0:
428,4,101012,2,0,L|396:0,2,30,8|0|2,0:0|0:0|0:0,0:0:0:0:
416,64,101529,5,6,0:0:0:0:
416,64,102046,2,0,P|372:80|324:76,1,96,0|2,0:0|0:0,0:0:0:0:
276,44,102822,1,2,0:0:0:0:
272,100,103081,2,0,L|276:124,3,24,0|0|0|0,0:0|0:0|0:0|0:0,0:0:0:0:
292,148,103598,6,0,P|336:164|384:160,2,96,2|2|0,0:0|0:0|0:0,0:0:0:0:
236,164,104891,1,2,0:0:0:0:
192,204,105150,1,0,0:0:0:0:
192,204,105279,1,0,0:0:0:0:
192,204,105408,1,2,0:0:0:0:
168,256,105667,6,0,L|164:308,1,48,0|2,0:0|0:0,0:0:0:0:
60,352,106443,1,2,0:0:0:0:
60,352,106701,2,0,L|56:300,1,48,2|0,0:0|0:0,0:0:0:0:
96,260,107219,1,2,0:0:0:0:
96,260,107348,1,0,0:0:0:0:
96,260,107477,1,2,0:0:0:0:
96,260,107606,1,2,0:0:0:0:
96,260,107736,6,0,L|108:156,1,96,2|0,0:0|0:0,0:0:0:0:
184,76,108770,2,0,P|232:68|280:80,1,96,2|0,0:0|0:0,0:0:0:0:
344,176,109826,6,0,L|348:224,2,48,2|2|0,0:0|0:0|0:0,0:0:0:0:
452,132,110875,2,0,L|456:84,1,48,2|0,0:0|0:0,0:0:0:0:
428,32,111392,1,2,0:0:0:0:
404,48,111522,1,2,0:0:0:0:
376,52,111651,1,0,0:0:0:0:
348,40,111780,1,0,0:0:0:0:
328,16,111910,2,0,L|256:24,1,72,2|2,0:0|0:0,0:0:0:0:
236,44,112427,2,0,P|248:92|240:144,1,96,0|2,0:0|0:0,0:0:0:0:
196,168,113203,1,0,0:0:0:0:
140,152,113461,1,0,0:0:0:0:
140,152,113591,1,0,0:0:0:0:
140,152,113720,1,2,0:0:0:0:
112,100,113978,6,0,L|108:52,1,48,0|2,0:0|0:0,0:0:0:0:
12,116,114719,1,2,0:0:0:0:
16,172,114977,2,0,L|20:220,1,48,2|0,0:0|0:0,0:0:0:0:
64,256,115494,2,0,L|60:304,1,48,2|0,0:0|0:0,0:0:0:0:
28,352,116012,5,10,0:0:0:0:
76,152,116529,1,10,0:0:0:0:
184,328,117046,5,0,0:0:0:0:
208,228,117305,1,10,0:0:0:0:
232,128,117563,1,10,0:0:0:0:
416,36,118081,5,2,0:0:0:0:
444,32,118210,1,2,0:0:0:0:
472,44,118339,1,0,0:0:0:0:
488,68,118469,1,10,0:0:0:0:
492,96,118598,1,0,0:0:0:0:
484,124,118727,1,0,0:0:0:0:
460,144,118856,1,10,0:0:0:0:
432,152,118986,1,2,0:0:0:0:
404,144,119115,6,0,L|396:176,1,30,0|0,0:0|0:0,0:0:0:0:
348,208,119374,2,0,L|340:240,1,30,10|0,0:0|0:0,0:0:0:0:
368,296,119632,1,10,0:0:0:0:
368,296,119762,1,2,0:0:0:0:
368,296,119891,2,0,L|360:328,1,30,2|0,0:0|0:0,0:0:0:0:
308,364,120150,5,2,0:0:0:0:
284,348,120279,1,2,0:0:0:0:
256,340,120408,1,0,0:0:0:0:
228,340,120537,1,10,0:0:0:0:
200,344,120667,1,0,0:0:0:0:
172,348,120796,1,2,0:0:0:0:
144,348,120925,1,10,0:0:0:0:
116,340,121054,1,2,0:0:0:0:
92,324,121184,2,0,P|80:296|76:264,1,60,0|10,0:0|0:0,0:0:0:0:
76,236,121572,1,0,0:0:0:0:
84,208,121701,2,0,L|112:200,2,30,10|2|2,0:0|0:0|0:0,0:0:0:0:
44,164,122219,6,0,P|52:120|48:72,2,90,0|10|10,0:0|0:0|0:0,0:0:0:0:
32,192,123124,1,0,0:0:0:0:
12,216,123253,2,0,L|16:280,1,60,0|10,0:0|0:0,0:0:0:0:
48,328,123770,1,10,0:0:0:0:
76,340,123900,1,2,0:0:0:0:
104,344,124029,1,0,0:0:0:0:
132,336,124158,1,0,0:0:0:0:
156,320,124287,6,0,L|164:288,1,30,2|2,0:0|0:0,0:0:0:0:
116,252,124546,2,0,L|108:220,1,30,0|8,0:0|0:0,0:0:0:0:
164,200,124805,2,0,L|172:168,1,30,2|2,0:0|0:0,0:0:0:0:
124,132,125064,2,0,L|116:100,1,30,8|0,0:0|0:0,0:0:0:0:
176,72,125322,5,2,0:0:0:0:
204,76,125451,1,2,0:0:0:0:
232,68,125581,1,8,0:0:0:0:
256,52,125710,1,2,0:0:0:0:
272,28,125839,1,8,0:0:0:0:
384,72,126356,5,2,0:0:0:0:
408,128,126615,1,0,0:0:0:0:
436,136,126744,1,10,0:0:0:0:
452,160,126874,1,0,0:0:0:0:
456,188,127003,1,0,0:0:0:0:
444,216,127132,1,10,0:0:0:0:
420,232,127262,1,0,0:0:0:0:
392,236,127391,1,2,0:0:0:0:
364,224,127520,1,2,0:0:0:0:
348,200,127650,1,8,0:0:0:0:
324,184,127779,1,0,0:0:0:0:
296,184,127908,1,10,0:0:0:0:
268,196,128037,2,0,P|276:224|276:256,1,60,2|2,0:0|0:0,0:0:0:0:
256,276,128425,6,0,L|196:284,1,60,0|2,0:0|0:0,0:0:0:0:
168,276,128813,1,10,0:0:0:0:
144,260,128943,1,0,0:0:0:0:
128,236,129072,1,2,0:0:0:0:
120,208,129201,1,8,0:0:0:0:
120,176,129331,1,0,0:0:0:0:
132,148,129460,1,2,0:0:0:0:
184,116,129719,2,0,L|176:52,2,60,10|8|2,0:0|0:0|0:0,0:0:0:0:
240,136,130494,5,0,0:0:0:0:
268,144,130624,1,2,0:0:0:0:
296,140,130753,1,2,0:0:0:0:
320,124,130882,1,10,0:0:0:0:
336,100,131012,1,0,0:0:0:0:
340,72,131141,1,0,0:0:0:0:
356,48,131271,1,10,0:0:0:0:
380,32,131400,1,2,0:0:0:0:
408,28,131529,1,0,0:0:0:0:
436,36,131659,1,0,0:0:0:0:
460,56,131787,1,10,0:0:0:0:
468,84,131917,1,0,0:0:0:0:
468,112,132046,1,10,0:0:0:0:
456,140,132175,1,2,0:0:0:0:
432,160,132305,1,2,0:0:0:0:
384,200,132563,5,10,0:0:0:0:
409,215,132693,1,0,0:0:0:0:
420,243,132822,1,0,0:0:0:0:
409,271,132951,1,0,0:0:0:0:
384,286,133081,1,10,0:0:0:0:
354,281,133210,1,0,0:0:0:0:
335,258,133339,1,0,0:0:0:0:
335,228,133468,1,0,0:0:0:0:
354,205,133598,1,0,0:0:0:0:
480,224,133856,6,0,L|488:284,1,60,10|10,0:0|0:0,0:0:0:0:
392,352,134632,5,0,0:0:0:0:
332,336,134891,1,2,0:0:0:0:
276,356,135150,1,8,0:0:0:0:
248,352,135279,1,2,0:0:0:0:
224,336,135408,1,0,0:0:0:0:
208,312,135537,1,0,0:0:0:0:
204,284,135667,2,0,L|212:224,1,60,2|8,0:0|0:0,0:0:0:0:
260,188,136184,1,10,0:0:0:0:
288,184,136313,1,2,0:0:0:0:
312,168,136442,1,0,0:0:0:0:
328,144,136571,1,0,0:0:0:0:
332,116,136701,6,0,L|324:56,1,60,0|2,0:0|0:0,0:0:0:0:
276,20,137219,2,0,L|260:48,1,30,8|2,0:0|0:0,0:0:0:0:
232,36,137477,2,0,L|205:54,1,30,0|0,0:0|0:0,0:0:0:0:
184,36,137736,2,0,L|124:48,1,60,2|10,0:0|0:0,0:0:0:0:
108,104,138253,2,0,L|124:132,1,30,10|2,0:0|0:0,0:0:0:0:
152,120,138511,2,0,L|178:138,1,30,0|0,0:0|0:0,0:0:0:0:
200,120,138770,6,0,L|260:132,1,60,0|2,0:0|0:0,0:0:0:0:
312,108,139287,1,8,0:0:0:0:
312,108,139417,1,2,0:0:0:0:
312,108,139546,1,0,0:0:0:0:
312,108,139675,1,0,0:0:0:0:
312,108,139805,2,0,L|372:96,1,60,2|8,0:0|0:0,0:0:0:0:
428,116,140322,2,0,L|432:148,3,30,10|2|0|2,0:0|0:0|0:0|0:0,0:0:0:0:
436,176,140839,5,0,0:0:0:0:
380,192,141098,1,2,0:0:0:0:
352,244,141356,2,0,L|356:276,4,30,8|2|0|0|2,0:0|0:0|0:0|0:0|0:0,0:0:0:0:
292,228,142132,1,8,0:0:0:0:
232,212,142391,2,0,L|228:192,3,20,10|2|0|0,0:0|0:0|0:0|0:0,0:0:0:0:
200,140,142908,5,0,0:0:0:0:
144,120,143167,1,2,0:0:0:0:
84,136,143425,1,8,0:0:0:0:
60,156,143555,1,2,0:0:0:0:
48,184,143684,1,0,0:0:0:0:
44,212,143813,1,0,0:0:0:0:
48,240,143943,2,0,L|112:248,1,60,2|8,0:0|0:0,0:0:0:0:
168,240,144460,1,10,0:0:0:0:
192,260,144590,1,2,0:0:0:0:
204,288,144719,1,0,0:0:0:0:
208,316,144848,1,2,0:0:0:0:
204,344,144978,6,0,L|140:352,1,60,0|2,0:0|0:0,0:0:0:0:
88,336,145494,2,0,L|84:304,1,30,8|2,0:0|0:0,0:0:0:0:
64,284,145753,2,0,L|60:252,1,30,0|0,0:0|0:0,0:0:0:0:
76,228,146012,2,0,L|68:168,1,60,2|8,0:0|0:0,0:0:0:0:
48,112,146529,2,0,L|52:80,3,20,10|2|0|0,0:0|0:0|0:0|0:0,0:0:0:0:
88,44,147046,6,0,P|116:52|148:56,1,60,0|2,0:0|0:0,0:0:0:0:
204,40,147563,2,0,L|208:8,4,30,8|2|0|0|2,0:0|0:0|0:0|0:0|0:0,0:0:0:0:
260,60,148339,1,8,0:0:0:0:
316,80,148598,2,0,L|320:112,4,30,10|2|0|2|0,0:0|0:0|0:0|0:0|0:0,0:0:0:0:
372,56,149374,5,2,0:0:0:0:
428,32,149632,1,8,0:0:0:0:
456,44,149762,1,2,0:0:0:0:
468,72,149891,1,0,0:0:0:0:
468,100,150020,1,0,0:0:0:0:
452,124,150150,2,0,P|440:152|436:184,1,60,2|10,0:0|0:0,0:0:0:0:
440,212,150537,1,2,0:0:0:0:
452,240,150667,2,0,L|484:244,2,30,10|0|0,0:0|0:0|0:0,0:0:0:0:
404,276,151184,6,0,L|400:340,1,60,0|2,0:0|0:0,0:0:0:0:
344,360,151701,1,8,0:0:0:0:
316,364,151831,1,2,0:0:0:0:
288,352,151960,1,0,0:0:0:0:
268,328,152089,1,0,0:0:0:0:
264,296,152219,2,0,L|268:232,1,60,2|8,0:0|0:0,0:0:0:0:
324,220,152736,1,10,0:0:0:0:
352,224,152866,1,2,0:0:0:0:
380,212,152995,1,0,0:0:0:0:
400,188,153124,1,0,0:0:0:0:
404,156,153254,6,0,L|400:92,1,60,0|2,0:0|0:0,0:0:0:0:
364,48,153770,1,8,0:0:0:0:
336,52,153900,1,2,0:0:0:0:
308,56,154029,2,0,L|304:88,2,30,0|0|2,0:0|0:0|0:0,0:0:0:0:
268,12,154546,1,10,0:0:0:0:
248,68,154805,1,8,0:0:0:0:
228,92,154934,1,2,0:0:0:0:
200,104,155063,1,0,0:0:0:0:
172,100,155193,1,0,0:0:0:0:
148,84,155322,5,0,0:0:0:0:
112,36,155581,1,2,0:0:0:0:
88,92,155839,2,0,L|56:88,4,30,8|2|0|0|2,0:0|0:0|0:0|0:0|0:0,0:0:0:0:
104,152,156615,1,8,0:0:0:0:
124,208,156874,2,0,L|156:204,4,30,10|2|0|2|0,0:0|0:0|0:0|0:0|0:0,0:0:0:0:
64,196,157650,5,2,0:0:0:0:
24,240,157908,1,8,0:0:0:0:
44,260,158037,1,2,0:0:0:0:
56,288,158167,1,0,0:0:0:0:
56,316,158296,1,0,0:0:0:0:
44,344,158425,1,2,0:0:0:0:
100,368,158684,1,8,0:0:0:0:
148,328,158943,2,0,L|152:304,3,20,10|2|0|0,0:0|0:0|0:0|0:0,0:0:0:0:
120,256,159460,6,0,L|112:196,1,60,0|2,0:0|0:0,0:0:0:0:
152,152,159977,1,8,0:0:0:0:
152,152,160106,1,2,0:0:0:0:
152,152,160236,1,0,0:0:0:0:
152,152,160365,1,0,0:0:0:0:
152,152,160494,2,0,L|160:92,1,60,2|8,0:0|0:0,0:0:0:0:
124,44,161012,2,0,L|120:12,4,30,10|2|0|2|0,0:0|0:0|0:0|0:0|0:0,0:0:0:0:
184,36,161787,5,2,0:0:0:0:
220,84,162046,1,8,0:0:0:0:
248,76,162175,1,2,0:0:0:0:
280,76,162305,1,0,0:0:0:0:
308,88,162434,1,0,0:0:0:0:
328,108,162563,2,0,L|336:168,1,60,2|10,0:0|0:0,0:0:0:0:
372,216,163080,1,10,0:0:0:0:
400,224,163209,1,2,0:0:0:0:
432,224,163339,1,0,0:0:0:0:
460,212,163468,1,2,0:0:0:0:
480,192,163597,6,0,L|488:132,1,60,0|2,0:0|0:0,0:0:0:0:
452,84,164115,2,0,L|448:52,4,30,8|2|0|0|2,0:0|0:0|0:0|0:0|0:0,0:0:0:0:
396,104,164891,1,8,0:0:0:0:
340,124,165150,2,0,L|336:156,4,30,10|2|0|2|0,0:0|0:0|0:0|0:0|0:0,0:0:0:0:
292,88,165925,5,2,0:0:0:0:
272,68,166055,1,0,0:0:0:0:
220,40,166313,1,2,0:0:0:0:
188,36,166443,1,0,0:0:0:0:
160,40,166572,1,0,0:0:0:0:
132,52,166701,1,2,0:0:0:0:
92,96,166960,1,10,0:0:0:0:
60,92,167090,1,2,0:0:0:0:
32,80,167219,1,8,0:0:0:0:
8,196,167736,5,2,0:0:0:0:
8,196,167865,1,0,0:0:0:0:
8,196,167994,1,10,0:0:0:0:
8,196,168124,1,0,0:0:0:0:
8,196,168253,2,0,L|12:256,1,60,2|8,0:0|0:0,0:0:0:0:
28,280,168641,2,0,P|72:268|120:272,1,90,2|8,0:0|0:0,0:0:0:0:
160,312,169287,2,0,L|156:344,3,30,8|2|0|0,0:0|0:0|0:0|0:0,0:0:0:0:
176,364,169805,5,2,0:0:0:0:
204,372,169934,1,0,0:0:0:0:
232,368,170063,1,10,0:0:0:0:
256,352,170193,1,0,0:0:0:0:
272,328,170322,2,0,L|280:268,1,60,2|8,0:0|0:0,0:0:0:0:
260,244,170710,2,0,L|248:152,1,90,2|8,0:0|0:0,0:0:0:0:
264,96,171356,2,0,L|296:88,1,30,8|2,0:0|0:0,0:0:0:0:
316,108,171615,2,0,L|348:116,1,30,0|0,0:0|0:0,0:0:0:0:
368,96,171874,5,2,0:0:0:0:
396,88,172003,1,0,0:0:0:0:
424,92,172132,1,10,0:0:0:0:
448,112,172262,1,0,0:0:0:0:
460,140,172391,2,0,L|464:200,1,60,2|8,0:0|0:0,0:0:0:0:
456,228,172779,2,0,P|416:244|368:236,1,90,2|8,0:0|0:0,0:0:0:0:
316,216,173425,2,0,L|312:276,1,60,8|2,0:0|0:0,0:0:0:0:
272,320,173943,5,10,0:0:0:0:
244,324,174072,1,0,0:0:0:0:
216,316,174201,1,0,0:0:0:0:
192,300,174331,1,0,0:0:0:0:
176,276,174460,1,10,0:0:0:0:
176,276,174719,1,0,0:0:0:0:
244,256,174977,5,0,0:0:0:0:
192,372,175236,1,10,0:0:0:0:
108,280,175494,1,10,0:0:0:0:
256,184,176012,6,0,L|288:188,4,30,2|0|10|0|2,0:0|0:0|0:0|0:0|0:0,0:0:0:0:
200,164,176787,2,0,L|168:168,1,30,8|2,0:0|0:0,0:0:0:0:
116,192,177175,2,0,L|84:188,1,30,0|8,0:0|0:0,0:0:0:0:
40,148,177563,2,0,L|32:116,3,30,8|2|0|0,0:0|0:0|0:0|0:0,0:0:0:0:
56,96,178081,5,2,0:0:0:0:
84,100,178210,1,0,0:0:0:0:
112,88,178339,1,10,0:0:0:0:
132,64,178469,1,0,0:0:0:0:
140,36,178598,2,0,L|204:44,1,60,2|8,0:0|0:0,0:0:0:0:
220,64,178986,2,0,L|312:56,1,90,2|8,0:0|0:0,0:0:0:0:
364,28,179632,1,8,0:0:0:0:
392,24,179762,1,2,0:0:0:0:
420,32,179891,1,0,0:0:0:0:
440,52,180020,1,0,0:0:0:0:
448,80,180150,6,0,L|444:116,4,30,2|0|10|0|2,0:0|0:0|0:0|0:0|0:0,0:0:0:0:
388,88,180925,1,8,0:0:0:0:
364,108,181055,2,0,P|352:140|360:196,1,90,2|8,0:0|0:0,0:0:0:0:
396,240,181701,2,0,L|456:232,1,60,8|2,0:0|0:0,0:0:0:0:
488,284,182219,5,10,0:0:0:0:
464,304,182348,1,0,0:0:0:0:
436,316,182477,1,0,0:0:0:0:
408,316,182606,1,0,0:0:0:0:
380,308,182736,1,10,0:0:0:0:
328,280,182994,1,0,0:0:0:0:
280,316,183253,1,0,0:0:0:0:
228,288,183512,1,10,0:0:0:0:
180,324,183770,1,10,0:0:0:0:
72,272,184287,5,10,0:0:0:0:
60,172,184546,1,10,0:0:0:0:
48,72,184805,6,0,P|96:76|136:64,1,90,0|0,0:0|0:0,0:0:0:0:
160,44,185322,2,4,L|220:48,1,60,0|0,0:0|0:0,0:0:0:0:
264,88,185839,1,0,0:0:0:0:
268,116,185969,1,0,0:0:0:0:
272,144,186098,1,0,0:0:0:0:
276,172,186227,1,0,0:0:0:0:
280,200,186356,5,10,0:0:0:0:
364,260,186615,1,10,0:0:0:0:
460,224,186874,6,0,L|464:164,1,60,4|0,3:0|0:0,0:0:0:0:
452,104,187391,2,0,P|428:88|408:64,1,60,2|0,0:0|0:0,0:0:0:0:
396,36,187779,2,0,L|336:40,1,60,2|0,0:0|0:0,0:0:0:0:
308,44,188167,1,2,0:0:0:0:
248,28,188425,5,10,0:0:0:0:
240,128,188684,1,10,0:0:0:0:
152,180,188943,5,0,0:0:0:0:
124,188,189072,1,0,0:0:0:0:
100,208,189201,1,0,0:0:0:0:
88,236,189331,1,0,0:0:0:0:
88,264,189460,1,0,0:0:0:0:
112,320,189719,1,0,0:0:0:0:
168,340,189977,2,0,P|196:332|224:316,1,60
248,260,190494,5,10,0:0:0:0:
272,240,190624,1,0,0:0:0:0:
300,236,190753,1,0,0:0:0:0:
328,248,190882,1,0,0:0:0:0:
356,260,191012,1,10,0:0:0:0:
384,256,191141,1,0,0:0:0:0:
408,236,191271,1,2,0:0:0:0:
364,196,191529,5,0,0:0:0:0:
296,304,191787,2,0,P|300:336|312:364,1,60,10|10,0:0|0:0,0:0:0:0:
