osu file format v9

[General]
AudioFilename: Flo-Rida_Ft_Sia_-_Wild_One_-_DOPEHOOD_COM(fans_ge).mp3
AudioLeadIn: 1500
PreviewTime: 183600
Countdown: 0
SampleSet: Soft
StackLeniency: 0.7
Mode: 0
LetterboxInBreaks: 0

[Editor]
Bookmarks: 293,29111,29348,60411,60765,90056,90411,122891,123127,153363,168481,183127,183600,198481,198718,213836,214072,228954
DistanceSpacing: 1
BeatDivisor: 4
GridSize: 4

[Metadata]
Title:Wild Ones
Artist:Flo Rida ft. Sia
Creator:Roddie
Version:Collab
Source:
Tags:electro house bouncebabe helldawn the 08 team_bourdon hybrid579

[Difficulty]
HPDrainRate:7
CircleSize:4
OverallDifficulty:7
ApproachRate:8
SliderMultiplier:2
SliderTickRate:2

[Events]
//Background and Video events
0,0,"FreeVector-Tropical-Party.jpg"
//Break Periods
2,153563,167731
//Storyboard Layer 0 (Background)
//Storyboard Layer 1 (Fail)
//Storyboard Layer 2 (Pass)
//Storyboard Layer 3 (Foreground)
Sprite,Foreground,Centre,"Bourdon.png",320,240 F,0,174,293,0,1 M,0,293,,450,96 F,0,293,14702,1 F,0,14702,14938,1,0 M,0,15174,,450,96,195,360 F,0,15174,15411,0,1 S,0,15411,,1 F,0,15411,29230,1 S,0,15883,16828,1.15,1 S,0,16828,17773,1.15,1 S,0,17773,18718,1.15,1 S,0,18718,19663,1.15,1 S,0,19663,20607,1.15,1 S,0,20607,21552,1.15,1 S,0,21552,22497,1.15,1 S,0,22497,23442,1.15,1 S,0,23442,24387,1.15,1 S,0,24387,25332,1.15,1 S,0,25332,26277,1.15,1 S,0,26277,27222,1.15,1 S,0,27222,28167,1.15,1 S,0,28167,29111,1.15,1 S,0,29111,29584,1.15,1 F,0,29230,29348,1,0
Sprite,Foreground,Centre,"Roddie.png",320,240 M,0,29702,,345,190 F,0,29702,29820,0,1 F,0,30056,30174,1,0 F,0,30174,30293,0,1 F,0,30293,,0 M,0,30411,30529,630,300,480,300 F,0,30411,30529,0,1 F,0,30529,,1 F,0,30529,60411,1 F,0,60411,60647,1,0 M,0,90883,91001,40,351,159,349 F,0,90883,91001,0,1 F,0,91001,122891,1 F,0,91001,122891,1 F,0,122891,123009,1,0 M,0,168481,,450,204 F,0,168481,168718,0,1 F,0,168718,183009,1 F,0,183009,183245,1,0 M,0,198600,,459,294 F,0,198600,198718,0,1 F,0,198718,213718,1 F,0,213718,213836,1,0
//Storyboard Sound Samples
//Background Colour Transformations
3,100,163,162,255

[TimingPoints]
293,472.44094488189,4,2,1,75,1,0
29820,-100,4,1,1,65,0,0
60765,-100,4,2,1,75,0,0
87222,-100,4,1,1,65,0,0
102812,-66.6666666666667,4,1,1,65,0,0
103285,-100,4,1,1,65,0,0
115096,-200,4,1,1,65,0,0
115568,-100,4,1,1,65,0,0
123127,-100,4,1,1,65,0,1
153363,-100,4,1,1,65,0,0
153422,-133.333333333333,4,2,1,75,0,0
179820,-100,4,1,1,65,0,0
183600,-100,4,1,1,65,0,1
198659,-100,4,1,1,65,0,0
198718,-100,4,1,1,65,0,1
213895,-133.333333333333,4,2,1,75,0,0
228481,-133.333333333333,4,2,1,10,0,0

[Colours]
Combo1 : 255,53,53
Combo2 : 0,64,128
Combo3 : 255,128,64

[HitObjects]
196,60,293,2,0,B|144:72|100:96,2,100,2|0|0
136,200,1001,1,2
136,200,1119,2,0,B|168:240,1,50,0|0
232,316,1474,2,0,B|264:272|268:220|268:220|372:228,1,200,0|2
476,64,2418,1,2
380,40,2655,1,0
284,64,2891,1,0
248,156,3127,2,0,B|280:200|296:260,1,100,2|0
196,276,3600,1,2
56,132,4072,6,0,B|104:100|156:88,1,100,2|0
240,128,4544,1,0
156,180,4781,2,0,B|112:212|60:224,1,100,2|0
24,312,5253,1,0
124,308,5489,1,2
212,256,5726,6,0,B|292:196|396:164,1,200,2|0
412,264,6434,1,0
320,304,6670,2,0,B|290:206|230:126,1,200,2|0
148,68,7379,1,0
240,28,7615,2,0,B|336:60|444:76,1,200,2|0
448,172,8324,6,0,B|396:156|340:156,1,100
376,252,8796,1,2
276,240,9033,2,0,B|240:204|240:148,1,100
340,136,9505,2,0,B|308:64|308:64|240:44|184:88,1,200,2|0
156,176,10214,1,0
252,148,10450,1,0
324,220,10686,2,0,B|320:276|292:324,1,100,2|0
220,248,11159,2,0,B|192:270|192:270|198:285|198:285|182:278|182:278|189:293|189:293|173:285|173:285|180:300|180:300|164:293|164:293|171:308|171:308|154:300|154:300|161:315|161:315|145:308|145:308|152:323|152:323|136:315|136:315|143:330|143:330|126:323|126:323|104:341,1,300,2|0
44,260,12104,1,0
56,160,12340,1,2
112,76,12576,6,0,B|168:36|248:36|300:80,1,200,0|2
224,148,13285,2,0,B|168:148|112:176,1,100
200,236,13757,2,0,B|244:264|300:264,1,100
364,192,14230,2,0,B|396:220|420:288|376:348|332:364,1,200,2|0
240,344,14938,1,0
140,328,15174,2,0,B|88:352|36:356,1,100,2|4
60,156,15883,1,8
216,32,16355,5,0
312,60,16592,1,0
380,132,16828,2,0,B|380:184|368:232,2,100,8|0|0
284,160,17537,1,0
216,232,17773,1,8
268,316,18009,2,0,B|312:352|360:352,1,100
448,304,18481,2,0,B|424:228|424:228|368:208|300:248,1,200
216,284,19190,5,2
124,244,19426,1,0
136,144,19663,1,8
232,124,19899,1,2
284,212,20135,1,0
216,284,20371,6,0,B|184:324|132:344,1,100,0|8
124,244,20844,2,0,B|84:200|68:156,1,100
168,176,21316,2,0,B|144:124|112:92,1,100,0|8
176,16,21789,2,0,B|224:120|292:200,1,200,2|0
224,268,22497,1,8
276,352,22733,2,0,B|376:324|484:332,1,200,2|0
496,236,23442,1,8
396,64,23915,5,2
424,160,24151,2,0,B|392:208|372:264,1,100,0|8
416,340,24623,1,2
220,300,25096,1,0
120,292,25332,1,8
48,224,25568,1,0
44,124,25804,6,0,B|76:72|128:44,1,100,2|0
212,44,26277,1,8
228,244,26749,6,0,B|288:232|328:204,1,100,2|0
316,108,27222,1,8
452,256,27694,6,0,B|404:280|356:288,1,100,2|0
320,196,28167,1,8
260,116,28403,6,0,B|224:80|176:60,1,100
172,160,28875,2,0,B|224:200|264:220,1,100,0|8
384,88,29348,5,0
312,272,29820,1,0
216,288,30056,1,8
192,240,30174,1,0
172,196,30293,1,0
276,56,30529,5,4
184,96,30765,1,0
88,56,31001,2,0,B|96:112|32:152,1,100,8|0
8,232,31474,1,0
80,304,31710,1,0
168,256,31946,5,8
216,248,32064,1,0
264,260,32182,1,0
304,292,32300,1,0
332,336,32418,1,0
408,272,32655,6,0,B|448:164,1,100,0|8
348,144,33127,1,0
248,152,33363,1,0
164,100,33600,1,0
84,160,33836,1,8
128,248,34072,1,0
304,212,34308,6,0,B|308:268|364:300,1,100,0|0
444,248,34781,2,0,B|432:144,1,100,8|0
432,148,35135,1,0
432,148,35253,1,0
340,116,35489,2,0,B|284:136|228:92,1,100,0|8
160,160,35962,1,0
112,248,36198,6,0,B|240:248,1,100
256,72,36670,2,0,B|376:72,1,100,8|0
396,248,37143,2,0,B|296:248,1,100
156,136,37615,5,8
156,136,37733,2,0,B|212:176|280:176,1,100
336,124,38206,1,0
336,124,38324,2,0,B|368:180|424:188,1,100,0|8
492,240,38678,2,0,B|488:300|448:340,1,100
356,320,39151,5,0
308,304,39269,2,0,B|204:324,1,100,0|8
160,336,39623,1,0
84,272,39859,1,0
72,172,40096,1,0
72,172,40214,1,0
168,196,40450,1,8
400,60,40804,5,0
416,108,40922,1,0
384,148,41041,1,0
336,152,41159,1,0
252,100,41395,2,0,B|184:100|120:36,1,150,8|0
48,104,41985,2,0,B|28:212,1,100
29,202,42340,1,0
292,236,42694,6,0,B|348:212|400:256,1,100
460,188,43048,2,0,B|488:68,1,100,0|8
216,44,43639,6,0,B|120:72,1,100
72,84,43993,1,0
40,180,44230,1,8
276,312,44584,6,0,B|320:348|380:340,1,100
420,332,44938,1,0
392,236,45174,1,8
192,228,45647,6,0,B|248:228|284:160,1,100,4|0
92,184,46119,2,0,B|44:212|36:272,1,100,8|0
37,263,46592,1,0
100,340,46828,5,0
148,356,46946,1,0
196,356,47064,1,8
244,348,47182,1,0
288,324,47300,1,0
316,284,47418,1,0
312,232,47537,1,0
232,172,47773,5,0
264,132,47891,1,0
312,128,48009,1,8
360,132,48127,1,0
388,176,48245,1,0
408,272,48481,1,0
312,232,48718,6,0,B|256:236|208:276,1,100,0|8
136,320,49190,1,0
136,320,49426,2,0,B|88:220,1,100,4|0
256,148,49899,2,0,B|312:232,1,100,8|0
311,231,50371,1,0
368,312,50607,5,0
416,304,50726,1,0
428,256,50844,1,8
400,160,51080,1,0
352,168,51198,1,0
316,132,51316,1,0
216,116,51552,1,0
172,144,51670,1,0
172,196,51789,1,8
100,268,52025,1,0
188,316,52261,1,0
260,248,52497,5,0
308,260,52615,1,0
352,236,52733,1,8
408,152,52970,2,0,B|464:44,1,100,0|4
120,196,53678,1,12
256,344,54151,5,0
256,344,54387,1,0
256,344,54505,2,0,B|256:224,1,100
256,144,54978,1,0
208,152,55096,2,0,B|160:128|164:56,1,100
260,40,55568,1,8
352,76,55804,1,0
384,116,55922,1,0
388,168,56041,2,0,B|392:224|332:256,1,100
288,172,56395,2,0,B|228:256,1,100
108,344,56985,5,0
76,304,57104,1,0
88,256,57222,1,0
108,160,57458,1,8
204,180,57694,2,0,B|260:176|284:128,1,100
360,64,58167,1,0
360,64,58285,2,0,B|388:184,1,100
408,308,58875,5,0
308,328,59111,1,0
216,292,59348,1,0
172,312,59466,1,0
124,308,59584,1,0
84,280,59702,1,0
92,232,59820,2,0,B|148:216|164:124,1,100
164,64,60174,2,0,B|288:80,1,100
412,68,60765,6,0,B|456:96|484:152,2,100,6|0|0
384,164,61473,1,2
304,104,61710,1,0
208,128,61946,2,0,B|168:172|152:224,1,100
256,196,62418,2,0,B|232:252|188:292,1,100,2|0
104,304,62890,1,0
60,216,63127,1,0
100,124,63363,1,0
176,192,63600,2,0,B|196:248|244:276,1,100,2|0
336,284,64072,1,0
252,100,64544,6,0,B|300:68|352:56,1,100,2|0
432,100,65016,1,0
340,144,65253,2,0,B|296:176|244:188,2,100,2|0|0
412,216,65961,1,2
316,248,66198,6,0,B|219:279|135:331,1,200,2|0
84,244,66906,1,0
84,144,67143,2,0,B|152:168|176:224|176:224|260:188,1,200,0|0
332,248,67851,1,0
404,176,68088,2,0,B|356:140|304:148|304:148|252:72,1,200,2|0
152,72,68796,6,0,B|188:112|212:176,1,100
104,168,69268,1,2
184,228,69505,2,0,B|208:280|252:312,1,100
292,216,69978,2,0,B|368:284|416:376,1,200,2|0
484,300,70686,1,0
416,228,70922,1,0
364,144,71158,2,0,B|320:108|268:84,1,100,2|0
260,188,71631,2,0,B|136:232|100:156|160:100|220:144|204:228|52:196,1,300,2|0
64,100,72576,5,0
152,52,72812,2,0,B|204:64|252:100,1,100,2|0
308,160,73284,1,0
396,208,73520,1,2
308,260,73757,6,0,B|272:312|232:332,1,100
236,228,74230,2,0,B|260:188|312:156,1,100
396,112,74702,2,0,B|368:64|308:56|308:56|232:116,1,200,2|0
156,176,75410,1,0
148,276,75647,2,0,B|188:316|236:340,1,100,2|4
388,216,76355,1,8
224,100,76827,5,0
128,80,77064,1,0
60,152,77300,1,8
56,252,77537,2,0,B|64:304|84:352,1,100
160,284,78009,1,0
152,184,78245,1,8
248,208,78481,2,0,B|296:228|360:228,1,100
420,296,78954,2,0,B|448:252|444:180|444:180|356:156,1,200
280,112,79662,5,2
196,56,79899,1,0
120,120,80135,1,8
156,212,80371,1,2
256,208,80607,1,0
408,76,81079,5,8
372,168,81316,2,0,B|420:192|460:240,1,100
360,272,81789,2,0,B|308:272|256:284,1,100,0|8
332,352,82261,2,0,B|272:376|196:376|136:352,1,200,2|0
116,252,82970,2,0,B|164:276|216:284,1,100,8|2
184,188,83442,2,0,B|240:200|288:228,1,100
376,196,83914,1,8
216,72,84387,5,2
116,68,84623,2,0,B|72:104|48:152,1,100,0|8
152,148,85096,2,0,B|128:200|88:232,1,100,2|0
116,324,85568,1,0
216,316,85804,1,8
288,244,86040,1,0
248,152,86277,2,0,B|272:100|336:84,1,100,2|0
408,136,86749,1,8
368,332,87222,6,0,B|316:324|264:300,1,100
356,252,87694,2,0,B|304:224|244:224,1,100
192,152,88167,1,0
220,112,88285,1,0
264,88,88403,1,0
308,68,88521,1,0
356,68,88639,1,0
400,88,88757,1,0
440,116,88875,1,0
464,160,88993,1,0
476,208,89111,2,0,B|476:236,15,25
256,56,90411,5,0
256,56,90529,1,8
164,212,90765,1,0
344,208,91001,1,4
288,288,91237,1,0
192,320,91474,1,8
96,292,91710,1,0
56,200,91946,6,0,B|88:160|76:96,1,100
156,44,92418,2,0,B|198:82|208:148,1,100,8|0
152,216,92891,1,0
252,224,93127,1,0
324,156,93363,1,8
380,72,93600,1,0
420,100,93718,1,0
428,148,93836,1,0
380,236,94072,2,0,B|368:292|304:304,1,100,0|8
212,312,94544,1,0
128,256,94781,5,0
120,208,94899,1,0
144,164,95017,1,0
232,208,95253,1,8
280,212,95371,1,0
320,180,95489,1,0
252,108,95726,1,0
160,64,95962,1,0
72,112,96198,1,8
40,208,96434,1,0
128,256,96670,6,0,B|180:292|192:344,1,100
188,332,97143,1,8
256,260,97379,2,0,B|312:264|344:308,1,100
416,240,97852,1,0
416,240,98088,2,0,B|444:116,1,100,8|0
340,124,98560,5,0
244,148,98796,1,0
144,128,99033,1,8
160,228,99269,1,0
136,272,99387,1,0
108,316,99505,1,0
208,320,99741,2,0,B|264:324|300:276,1,100,0|8
396,280,100214,5,0
440,256,100332,1,0
440,208,100450,1,0
304,88,100686,1,0
256,76,100804,1,0
208,96,100922,1,8
88,232,101159,1,0
104,280,101277,1,0
148,304,101395,1,0
296,200,101631,1,0
340,180,101749,1,0
368,140,101867,1,8
196,192,102104,5,0
196,192,102222,1,0
196,192,102340,1,0
248,276,102576,1,0
352,284,102812,2,2,B|426:276|490:206|482:106|428:50,1,299.999991059304,14|0
340,92,103521,5,0
240,88,103757,1,8
152,44,103993,1,0
92,124,104230,1,0
152,204,104466,1,0
164,252,104584,1,0
212,260,104702,1,8
256,352,104938,1,0
256,352,105174,5,0
256,40,105647,1,8
388,192,106119,5,0
292,216,106355,1,0
196,188,106592,1,0
112,132,106828,1,0
112,132,106946,1,0
112,132,107064,1,0
204,96,107300,1,0
300,124,107537,1,0
368,48,107773,1,0
412,224,108009,6,0,B|420:280|368:316,1,100,4|0
328,324,108363,1,0
280,312,108481,2,0,B|224:300|176:344,1,100,8|0
100,288,108954,1,0
88,240,109072,1,0
80,192,109190,1,0
152,120,109426,2,0,B|188:164|244:168,1,100,8|0
280,76,109899,5,0
372,116,110135,1,0
380,216,110371,1,8
344,252,110489,1,0
296,264,110607,1,0
248,244,110726,1,0
208,212,110844,2,0,B|156:220|124:280,1,100
212,328,111316,1,8
112,64,111670,5,0
160,44,111789,1,0
208,44,111907,1,0
256,56,112025,1,0
296,88,112143,1,0
320,132,112261,1,8
320,180,112379,1,0
300,228,112497,1,0
264,260,112615,1,0
216,272,112733,2,0,B|164:276|136:336,1,100
139,328,113206,1,8
176,132,113678,5,0
108,204,113915,1,0
136,300,114151,1,8
108,204,114387,1,0
20,152,114623,1,0
92,84,114859,1,0
180,36,115096,2,0,B|284:36,1,100,10|0
332,56,115686,6,0,B|368:96,1,50
344,140,115922,2,0,B|348:167|376:176,1,50,0|8
408,272,116277,1,0
136,352,116631,2,0,B|140:320|108:300,1,50
72,288,116867,2,0,B|52:264|64:228,1,50,0|8
60,241,117222,1,0
140,180,117458,5,0
216,116,117694,1,0
264,100,117812,1,0
304,128,117930,1,8
376,196,118167,1,0
392,244,118285,1,0
360,280,118403,1,0
280,336,118639,1,0
232,340,118757,1,0
192,308,118875,1,8
92,312,119111,2,0,B|84:176,1,100
68,112,119584,5,0
164,132,119820,1,8
244,68,120056,1,0
292,52,120174,1,0
340,64,120293,1,0
372,104,120411,1,0
388,152,120529,1,0
376,200,120647,1,0
336,232,120765,1,8
264,164,121001,1,0
144,296,121237,5,0
180,328,121355,1,0
228,348,121474,1,0
276,356,121592,1,0
324,344,121710,1,0
368,324,121828,1,0
400,288,121946,1,0
396,240,122064,1,0
372,196,122182,6,0,B|356:160,7,25
348,152,122655,1,8
256,188,122891,1,0
164,152,123127,6,0,B|108:164|68:200,2,100,4|0|8
180,52,123835,1,0
276,28,124071,1,0
332,112,124308,2,0,B|368:148|388:196,1,100,0|8
288,200,124781,2,0,B|312:252|344:288,1,100,0|0
240,296,125252,1,0
144,328,125489,1,8
48,304,125725,1,0
24,208,125962,2,0,B|40:156|80:124,1,100,0|0
136,208,126434,1,8
256,48,126907,5,0
304,52,127025,1,0
352,68,127143,2,0,B|408:92|440:144,1,100,0|8
336,160,127615,1,0
376,188,127733,1,0
408,228,127852,2,0,B|444:268|460:324,1,100
356,320,128323,1,8
256,312,128560,6,0,B|208:332|156:336,1,100,0|0
184,240,129033,2,0,B|236:220|296:220,1,100,0|8
336,136,129505,2,2,B|312:84|256:68|196:84|176:140,1,200,2|0
256,196,130213,1,8
348,236,130450,2,0,B|392:268|420:332,2,100
268,300,131159,6,0,B|224:268|164:256,1,100,8|0
204,356,131631,2,0,B|152:344|104:312,2,100,0|0|8
188,256,132340,2,2,B|196:204|264:200|264:200|356:260,1,200
432,300,133048,1,8
464,204,133284,1,0
368,176,133521,2,0,B|320:156|276:112,1,100,0|0
184,132,133993,2,2,B|150:144|150:144|151:160|151:160|138:148|138:148|140:165|140:165|127:152|127:152|129:169|129:169|116:157|116:157|118:173|118:173|105:161|105:161|107:177|107:177|94:165|94:165|96:182|96:182|83:169|83:169|85:186|85:186|71:174|71:174|44:184,1,300,10|2
44,284,134938,5,8
140,316,135174,1,0
188,308,135293,1,0
220,268,135411,1,0
228,168,135646,1,0
276,184,135765,1,0
304,224,135882,1,8
372,300,136119,6,0,B|416:280|456:248,1,100
376,188,136592,2,0,B|424:156|476:144,1,100,0|8
416,60,137064,2,2,B|340:100|340:100|304:56|240:48,1,200,2|0
260,148,137772,1,8
164,184,138009,2,0,B|188:236|248:264,2,100,0|4|0
80,128,138717,1,8
264,48,139189,5,0
356,92,139426,1,0
388,188,139662,1,8
332,272,139899,2,0,B|372:312|392:372,1,100,2|0
288,352,140371,1,0
208,296,140607,1,8
252,208,140844,2,0,B|288:168|288:104,1,100,2|0
192,144,141316,2,2,B|216:92|184:28|104:24|68:68,1,200,2|0
48,156,142024,5,0
48,208,142143,1,0
72,252,142261,1,0
172,244,142497,1,8
220,332,142733,1,0
272,328,142852,1,0
316,308,142970,1,0
340,264,143088,1,0
340,216,143206,1,0
256,164,143441,5,8
172,108,143678,2,0,B|200:64|256:48,1,100
332,108,144151,2,0,B|392:92|440:116,1,100,0|8
440,212,144623,2,0,B|468:260|468:316,2,100
340,204,145331,1,8
328,304,145568,2,2,B|268:264|184:328|124:292,1,200,2|0
44,248,146276,1,8
152,80,146749,5,0
144,180,146985,2,0,B|172:220|220:252,1,100,0|8
232,152,147458,2,0,B|280:184|312:240,1,100
304,324,147930,1,0
404,328,148166,1,8
416,228,148402,1,0
368,140,148639,2,0,B|336:92|284:56,1,100
200,56,149111,1,8
40,176,149584,6,0,B|84:204|120:256,1,100
192,304,150056,1,8
380,232,150528,6,0,B|424:200|456:152,1,100
428,64,151001,1,8
332,40,151237,6,0,B|272:36|220:64,1,100
312,120,151710,2,0,B|264:144|200:140,1,100
132,88,152182,2,2,B|116:192|184:288,1,200,2|0
256,216,152891,2,0,B|280:264|288:328,1,100,8|0
200,364,153363,1,4
396,72,168481,6,0,B|320:72,1,74.9999977648259,4|0
252,108,168954,2,0,B|172:108,1,74.9999977648259,8|0
112,148,169426,1,2
124,224,169663,1,0
196,248,169899,1,8
260,208,170135,2,0,B|344:216|368:312,2,149.999995529652,2|0|2
172,328,171552,2,0,B|88:328|60:220,1,149.999995529652,0|2
48,164,172261,5,0
124,168,172497,1,0
168,108,172733,1,8
240,132,172970,2,0,B|249:166|288:204,1,74.9999977648259,0|2
356,196,173442,2,0,B|388:224|384:272,1,74.9999977648259,0|8
336,320,173915,2,0,B|256:352|176:288,2,149.999995529652,2|0|2
388,180,175332,2,0,B|408:144|456:160,2,74.9999977648259,0|8|2
364,252,176041,5,0
288,252,176277,1,0
244,192,176513,1,8
256,116,176749,1,0
192,76,176985,2,0,B|120:108,1,74.9999977648259,2|0
160,172,177458,2,0,B|88:204,1,74.9999977648259,8|0
28,244,177930,5,2
80,300,178167,1,0
152,324,178403,1,8
224,308,178639,1,0
280,260,178875,1,2
308,192,179111,1,0
296,116,179348,1,8
260,48,179584,1,0
168,88,179820,5,0
128,116,179938,1,0
112,164,180056,1,0
116,212,180174,1,0
148,252,180293,1,0
192,276,180411,1,0
240,288,180529,1,0
288,280,180647,1,0
332,260,180765,1,0
368,224,180883,1,0
376,176,181001,1,0
360,128,181119,1,0
324,92,181237,1,0
276,88,181355,1,0
228,100,181474,1,0
204,144,181592,1,0
228,188,181710,6,0,B|252:212,15,25
256,332,182891,1,0
256,332,183127,1,8
400,192,183600,6,0,B|440:152|436:92|436:92|352:56,1,200,4|8
152,56,184544,2,0,B|196:80|232:140,2,100,0|0|8
140,156,185253,2,0,B|168:208|212:240,1,100
108,268,185726,1,0
192,320,185962,1,8
276,264,186198,1,0
248,168,186434,2,0,B|284:124|348:124,1,100
412,192,186907,1,8
264,56,187379,5,0
216,44,187497,1,0
168,52,187615,1,0
200,148,187852,1,8
100,140,188088,1,0
96,188,188206,1,0
60,224,188324,1,0
112,308,188560,6,0,B|156:272|212:264,1,100,0|8
292,312,189033,2,0,B|312:260|292:212,1,100
208,160,189505,2,0,B|248:124|304:116,1,100,0|8
384,164,189978,2,2,B|400:84|368:36|368:36|288:36,1,200,2|0
200,56,190686,1,8
104,80,190922,2,0,B|68:120|64:184,1,100
164,148,191395,6,0,B|160:204|128:248,1,100,0|8
32,252,191867,1,0
96,328,192104,1,0
192,296,192340,2,0,B|216:244|256:208,1,100,0|8
264,116,192812,2,0,B|316:136|352:196,1,100
328,276,193285,1,0
408,340,193521,1,8
496,292,193757,1,0
472,196,193993,2,0,B|488:136|464:84,1,100
372,116,194466,2,0,B|336:72|280:52,1,100,8|0
192,64,194938,5,0
144,76,195056,1,0
108,108,195174,1,0
196,160,195411,1,8
232,252,195647,1,0
196,288,195765,1,0
148,300,195883,2,0,B|96:300|68:248,1,100
24,160,196355,1,8
56,64,196592,6,0,B|116:44|176:80,1,100
144,168,197064,2,0,B|192:196|256:208,1,100,0|8
228,304,197537,2,2,B|220:364|323:384|368:316|327:260,1,200,2|0
428,232,198245,1,8
476,144,198481,1,0
408,72,198718,5,4
360,160,198954,1,0
260,168,199190,1,8
128,312,199663,5,0
52,248,199899,1,0
76,152,200135,1,8
164,204,200371,2,0,B|228:296|344:280,1,200,2|0
420,228,201080,1,8
380,136,201316,2,0,B|292:68|180:112,1,200,2|0
112,168,202025,1,8
256,308,202497,5,0
356,312,202733,1,0
404,292,202852,1,0
416,244,202970,1,8
340,180,203206,1,0
240,196,203442,1,0
168,128,203678,6,0,B|228:104|232:56,1,100,0|8
332,48,204151,2,0,B|364:90|420:104,1,100
456,192,204623,2,0,B|464:248|416:280,1,100,0|8
324,244,205096,5,0
276,244,205214,1,0
228,244,205332,1,0
144,188,205568,2,0,B|104:164|96:104,1,100,0|8
188,64,206041,2,0,B|244:64|292:104,1,100
344,176,206513,1,0
432,128,206749,1,8
420,328,207222,5,0
420,328,207458,2,2,B|312:308|216:348,1,200
132,300,208167,1,0
88,208,208403,1,0
136,192,208521,1,0
184,208,208639,1,8
276,244,208875,1,0
312,152,209111,1,0
412,328,209584,1,8
380,232,209820,1,0
416,196,209938,1,0
420,148,210056,6,0,B|372:100|380:44,1,100
280,36,210529,2,0,B|220:52|204:104,1,100,8|0
296,144,211001,2,0,B|288:200|228:220,1,100
136,196,211474,1,8
256,192,211710,12,4,213836
312,76,214781,5,2
380,108,215017,1,0
432,160,215253,1,0
464,228,215489,2,0,B|452:304,1,74.9999977648259,2|0
384,268,215962,2,0,B|348:336,1,74.9999977648259
296,280,216434,1,2
144,276,216907,2,0,B|88:220,1,74.9999977648259
88,148,217379,2,0,B|107:95|156:75|213:97,2,149.999995529652,2|0|0
164,160,218560,5,2
240,168,218796,1,0
284,108,219033,1,0
292,32,219269,2,0,B|336:48|368:84,1,74.9999977648259,2|0
352,144,219741,1,0
244,248,220214,2,0,B|268:288|260:336,1,74.9999977648259,2|0
188,324,220686,1,0
172,252,220922,2,0,B|132:232|108:188,1,74.9999977648259,2|0
176,156,221395,2,0,B|176:100|224:68|284:88,1,149.999995529652
296,236,222340,5,2
340,296,222576,1,0
416,296,222812,1,0
460,236,223048,2,0,B|468:156,1,74.9999977648259,2|0
392,160,223521,2,0,B|384:84,1,74.9999977648259
308,88,223993,2,0,B|278:42|219:25|164:50,1,149.999995529652,2|0
208,112,224702,1,0
132,124,224938,2,0,B|148:180|212:192|212:192|264:304,1,224.999993294478,2|0
408,312,226119,5,0
428,240,226355,1,0
408,168,226592,1,0
344,124,226828,1,2
196,128,227300,5,0
120,124,227537,1,0
92,192,227773,1,0
148,240,228009,1,0
216,204,228245,1,2
256,192,228481,12,0,231789
