osu file format v13

[General]
AudioFilename: 01 Whistle.mp3
AudioLeadIn: 0
PreviewTime: -1
Countdown: 0
SampleSet: Soft
StackLeniency: 0.3
Mode: 0
LetterboxInBreaks: 1
WidescreenStoryboard: 0

[Editor]
Bookmarks: 9564,64982,129573,148061
DistanceSpacing: 1.1
BeatDivisor: 4
GridSize: 4
TimelineZoom: 1

[Metadata]
Title:Whistle
TitleUnicode:Whistle
Artist:Flo Rida
ArtistUnicode:Flo Rida
Creator:dagiesie
Version:Hard
Source:
Tags:
BeatmapID:428772
BeatmapSetID:178237

[Difficulty]
HPDrainRate:7
CircleSize:4
OverallDifficulty:8
ApproachRate:8
SliderMultiplier:3.09999990463257
SliderTickRate:2

[Events]
//Background and Video events
0,0,"flo-rida-whistle.jpg",0,0
//Break Periods
2,166696,174977
//Storyboard Layer 0 (Background)
//Storyboard Layer 1 (Fail)
//Storyboard Layer 2 (Pass)
//Storyboard Layer 3 (Foreground)
//Storyboard Sound Samples
//Background Colour Transformations
3,100,163,162,255

[TimingPoints]
343,576.923076923077,4,2,0,75,1,0
28035,-100,4,1,0,75,0,0
37260,-100,4,3,0,75,0,0
65249,-100,4,2,0,65,0,0
83419,-100,4,1,0,65,0,1
101606,-100,4,3,0,65,0,0
148035,-100,4,1,0,65,0,1
166496,-100,4,2,0,75,0,0
184958,-100,4,1,0,80,0,1
221882,-100,4,1,0,80,0,0

[Colours]
Combo1 : 145,189,11
Combo2 : 0,151,0
Combo3 : 234,154,47
Combo4 : 204,183,64
Combo5 : 247,62,9

[HitObjects]
132,252,343,5,0,0:0:0:0:
192,64,631,1,0,0:0:0:0:
344,184,919,1,0,0:0:0:0:
192,64,1208,1,0,0:0:0:0:
132,252,1496,2,0,P|196:316|256:336,1,154.999995231629
428,336,2073,1,0,0:0:0:0:
256,336,2362,1,0,0:0:0:0:
372,64,2650,6,0,B|280:64|280:64|216:96,2,154.999995231628
224,92,3516,1,0,0:0:0:0:
352,288,3804,1,0,0:0:0:0:
224,92,4093,1,0,0:0:0:0:
376,116,4381,1,0,0:0:0:0:
182,244,4669,1,0,0:0:0:0:
76,64,4958,5,0,0:0:0:0:
220,96,5246,1,0,0:0:0:0:
76,64,5535,1,0,0:0:0:0:
112,208,5823,1,0,0:0:0:0:
220,96,6112,1,0,0:0:0:0:
112,208,6400,1,0,0:0:0:0:
296,256,6689,1,0,0:0:0:0:
220,96,6977,2,0,B|284:52|364:64|488:124|476:220,1,309.999990463257
416,328,7842,1,0,0:0:0:0:
416,328,8131,1,0,0:0:0:0:
104,328,8419,1,0,0:0:0:0:
116,88,8708,6,0,L|200:104,1,77.4999976158142
116,88,8996,1,0,0:0:0:0:
256,192,9285,1,0,0:0:0:0:
384,196,9573,1,0,0:0:0:0:
256,192,9862,1,0,0:0:0:0:
360,288,10150,2,0,B|344:304|276:336|200:304,1,154.999995231628
136,208,10727,1,0,0:0:0:0:
160,68,11016,2,0,B|224:44|252:44|320:72,2,154.999995231628
344,176,11881,2,0,B|432:188|432:188|432:260|388:296|296:280|264:228,1,309.999990463257
112,80,12746,1,0,0:0:0:0:
344,176,13035,1,0,0:0:0:0:
168,300,13323,5,0,0:0:0:0:
208,96,13612,1,0,0:0:0:0:
360,300,13900,2,0,L|444:300,2,77.4999976158142
400,96,14477,1,0,0:0:0:0:
208,96,14766,2,0,B|188:88|180:84|168:80|160:80|144:80|132:80|112:84|96:96|88:104|80:116|72:144,1,154.999995231628
164,236,15343,2,0,B|143:231|134:229|122:226|115:221|102:212|92:205|78:190|72:171|70:160|70:146|80:118,1,154.999995231628
76,132,15919,2,0,L|240:176,1,154.999995231628
424,52,16496,1,0,0:0:0:0:
256,192,16785,1,0,0:0:0:0:
256,192,17073,1,0,0:0:0:0:
96,56,17362,2,0,L|168:112,2,77.4999976158142
360,320,18227,5,0,0:0:0:0:
432,200,18516,1,0,0:0:0:0:
360,64,18804,1,0,0:0:0:0:
432,200,19093,1,0,0:0:0:0:
360,320,19381,1,0,0:0:0:0:
152,320,19669,1,0,0:0:0:0:
80,200,19958,1,0,0:0:0:0:
152,64,20246,1,0,0:0:0:0:
80,200,20535,1,0,0:0:0:0:
152,320,20823,1,0,0:0:0:0:
360,320,21112,5,0,0:0:0:0:
152,64,21400,1,0,0:0:0:0:
432,200,21689,1,0,0:0:0:0:
80,200,21977,1,0,0:0:0:0:
360,64,22266,1,0,0:0:0:0:
152,320,22554,1,0,0:0:0:0:
256,200,22843,1,0,0:0:0:0:
180,48,23131,2,0,P|128:44|88:56,2,77.4999976158143
80,200,23708,1,0,0:0:0:0:
256,200,23996,1,0,0:0:0:0:
432,200,24285,1,0,0:0:0:0:
256,200,24573,6,0,B|256:296|256:296|328:344,1,154.999995231629
256,200,25150,2,0,B|256:296|256:296|196:332,1,154.999995231629
256,192,25583,12,0,26882,0:0:0:0:
96,112,28035,6,0,P|164:80|256:88,2,154.999995231629
100,240,28900,1,0,0:0:0:0:
224,320,29189,1,0,0:0:0:0:
392,312,29477,2,0,B|448:264|460:200|448:168,2,154.999995231629
448,176,30342,1,0,0:0:0:0:
260,172,30631,1,0,0:0:0:0:
80,172,30919,2,0,P|56:224|64:264,2,77.4999976158143
164,48,31496,1,0,0:0:0:0:
260,172,31785,1,0,0:0:0:0:
80,172,32073,1,0,0:0:0:0:
260,48,32362,1,0,0:0:0:0:
356,172,32650,1,0,0:0:0:0:
176,172,32939,1,0,0:0:0:0:
80,304,33227,5,0,0:0:0:0:
232,308,33516,2,0,B|232:232|232:232|216:192|216:192|240:152,1,154.999995231629
236,160,34093,1,0,0:0:0:0:
120,56,34381,1,0,0:0:0:0:
344,52,34669,1,0,0:0:0:0:
344,52,34814,1,0,0:0:0:0:
344,52,34958,2,0,B|396:80|444:116|448:160,1,154.999995231629
412,324,35535,1,0,0:0:0:0:
292,240,35823,1,0,0:0:0:0:
412,324,36112,1,0,0:0:0:0:
184,152,36394,1,0,0:0:0:0:
292,240,36683,1,0,0:0:0:0:
184,324,36977,5,0,0:0:0:0:
184,152,37266,2,0,B|184:84|192:60|236:48|240:48|240:48|272:48,1,160
269,48,37698,1,0,0:0:0:0:
269,48,37843,1,0,0:0:0:0:
432,116,38131,2,0,L|364:176,1,80
248,112,38564,2,0,L|307:180,1,80
340,248,38996,1,0,0:0:0:0:
216,336,39285,1,0,0:0:0:0:
88,256,39573,5,0,0:0:0:0:
128,104,39862,1,0,0:0:0:0:
256,76,40150,1,0,0:0:0:0:
376,128,40439,2,0,L|341:208,1,80
252,276,40871,2,0,L|171:240,1,80
252,276,41304,1,0,0:0:0:0:
388,328,41593,2,0,B|428:296|440:232|440:228|440:228|440:172,2,160
128,324,42458,5,0,0:0:0:0:
40,152,42746,1,0,0:0:0:0:
40,152,42891,2,0,L|184:84,1,160
184,83,43323,1,0,0:0:0:0:
392,120,43612,2,0,L|284:240,1,160
184,83,44189,1,0,0:0:0:0:
392,120,44477,1,0,0:0:0:0:
184,83,44766,1,0,0:0:0:0:
260,248,45054,2,0,P|296:308|300:340,2,80
52,184,45631,5,0,0:0:0:0:
52,184,45775,2,0,L|128:260,1,80
260,248,46208,2,0,L|188:176,1,80
203,191,46496,1,0,0:0:0:0:
187,35,46785,1,0,0:0:0:0:
336,121,47073,2,0,B|395:155|412:174|400:218|398:222|398:222|382:249,1,160
384,247,47506,1,0,0:0:0:0:
175,208,47794,1,0,0:0:0:0:
243,354,48083,2,0,L|225:265,1,80
339,196,48516,2,0,L|250:214,1,80
260,211,48804,1,0,0:0:0:0:
161,57,49093,1,0,0:0:0:0:
324,48,49381,6,0,B|392:44|432:52|464:80|464:80|472:104,1,160
472,280,49958,1,0,0:0:0:0:
328,204,50246,1,0,0:0:0:0:
328,204,50391,2,0,P|288:180|252:184,1,80
220,312,50823,2,0,B|252:328|288:336|320:320,1,80
276,260,51112,1,0,0:0:0:0:
160,160,51400,1,0,0:0:0:0:
116,40,51689,2,0,P|68:56|40:112,2,80
296,48,52266,2,0,B|268:80|268:80|288:116,1,80
400,48,52698,2,0,B|428:80|428:80|409:112,1,80
348,136,53131,1,0,0:0:0:0:
348,304,53419,1,0,0:0:0:0:
348,136,53708,5,0,0:0:0:0:
160,232,53996,1,0,0:0:0:0:
208,88,54285,2,0,P|176:120|152:172,1,80
160,232,54718,2,0,P|192:264|216:316,1,80
64,336,55150,1,0,0:0:0:0:
64,336,55439,1,0,0:0:0:0:
352,328,55727,5,0,0:0:0:0:
432,196,56016,2,0,P|432:140|408:124,2,80
352,52,56593,1,0,0:0:0:0:
352,52,56881,1,0,0:0:0:0:
216,72,57169,2,0,B|144:92|136:100|136:100|140:112|140:112|132:108|132:108|136:120|136:120|124:116|124:116|108:140,1,160
56,56,57746,1,0,0:0:0:0:
76,216,58035,1,0,0:0:0:0:
76,216,58179,1,0,0:0:0:0:
76,216,58323,1,0,0:0:0:0:
244,224,58612,2,0,B|204:264|128:304|128:304|124:296|124:296|120:312|120:312|116:316,1,154.999995231629
364,320,59189,5,0,0:0:0:0:
472,168,59477,1,0,0:0:0:0:
364,320,59766,1,0,0:0:0:0:
248,168,60054,1,0,0:0:0:0:
364,52,60343,1,0,0:0:0:0:
248,168,60631,1,0,0:0:0:0:
472,168,60919,1,0,0:0:0:0:
364,52,61208,2,0,P|292:32|264:32,1,80
136,44,61641,2,0,P|172:72|220:80,1,80,0|0,0:0|0:0,0:0:0:0:
56,168,62073,6,0,B|88:204|88:204|104:196|104:196|92:224|92:224|112:204|112:204|132:232,1,160
392,320,62650,1,0,0:0:0:0:
208,152,62939,1,0,0:0:0:0:
208,320,63227,1,0,0:0:0:0:
392,156,63516,2,0,P|368:116|336:92,1,80
200,32,63948,2,0,P|220:76|272:108,1,80,0|0,0:0|0:0,0:0:0:0:
76,80,64381,2,0,B|72:132|48:184|48:184|88:228,2,160
368,88,65246,5,0,0:0:0:0:
188,244,65535,1,0,0:0:0:0:
368,244,65823,1,0,0:0:0:0:
188,92,66112,2,0,P|128:64|56:112,2,160
48,192,66977,1,0,0:0:0:0:
192,340,67266,1,0,0:0:0:0:
348,192,67554,1,0,0:0:0:0:
476,340,67843,2,0,B|480:296|476:216|472:176,1,160
472,180,68275,1,0,0:0:0:0:
472,180,68419,1,0,0:0:0:0:
251,36,68708,5,0,0:0:0:0:
260,347,68996,1,0,0:0:0:0:
118,118,69285,1,0,0:0:0:0:
393,265,69573,1,0,0:0:0:0:
123,273,69862,1,0,0:0:0:0:
388,110,70150,1,0,0:0:0:0:
123,273,70439,2,0,B|124:164|124:164|176:124,2,160
389,111,71304,2,0,B|388:220|388:220|336:260,2,160
416,324,72169,1,0,0:0:0:0:
180,324,72458,2,0,P|224:300|288:304,2,80
304,200,73035,5,0,0:0:0:0:
128,106,73323,1,0,0:0:0:0:
44,268,73612,1,0,0:0:0:0:
44,268,73756,2,0,B|48:192|88:116|88:116|92:96|92:96|116:104|116:104|112:116|112:116|128:104|128:104|128:120,1,240
432,60,74477,1,0,0:0:0:0:
432,60,74766,1,0,0:0:0:0:
432,336,75054,1,0,0:0:0:0:
432,336,75343,1,0,0:0:0:0:
64,60,75631,1,0,0:0:0:0:
64,60,75919,1,0,0:0:0:0:
64,336,76208,6,0,L|180:220|184:216,1,160
448,48,76785,2,0,L|332:164|328:168,1,160
67,43,77362,2,0,L|209:125|214:128,1,160
444,340,77939,1,0,0:0:0:0:
444,340,78083,1,0,0:0:0:0:
444,340,78227,1,0,0:0:0:0:
444,340,78371,1,0,0:0:0:0:
444,340,78516,2,0,L|292:216,1,160
252,64,79093,5,0,0:0:0:0:
136,144,79381,2,0,B|56:168|40:228|40:228|56:252,1,154.999995231629
376,144,79958,2,0,B|456:168|472:228|472:228|456:252,1,154.999995231629
260,320,80535,1,0,0:0:0:0:
252,64,80823,1,0,0:0:0:0:
256,192,80968,12,0,82267,0:0:0:0:
140,104,83419,5,0,0:0:0:0:
368,80,83708,2,0,B|272:88|272:88|252:112|252:112|244:80,2,160
396,284,84573,1,0,0:0:0:0:
156,308,84862,1,0,0:0:0:0:
64,52,85150,1,0,0:0:0:0:
64,104,85294,1,0,0:0:0:0:
64,156,85439,1,0,0:0:0:0:
72,336,85727,2,0,P|92:300|200:232,1,154.999995231629
240,228,86160,1,0,0:0:0:0:
300,228,86304,2,0,B|356:212|408:168|416:112,1,154.999995231629
212,44,86881,6,0,B|156:80|152:96|152:96|172:104|172:104|140:116|140:116|148:160,2,154.999995231629
376,60,87746,1,0,0:0:0:0:
400,236,88035,2,0,B|384:280|364:292|328:300,2,77.4999976158143
220,328,88612,1,0,0:0:0:0:
80,208,88900,1,0,0:0:0:0:
64,40,89189,1,0,0:0:0:0:
80,208,89477,1,0,0:0:0:0:
220,328,89766,1,0,0:0:0:0:
396,52,90054,2,0,B|344:76|344:76|344:104,2,77.4999976158143
208,76,90631,5,0,0:0:0:0:
312,260,90919,1,0,0:0:0:0:
92,260,91208,1,0,0:0:0:0:
312,144,91496,1,0,0:0:0:0:
92,144,91785,1,0,0:0:0:0:
208,336,92073,1,0,0:0:0:0:
208,76,92362,1,0,0:0:0:0:
208,132,92506,1,0,0:0:0:0:
208,188,92650,1,0,0:0:0:0:
424,76,92939,5,0,0:0:0:0:
424,132,93083,1,0,0:0:0:0:
424,188,93227,2,0,B|424:252|424:252|388:340|388:340,1,154.999995231629
136,320,93804,1,0,0:0:0:0:
260,200,94093,1,0,0:0:0:0:
136,88,94381,1,0,0:0:0:0:
24,200,94669,2,0,B|20:216|24:216|32:212|36:200|32:188|20:184|12:188|8:204|8:216|12:224|24:224|32:220,2,77.4999976158143
260,200,95246,1,0,0:0:0:0:
488,200,95535,1,0,0:0:0:0:
328,200,95823,1,0,0:0:0:0:
424,200,96112,1,0,0:0:0:0:
376,200,96400,1,0,0:0:0:0:
376,200,96689,1,0,0:0:0:0:
356,36,96977,5,0,0:0:0:0:
308,56,97121,1,0,0:0:0:0:
264,84,97266,1,0,0:0:0:0:
224,120,97410,1,0,0:0:0:0:
204,168,97554,2,0,B|200:176|188:204|188:216|196:240|192:264|192:264,2,77.4999976158143
60,208,98131,1,0,0:0:0:0:
64,48,98419,6,0,P|120:56|228:100,2,154.999995231629
60,208,99285,1,0,0:0:0:0:
196,328,99573,1,0,0:0:0:0:
108,256,99862,1,0,0:0:0:0:
284,260,100150,1,0,0:0:0:0:
196,176,100439,2,0,B|196:112|212:64|240:56|268:48,1,154.999995231629
316,48,100871,1,0,0:0:0:0:
372,52,101016,2,0,B|392:52|404:60|416:72|420:108|424:156|416:184,1,154.999995231629
404,228,101448,5,0,0:0:0:0:
384,276,101593,1,0,0:0:0:0:
348,312,101737,1,0,0:0:0:0:
304,336,101881,2,0,B|288:340|260:344|208:356|164:348|136:332,1,154.999995231629
152,112,102458,1,0,0:0:0:0:
60,252,102746,1,0,0:0:0:0:
60,252,102891,2,0,P|140:288|148:300,2,77.4999976158143
336,224,103468,1,0,0:0:0:0:
376,128,103612,1,0,0:0:0:0:
448,336,103900,5,0,0:0:0:0:
448,188,104189,1,0,0:0:0:0:
296,272,104477,1,0,0:0:0:0:
156,336,104766,1,0,0:0:0:0:
156,188,105054,1,0,0:0:0:0:
156,188,105198,2,0,B|160:144|196:136|196:136|196:108|196:108|252:104,1,154.999995231629
72,72,105631,1,0,0:0:0:0:
72,72,105775,2,0,B|76:88|72:100|60:104|48:120|48:156,1,77.4999976158143
280,56,106208,5,0,0:0:0:0:
352,184,106496,1,0,0:0:0:0:
280,56,106785,1,0,0:0:0:0:
280,56,106929,1,0,0:0:0:0:
280,56,107073,1,0,0:0:0:0:
436,304,107362,1,0,0:0:0:0:
352,184,107650,1,0,0:0:0:0:
280,304,107939,1,0,0:0:0:0:
224,304,108083,1,0,0:0:0:0:
168,304,108227,1,0,0:0:0:0:
64,188,108516,6,0,B|88:112|100:96|112:88|128:84|164:88,1,154.999995231629
396,112,109093,1,0,0:0:0:0:
400,312,109381,1,0,0:0:0:0:
216,172,109669,2,0,B|204:176|192:188|192:208|224:244,1,77.4999976158143
216,348,110102,2,0,B|220:332|232:320|248:300|240:288|232:268|220:252,1,77.4999976158143
312,264,110535,1,0,0:0:0:0:
92,264,110823,1,0,0:0:0:0:
88,60,111112,1,0,0:0:0:0:
280,56,111400,2,0,B|292:44|336:36|368:40,2,77.4999976158143
341,152,111977,1,0,0:0:0:0:
384,228,112121,1,0,0:0:0:0:
233,313,112410,1,0,0:0:0:0:
308,272,112554,1,0,0:0:0:0:
336,60,112843,5,0,0:0:0:0:
100,112,113131,1,0,0:0:0:0:
132,72,113275,1,0,0:0:0:0:
176,48,113419,1,0,0:0:0:0:
212,188,113708,1,0,0:0:0:0:
212,188,113852,1,0,0:0:0:0:
72,252,114141,1,0,0:0:0:0:
72,252,114285,1,0,0:0:0:0:
100,112,114573,2,0,P|128:200|176:256,1,154.999995231629
200,284,115006,1,0,0:0:0:0:
248,312,115150,1,0,0:0:0:0:
452,80,115727,5,0,0:0:0:0:
424,220,116016,1,0,0:0:0:0:
388,188,116160,2,0,P|368:160|320:136,1,77.4999976158143
188,76,116593,2,0,B|172:80|168:96|196:128|236:136,1,77.4999976158143
104,76,117025,2,0,B|118:79|122:95|94:127|74:129,1,77.4999976158143
152,208,117458,1,0,0:0:0:0:
152,260,117602,1,0,0:0:0:0:
152,312,117746,1,0,0:0:0:0:
440,328,118035,6,0,B|440:316|424:304|412:312|392:300|400:292|384:276|344:252|292:312,2,154.999995231629
280,156,118900,2,0,B|276:180|276:180|312:220,1,77.4999976158143
232,48,119333,2,0,B|236:72|236:72|200:112,1,77.4999976158143
56,148,119766,1,0,0:0:0:0:
88,288,120054,1,0,0:0:0:0:
140,304,120198,1,0,0:0:0:0:
192,308,120343,1,0,0:0:0:0:
324,296,120631,1,0,0:0:0:0:
376,284,120775,1,0,0:0:0:0:
420,256,120919,1,0,0:0:0:0:
380,56,121208,6,0,P|352:48|324:88,1,77.4999976158143
132,56,121641,2,0,P|160:48|188:88,1,77.4999976158143
256,88,122073,2,0,L|256:264,1,154.999995231629
256,244,122650,1,0,0:0:0:0:
124,244,122939,1,0,0:0:0:0:
124,244,123083,1,0,0:0:0:0:
124,244,123227,1,0,0:0:0:0:
388,244,123516,1,0,0:0:0:0:
388,244,123660,1,0,0:0:0:0:
256,244,123948,2,0,L|256:160,1,77.4999976158143
120,48,124381,5,0,0:0:0:0:
236,132,124669,1,0,0:0:0:0:
63,70,124958,1,0,0:0:0:0:
292,109,125246,1,0,0:0:0:0:
46,122,125535,1,0,0:0:0:0:
344,132,125823,2,0,B|354:114|354:114|375:119|375:119|390:166,1,77.4999976158143
192,240,126256,2,0,B|192:248|192:248|208:248|208:248|208:272|208:272|248:272,1,77.4999976158143
420,324,126689,1,0,0:0:0:0:
420,184,126977,1,0,0:0:0:0:
420,40,127266,2,0,L|332:40,2,77.4999976158143
200,40,127843,2,0,L|288:40,2,77.4999976158143
144,228,128419,2,0,B|108:190|85:137|85:137|36:135,2,154.999995231629
384,228,129285,1,0,0:0:0:0:
152,332,129573,6,0,L|168:248,1,77.4999976158142
152,332,129862,1,0,0:0:0:0:
256,192,130150,1,0,0:0:0:0:
260,64,130439,1,0,0:0:0:0:
256,192,130727,1,0,0:0:0:0:
352,88,131016,2,0,B|368:104|400:172|368:248,1,154.999995231628
272,312,131593,1,0,0:0:0:0:
132,288,131881,2,0,B|108:224|108:196|136:128,2,154.999995231628
272,180,132746,6,0,B|244:160|224:128|232:100|232:100|284:64|376:64|376:64|472:72,1,309.999990463257
416,296,133612,1,0,0:0:0:0:
184,336,133900,2,0,P|208:288|244:272,2,77.4999976158143
416,296,134477,1,0,0:0:0:0:
256,180,134766,1,0,0:0:0:0:
332,116,135054,1,0,0:0:0:0:
256,180,135343,1,0,0:0:0:0:
180,248,135631,1,0,0:0:0:0:
256,180,135919,1,0,0:0:0:0:
180,116,136208,1,0,0:0:0:0:
332,248,136496,1,0,0:0:0:0:
256,180,136785,5,0,0:0:0:0:
256,180,136929,1,0,0:0:0:0:
256,180,137073,2,0,B|256:100|264:76|264:76|300:76|300:76|296:88|296:88|296:108,1,154.999995231629
256,348,138227,5,0,0:0:0:0:
336,240,138516,1,0,0:0:0:0:
256,348,138804,1,0,0:0:0:0:
176,240,139093,1,0,0:0:0:0:
256,348,139381,1,0,0:0:0:0:
416,132,139669,1,0,0:0:0:0:
256,348,139958,1,0,0:0:0:0:
96,132,140246,1,0,0:0:0:0:
256,348,140535,1,0,0:0:0:0:
256,132,140823,1,0,0:0:0:0:
416,280,141112,1,0,0:0:0:0:
96,280,141400,1,0,0:0:0:0:
256,272,141689,2,0,L|256:364,4,77.4999976158143
92,160,142554,5,0,0:0:0:0:
124,116,142698,1,0,0:0:0:0:
156,72,142843,1,0,0:0:0:0:
256,72,143131,1,0,0:0:0:0:
356,72,143419,1,0,0:0:0:0:
400,104,143564,1,0,0:0:0:0:
444,136,143708,1,0,0:0:0:0:
408,240,143996,2,0,B|364:288|304:304|240:300,1,154.999995231629
80,228,144573,2,0,P|168:284|276:296,2,154.999995231629
256,300,145439,1,0,0:0:0:0:
256,300,145727,1,0,0:0:0:0:
256,80,146016,5,0,0:0:0:0:
256,120,146160,1,0,0:0:0:0:
256,160,146304,1,0,0:0:0:0:
256,200,146448,1,0,0:0:0:0:
256,240,146593,1,0,0:0:0:0:
76,308,148035,6,0,P|76:212|144:140,2,154.999995231629
316,260,148900,2,0,B|344:280|400:220|400:220|348:156,2,154.999995231629
176,208,149766,1,0,0:0:0:0:
160,56,150054,1,0,0:0:0:0:
212,56,150198,1,0,0:0:0:0:
264,56,150343,1,0,0:0:0:0:
436,84,150631,5,0,0:0:0:0:
436,84,150919,1,0,0:0:0:0:
400,204,151208,1,0,0:0:0:0:
356,228,151352,1,0,0:0:0:0:
308,240,151496,1,0,0:0:0:0:
212,160,151785,1,0,0:0:0:0:
180,200,151929,1,0,0:0:0:0:
176,252,152073,1,0,0:0:0:0:
288,348,152362,5,0,0:0:0:0:
340,348,152506,1,0,0:0:0:0:
392,348,152650,1,0,0:0:0:0:
444,348,152794,1,0,0:0:0:0:
472,304,152939,2,0,P|484:240|472:204,2,77.4999976158143
388,120,153516,1,0,0:0:0:0:
112,84,153804,5,0,0:0:0:0:
248,212,154093,1,0,0:0:0:0:
48,248,154381,1,0,0:0:0:0:
200,88,154669,1,0,0:0:0:0:
221,273,154958,1,0,0:0:0:0:
45,172,155246,1,0,0:0:0:0:
250,145,155535,1,0,0:0:0:0:
134,291,155823,1,0,0:0:0:0:
81,95,156112,1,0,0:0:0:0:
148,188,156400,6,0,P|164:208|216:224,2,77.4999976158143
64,228,156977,2,0,B|28:280|28:292|32:304|44:316|56:328|80:336|104:340,1,154.999995231629
152,348,157410,1,0,0:0:0:0:
204,328,157554,2,0,B|232:304|256:252|256:252|312:208,1,154.999995231629
304,212,158131,1,0,0:0:0:0:
324,56,158419,1,0,0:0:0:0:
272,56,158580,1,0,0:0:0:0:
220,56,158708,1,0,0:0:0:0:
52,148,158996,6,0,B|60:120|60:120|120:108,2,77.4999976158143
80,300,159573,1,0,0:0:0:0:
244,300,159862,1,0,0:0:0:0:
80,300,160150,1,0,0:0:0:0:
392,300,160439,1,0,0:0:0:0:
244,300,160727,1,0,0:0:0:0:
392,160,161016,1,0,0:0:0:0:
244,160,161304,1,0,0:0:0:0:
244,160,161448,1,0,0:0:0:0:
244,160,161593,1,0,0:0:0:0:
80,300,161881,5,0,0:0:0:0:
244,300,162169,2,0,B|244:224|244:224|228:184|228:184|252:144,1,154.999995231629
244,160,162746,1,0,0:0:0:0:
120,56,163035,1,0,0:0:0:0:
344,52,163323,1,0,0:0:0:0:
344,52,163468,1,0,0:0:0:0:
344,52,163612,2,0,B|396:80|444:116|448:160,1,154.999995231629
412,324,164189,1,0,0:0:0:0:
292,240,164477,1,0,0:0:0:0:
412,324,164766,1,0,0:0:0:0:
184,152,165054,1,0,0:0:0:0:
292,240,165343,1,0,0:0:0:0:
408,144,165631,5,0,0:0:0:0:
368,112,165775,1,0,0:0:0:0:
316,112,165919,1,0,0:0:0:0:
272,140,166064,1,0,0:0:0:0:
252,188,166208,1,0,0:0:0:0:
252,240,166352,1,0,0:0:0:0:
272,288,166496,1,0,0:0:0:0:
256,32,175727,5,0,0:0:0:0:
424,196,176016,1,0,0:0:0:0:
104,196,176304,1,0,0:0:0:0:
328,316,176593,1,0,0:0:0:0:
184,316,176881,1,0,0:0:0:0:
332,104,177169,1,0,0:0:0:0:
184,104,177458,1,0,0:0:0:0:
56,188,177746,1,0,0:0:0:0:
72,320,178035,5,0,0:0:0:0:
240,344,178323,1,0,0:0:0:0:
408,320,178612,1,0,0:0:0:0:
448,156,178900,1,0,0:0:0:0:
304,68,179189,1,0,0:0:0:0:
152,144,179477,1,0,0:0:0:0:
256,276,179766,1,0,0:0:0:0:
256,276,179910,1,0,0:0:0:0:
256,276,180054,1,0,0:0:0:0:
88,264,180343,6,0,B|52:216|52:184|60:164|72:144|100:128,1,154.999995231629
244,76,180919,1,0,0:0:0:0:
384,196,181208,1,0,0:0:0:0:
168,216,181496,1,0,0:0:0:0:
244,76,181785,1,0,0:0:0:0:
296,296,182073,1,0,0:0:0:0:
284,244,182218,1,0,0:0:0:0:
268,196,182362,1,0,0:0:0:0:
256,192,182506,12,0,184382,0:0:0:0:
152,120,184958,5,0,0:0:0:0:
204,128,185102,1,0,0:0:0:0:
256,128,185246,1,0,0:0:0:0:
424,104,185535,1,0,0:0:0:0:
336,240,185823,2,0,P|364:252|384:296,1,77.4999976158143
304,352,186256,2,0,P|272:344|244:304,1,77.4999976158143
96,176,186689,1,0,0:0:0:0:
220,76,186977,1,0,0:0:0:0:
388,104,187266,2,0,B|464:156|472:240|464:324,2,232.499992847443
336,260,188419,5,0,0:0:0:0:
116,104,188708,1,0,0:0:0:0:
336,260,188996,1,0,0:0:0:0:
336,260,189141,1,0,0:0:0:0:
336,260,189285,1,0,0:0:0:0:
200,344,189573,1,0,0:0:0:0:
64,232,189862,1,0,0:0:0:0:
200,132,190150,1,0,0:0:0:0:
64,44,190439,1,0,0:0:0:0:
256,44,190727,1,0,0:0:0:0:
360,108,191016,5,0,0:0:0:0:
376,152,191160,1,0,0:0:0:0:
368,200,191304,1,0,0:0:0:0:
360,108,191593,1,0,0:0:0:0:
144,108,191881,1,0,0:0:0:0:
368,200,192169,1,0,0:0:0:0:
368,200,192458,1,0,0:0:0:0:
236,304,192746,2,0,P|284:312|336:304,1,77.4999976158143
168,304,193179,2,0,P|136:312|88:308,1,77.4999976158143
204,260,193612,2,0,L|204:96,1,154.999995231629
204,44,194189,5,0,0:0:0:0:
376,108,194477,1,0,0:0:0:0:
352,236,194766,2,0,B|328:196|328:196|328:184|360:156,2,77.4999976158143
140,236,195343,1,0,0:0:0:0:
36,112,195631,1,0,0:0:0:0:
140,236,195919,1,0,0:0:0:0:
252,112,196208,1,0,0:0:0:0:
140,236,196496,1,0,0:0:0:0:
140,236,196641,1,0,0:0:0:0:
140,236,196785,1,0,0:0:0:0:
60,184,197073,5,0,0:0:0:0:
68,136,197218,1,0,0:0:0:0:
92,92,197362,1,0,0:0:0:0:
128,60,197506,1,0,0:0:0:0:
176,44,197650,1,0,0:0:0:0:
224,200,197939,1,0,0:0:0:0:
360,328,198227,6,0,L|400:256,1,77.4999976158143
360,328,198516,1,0,0:0:0:0:
416,96,198804,1,0,0:0:0:0:
296,192,199093,1,0,0:0:0:0:
268,40,199381,1,0,0:0:0:0:
116,64,199669,1,0,0:0:0:0:
212,184,199958,1,0,0:0:0:0:
60,212,200246,1,0,0:0:0:0:
192,352,200535,2,0,B|180:336|176:324|184:316|196:312|224:304|280:296|244:228,1,154.999995231629
256,48,201112,5,0,0:0:0:0:
432,200,201400,1,0,0:0:0:0:
80,200,201689,1,0,0:0:0:0:
432,352,201977,1,0,0:0:0:0:
156,100,202266,1,0,0:0:0:0:
80,352,202554,1,0,0:0:0:0:
356,100,202843,1,0,0:0:0:0:
256,352,203131,1,0,0:0:0:0:
114,205,203419,5,0,0:0:0:0:
243,56,203708,1,0,0:0:0:0:
336,226,203996,1,0,0:0:0:0:
243,56,204285,1,0,0:0:0:0:
114,205,204573,2,0,P|148:289|195:331,1,154.999995231629
352,360,205150,1,0,0:0:0:0:
195,331,205439,1,0,0:0:0:0:
408,126,205727,6,0,B|324:90|324:90|252:95,2,154.999995231628
261,94,206593,1,0,0:0:0:0:
302,325,206881,1,0,0:0:0:0:
261,94,207169,1,0,0:0:0:0:
392,176,207458,1,0,0:0:0:0:
163,218,207746,1,0,0:0:0:0:
132,32,208035,5,0,0:0:0:0:
256,96,208323,1,0,0:0:0:0:
132,32,208612,1,0,0:0:0:0:
113,157,208900,1,0,0:0:0:0:
256,96,209189,1,0,0:0:0:0:
113,157,209477,1,0,0:0:0:0:
263,273,209766,1,0,0:0:0:0:
256,96,210054,2,0,B|332:81|401:123|492:227|443:310,1,309.999990463257
344,352,210919,1,0,0:0:0:0:
344,352,211208,1,0,0:0:0:0:
58,264,211496,1,0,0:0:0:0:
228,124,211785,5,0,0:0:0:0:
384,124,212073,2,0,P|448:56|512:36,2,154.999995231629
308,272,212939,1,0,0:0:0:0:
128,272,213227,1,0,0:0:0:0:
128,80,213516,1,0,0:0:0:0:
308,80,213804,1,0,0:0:0:0:
308,272,214093,1,0,0:0:0:0:
128,80,214381,1,0,0:0:0:0:
216,176,214669,2,0,P|256:180|280:144,2,77.4999976158143
64,240,215246,5,0,0:0:0:0:
228,340,215535,1,0,0:0:0:0:
408,320,215823,2,0,P|448:276|452:212,1,77.4999976158143,0|0,0:0|0:0,0:0:0:0:
416,172,216256,2,0,P|388:108|400:84,1,77.4999976158143
288,56,216689,1,0,0:0:0:0:
248,88,216833,1,0,0:0:0:0:
200,112,216977,1,0,0:0:0:0:
256,220,217266,1,0,0:0:0:0:
64,248,217554,5,0,0:0:0:0:
56,108,217843,1,0,0:0:0:0:
180,180,218131,1,0,0:0:0:0:
320,108,218419,1,0,0:0:0:0:
316,248,218708,1,0,0:0:0:0:
448,180,218996,2,0,L|340:180|268:180,1,154.999995231629
448,180,219573,1,0,0:0:0:0:
256,56,219862,1,0,0:0:0:0:
256,308,220150,1,0,0:0:0:0:
64,180,220439,2,0,L|220:180,1,154.999995231629
144,56,221016,5,0,0:0:0:0:
392,56,221304,1,0,0:0:0:0:
268,160,221593,5,0,0:0:0:0:
268,308,221737,1,0,0:0:0:0:
